  0
SECTION
  2
HEADER
  9
$ACADVER
  1
AC1009
  9
$INSBASE
 10
0.000000
 20
0.000000
  9
$EXTMIN
 10
0.000000
 20
0.000000
  9
$EXTMAX
 10
594.000000
 20
420.000000
  9
$LIMMIN
 10
0.000000
 20
0.000000
  9
$LIMMAX
 10
594.000000
 20
420.000000
  9
$VIEWCTR
 10
297.000000
 20
210.000000
  9
$VIEWSIZE
 40
420.000000
  9
$PEXTMIN
 10
0.000000
 20
0.000000
 30
0.000000
  9
$PEXTMAX
 10
594.000000
 20
420.000000
 30
0.000000
  9
$SNAPMODE
 70
     0
  9
$SNAPUNIT
 10
1.000000
 20
1.000000
  9
$SNAPBASE
 10
0.000000
 20
0.000000
  9
$SNAPANG
 50
0.000000
  9
$SNAPISOPAIR
 70
     0
  9
$SNAPSTYLE
 70
     0
  9
$GRIDMODE
 70
     0
  9
$GRIDUNIT
 10
0.000000
 20
0.000000
  9
$ORTHOMODE
 70
     0
  9
$REGENMODE
 70
     1
  9
$FILLMODE
 70
     1
  9
$QTEXTMODE
 70
     0
  9
$DRAGMODE
 70
     2
  9
$LTSCALE
 40
0.250000
  9
$OSMODE
 70
     0
  9
$ATTMODE
 70
     1
  9
$TEXTSIZE
 40
5.000000
  9
$TRACEWID
 40
0.050000
  9
$TEXTSTYLE
  7
STANDARD
  9
$CLAYER
  8
0
  9
$CELTYPE
  6
BYLAYER
  9
$CECOLOR
 62
   256
  9
$DIMSCALE
 40
1.000000
  9
$DIMASZ
 40
1.000000
  9
$DIMEXO
 40
0.000000
  9
$DIMDLI
 40
0.500000
  9
$DIMRND
 40
0.000000
  9
$DIMDLE
 40
0.000000
  9
$DIMEXE
 40
0.000000
  9
$DIMTP
 40
0.000000
  9
$DIMTM
 40
0.000000
  9
$DIMTXT
 40
3.500000
  9
$DIMCEN
 40
0.000000
  9
$DIMTSZ
 40
0.000000
  9
$DIMTOL
 70
     0
  9
$DIMLIM
 70
     0
  9
$DIMTIH
 70
     1
  9
$DIMTOH
 70
     1
  9
$DIMSE1
 70
     0
  9
$DIMSE2
 70
     0
  9
$DIMTAD
 70
     0
  9
$DIMZIN
 70
     0
  9
$DIMBLK
  1

  9
$DIMASO
 70
     0
  9
$DIMSHO
 70
     0
  9
$DIMPOST
  1

  9
$DIMAPOST
  1

  9
$DIMALT
 70
     0
  9
$DIMALTD
 70
     0
  9
$DIMALTF
 40
25.400000
  9
$DIMLFAC
 40
1.000000
  9
$DIMTOFL
 70
     0
  9
$DIMTVP
 40
0.000000
  9
$DIMTIX
 70
     0
  9
$DIMSOXD
 70
     0
  9
$DIMSAH
 70
     0
  9
$DIMBLKL
  1

  9
$DIMBLKR
  1

  9
$LUNITS
 70
     2
  9
$LUPREC
 70
     2
  9
$AXISMODE
 70
     0
  9
$AXISUNIT
 10
1.000000
 20
1.000000
  9
$SKETCHINC
 40
0.000000
  9
$FILLETRAD
 40
0.000000
  9
$AUNITS
 70
     1
  9
$AUPREC
 70
     2
  9
$MENU
  1
ACAD
  9
$ELEVATION
 40
0.000000
  9
$THICKNESS
 40
0.000000
  9
$VIEWDIR
 10
0.000000
 20
0.000000
 30
1.000000
  9
$LIMCHECK
 70
     1
  9
$BLIPMODE
 70
     1
  9
$CHAMFERA
 40
0.000000
  9
$CHAMFERB
 40
0.000000
  9
$FASTZOOM
 70
     1
  9
$SKPOLY
 70
     0
  9
$TDCREATE
 40
0.000000
  9
$TDUPDATE
 40
0.000000
  9
$TDINDWG
 40
0.000000
  9
$TDUSRTIMER
 40
0.000000
  9
$USRTIMER
 70
     1
  9
$ANGBASE
 50
0.000000
  9
$ANGDIR
 70
     0
  9
$PDMODE
 70
     0
  9
$PDSIZE
 40
0.000000
  9
$PLINEWID
 40
0.000000
  9
$COORDS
 70
     2
  9
$USERI1
 70
     0
  9
$USERI2
 70
     0
  9
$USERI3
 70
     0
  9
$USERI4
 70
     0
  9
$USERI5
 70
     0
  9
$USERR1
 40
0.000000
  9
$USERR2
 40
0.000000
  9
$USERR3
 40
0.000000
  9
$USERR4
 40
0.000000
  9
$USERR5
 40
0.000000
  0
ENDSEC
  0
SECTION
  2
TABLES
  0
TABLE
  2
LTYPE
 70
     5
  0
LTYPE
  2
CONTINUOUS
 70
    64
  3
Solid line
 72
    65
 73
     0
 40
0.0
  0
LTYPE
  2
HIDDEN
 70
    64
  3
------------------------
 72
    65
 73
     2
 40
12.6
 49
8.4
 49
-4.2
  0
LTYPE
  2
DOT
 70
    64
  3
････････････････････････
 72
    65
 73
     2
 40
8.0
 49
6.0
 49
-2.0
  0
LTYPE
  2
DASHDOT
 70
    64
  3
--･--･--･--･--･--･--･--
 72
    65
 73
     4
 40
50.5
 49
30.0
 49
-9.0
 49
2.5
 49
-9.0
  0
LTYPE
  2
DIVIDE
 70
    64
  3
--･･--･･--･･--･･--･･--
 72
    65
 73
     6
 40
58.0
 49
30.0
 49
-9.0
 49
2.5
 49
-5.0
 49
2.5
 49
-9.0
  0
LTYPE
  2
ACAD_ISO06W100
 70
    64
  3
____ ... ____ ... ____
 72
    65
 73
     8
 40
37.5
 49
24.0
 49
-3.0
 49
0.5
 49
-3.0
 49
0.5
 49
-3.0
 49
0.5
 49
-3.0
  0
LTYPE
  2
ACAD_ISO14W100
 70
    64
  3
__ . . . __ . . . __ . . . 
 72
    65
 73
     8
 40
25.5
 49
12.0
 49
-3.0
 49
0.5
 49
-3.0
 49
0.5
 49
-3.0
 49
0.5
 49
-3.0
  0
ENDTAB
  0
TABLE
  2
LAYER
 70
3
  0
LAYER
  2
1
 70
64
 62
7
  6
CONTINUOUS
  0
LAYER
  2
2
 70
64
 62
134
  6
CONTINUOUS
  0
LAYER
  2
20
 70
64
 62
250
  6
CONTINUOUS
  0
ENDTAB
  0
TABLE
  2
STYLE
 70
     2
  0
STYLE
  2
STANDARD
 70
    64
 40
0.0
 41
1.0
 50
0.0
 71
     0
 42
0.2
  3
TXT
  4

  0
STYLE
  2
KANJI
 70
    64
 40
0.0
 41
1.0
 50
0.0
 71
     0
 42
0.2
  3
TXT
  4
BIGFONT
  0
ENDTAB
  0
TABLE
  2
VIEW
 70
     0
  0
ENDTAB
  0
ENDSEC
  0
SECTION
  2
BLOCKS
  0
BLOCK
  8
1
 62
7
  6
CONTINUOUS
  2
*D1
 70
    65
 10
0.0
 20
0.0
  0
LINE
  8
1
 62
7
  6
CONTINUOUS
 10
255.802866
 20
372.629190
 11
111.802866
 21
372.629190
  0
LINE
  8
1
 62
7
  6
CONTINUOUS
 10
255.802866
 20
374.629190
 11
255.802866
 21
224.076190
  0
LINE
  8
1
 62
7
  6
CONTINUOUS
 10
111.802866
 20
374.629190
 11
111.802866
 21
224.076190
  0
LINE
  8
1
 62
7
  6
CONTINUOUS
 10
255.802866
 20
372.629190
 11
251.939163
 21
371.593914
  0
LINE
  8
1
 62
7
  6
CONTINUOUS
 10
255.802866
 20
372.629190
 11
251.939163
 21
373.664466
  0
LINE
  8
1
 62
7
  6
CONTINUOUS
 10
111.802866
 20
372.629190
 11
115.666569
 21
373.664466
  0
LINE
  8
1
 62
7
  6
CONTINUOUS
 10
111.802866
 20
372.629190
 11
115.666569
 21
371.593914
  0
TEXT
  8
1
 62
7
  6
CONTINUOUS
 10
176.302866
 20
372.629190
 40
10.000000
 41
1.000000
  1
144
  7
KANJI
 50
-0.000000
 51
0.000000
  0
ENDBLK
  0
BLOCK
  8
1
 62
7
  6
CONTINUOUS
  2
*D2
 70
    65
 10
0.0
 20
0.0
  0
LINE
  8
1
 62
7
  6
CONTINUOUS
 10
98.389866
 20
363.076190
 11
98.389866
 21
219.076190
  0
LINE
  8
1
 62
7
  6
CONTINUOUS
 10
96.389866
 20
363.076190
 11
250.802866
 21
363.076190
  0
LINE
  8
1
 62
7
  6
CONTINUOUS
 10
96.389866
 20
219.076190
 11
250.802866
 21
219.076190
  0
LINE
  8
1
 62
7
  6
CONTINUOUS
 10
98.389866
 20
363.076190
 11
99.425142
 21
359.212487
  0
LINE
  8
1
 62
7
  6
CONTINUOUS
 10
98.389866
 20
363.076190
 11
97.354590
 21
359.212487
  0
LINE
  8
1
 62
7
  6
CONTINUOUS
 10
98.389866
 20
219.076190
 11
97.354590
 21
222.939893
  0
LINE
  8
1
 62
7
  6
CONTINUOUS
 10
98.389866
 20
219.076190
 11
99.425142
 21
222.939893
  0
TEXT
  8
1
 62
7
  6
CONTINUOUS
 10
98.389866
 20
283.576190
 40
10.000000
 41
1.000000
  1
144
  7
KANJI
 50
90.000000
 51
0.000000
  0
ENDBLK
  0
ENDSEC
  0
SECTION
  2
ENTITIES
  0
LINE
  8
1
 62
7
  6
CONTINUOUS
 10
227.145426
 20
356.252670
 11
227.145426
 21
355.622910
  0
LINE
  8
1
 62
7
  6
CONTINUOUS
 10
227.145426
 20
355.622910
 11
230.133906
 21
355.622910
  0
LINE
  8
1
 62
7
  6
CONTINUOUS
 10
230.133906
 20
355.622910
 11
229.819026
 21
356.252670
  0
LINE
  8
1
 62
7
  6
CONTINUOUS
 10
229.819026
 20
356.252670
 11
227.145426
 21
356.252670
  0
LINE
  8
1
 62
7
  6
CONTINUOUS
 10
227.775186
 20
355.308030
 11
228.717906
 21
355.308030
  0
LINE
  8
1
 62
7
  6
CONTINUOUS
 10
229.661586
 20
353.892990
 11
229.661586
 21
353.106750
  0
LINE
  8
1
 62
7
  6
CONTINUOUS
 10
229.661586
 20
353.106750
 11
228.717906
 21
353.106750
  0
LINE
  8
1
 62
7
  6
CONTINUOUS
 10
228.717906
 20
354.206910
 11
228.717906
 21
355.308030
  0
LINE
  8
1
 62
7
  6
CONTINUOUS
 10
229.032786
 20
353.892990
 11
229.661586
 21
353.892990
  0
ARC
  8
1
 62
7
  6
CONTINUOUS
 10
229.032786
 20
354.206910
 40
0.314880
 50
180.000000
 51
-90.000000
  0
ARC
  8
1
 62
7
  6
CONTINUOUS
 10
228.717906
 20
354.049470
 40
0.943680
 50
180.000000
 51
-90.000000
  0
LINE
  8
1
 62
7
  6
CONTINUOUS
 10
227.775186
 20
355.308030
 11
227.775186
 21
354.049470
  0
LINE
  8
1
 62
7
  6
CONTINUOUS
 10
228.717906
 20
353.106750
 11
229.661586
 21
353.106750
  0
LINE
  8
1
 62
7
  6
CONTINUOUS
 10
230.920146
 20
356.252670
 11
231.863826
 21
356.252670
  0
LINE
  8
1
 62
7
  6
CONTINUOUS
 10
231.863826
 20
356.252670
 11
232.964946
 21
353.106750
  0
LINE
  8
1
 62
7
  6
CONTINUOUS
 10
229.819026
 20
353.106750
 11
232.964946
 21
353.106750
  0
LINE
  8
1
 62
7
  6
CONTINUOUS
 10
230.920146
 20
356.252670
 11
231.863826
 21
353.892990
  0
LINE
  8
1
 62
7
  6
CONTINUOUS
 10
230.605266
 20
355.150590
 11
229.819026
 21
353.106750
  0
LINE
  8
1
 62
7
  6
CONTINUOUS
 10
229.819026
 20
353.106750
 11
232.964946
 21
353.106750
  0
LINE
  8
1
 62
7
  6
CONTINUOUS
 10
230.605266
 20
355.150590
 11
231.392466
 21
355.150590
  0
LINE
  8
1
 62
7
  6
CONTINUOUS
 10
231.392466
 20
355.150590
 11
231.077586
 21
353.892990
  0
LINE
  8
1
 62
7
  6
CONTINUOUS
 10
231.077586
 20
353.892990
 11
231.863826
 21
353.892990
  0
LINE
  8
1
 62
7
  6
CONTINUOUS
 10
233.122386
 20
356.252670
 11
234.066066
 21
356.252670
  0
LINE
  8
1
 62
7
  6
CONTINUOUS
 10
234.066066
 20
356.252670
 11
234.066066
 21
353.106750
  0
LINE
  8
1
 62
7
  6
CONTINUOUS
 10
233.122386
 20
353.106750
 11
233.122386
 21
356.252670
  0
LINE
  8
1
 62
7
  6
CONTINUOUS
 10
235.324626
 20
356.252670
 11
234.222546
 21
354.993150
  0
LINE
  8
1
 62
7
  6
CONTINUOUS
 10
234.222546
 20
354.993150
 11
234.222546
 21
354.364350
  0
LINE
  8
1
 62
7
  6
CONTINUOUS
 10
234.222546
 20
354.364350
 11
235.324626
 21
353.106750
  0
LINE
  8
1
 62
7
  6
CONTINUOUS
 10
235.324626
 20
356.252670
 11
236.425746
 21
356.252670
  0
LINE
  8
1
 62
7
  6
CONTINUOUS
 10
235.324626
 20
353.106750
 11
236.425746
 21
353.106750
  0
LINE
  8
1
 62
7
  6
CONTINUOUS
 10
236.425746
 20
356.252670
 11
235.167186
 21
354.835710
  0
LINE
  8
1
 62
7
  6
CONTINUOUS
 10
235.167186
 20
354.835710
 11
236.425746
 21
353.106750
  0
LINE
  8
1
 62
7
  6
CONTINUOUS
 10
236.582226
 20
356.252670
 11
237.525906
 21
356.252670
  0
LINE
  8
1
 62
7
  6
CONTINUOUS
 10
237.525906
 20
356.252670
 11
237.525906
 21
353.106750
  0
LINE
  8
1
 62
7
  6
CONTINUOUS
 10
237.525906
 20
353.106750
 11
236.582226
 21
353.106750
  0
LINE
  8
1
 62
7
  6
CONTINUOUS
 10
236.582226
 20
353.106750
 11
236.582226
 21
356.252670
  0
LINE
  8
1
 62
7
  6
CONTINUOUS
 10
236.582226
 20
357.195390
 11
237.525906
 21
357.195390
  0
LINE
  8
1
 62
7
  6
CONTINUOUS
 10
237.525906
 20
357.195390
 11
237.525906
 21
356.409150
  0
LINE
  8
1
 62
7
  6
CONTINUOUS
 10
237.525906
 20
356.409150
 11
236.582226
 21
356.409150
  0
LINE
  8
1
 62
7
  6
CONTINUOUS
 10
236.582226
 20
356.409150
 11
236.582226
 21
357.195390
  0
LINE
  8
1
 62
7
  6
CONTINUOUS
 10
237.840786
 20
356.252670
 11
238.784466
 21
356.252670
  0
LINE
  8
1
 62
7
  6
CONTINUOUS
 10
238.784466
 20
356.252670
 11
238.784466
 21
353.106750
  0
LINE
  8
1
 62
7
  6
CONTINUOUS
 10
238.784466
 20
353.106750
 11
237.840786
 21
353.106750
  0
LINE
  8
1
 62
7
  6
CONTINUOUS
 10
237.840786
 20
353.106750
 11
237.840786
 21
356.252670
  0
LINE
  8
1
 62
7
  6
CONTINUOUS
 10
240.043026
 20
356.252670
 11
238.941906
 21
354.993150
  0
LINE
  8
1
 62
7
  6
CONTINUOUS
 10
238.941906
 20
354.993150
 11
238.941906
 21
354.364350
  0
LINE
  8
1
 62
7
  6
CONTINUOUS
 10
238.941906
 20
354.364350
 11
240.043026
 21
353.106750
  0
LINE
  8
1
 62
7
  6
CONTINUOUS
 10
240.043026
 20
356.252670
 11
241.144146
 21
356.252670
  0
LINE
  8
1
 62
7
  6
CONTINUOUS
 10
241.144146
 20
356.252670
 11
239.885586
 21
354.835710
  0
LINE
  8
1
 62
7
  6
CONTINUOUS
 10
239.885586
 20
354.835710
 11
240.732306
 21
353.672190
  0
LINE
  8
1
 62
7
  6
CONTINUOUS
 10
240.043026
 20
353.106750
 11
240.514386
 21
353.106750
  0
LINE
  8
1
 62
7
  6
CONTINUOUS
 10
240.732306
 20
353.672190
 11
240.514386
 21
353.106750
  0
LINE
  8
1
 62
7
  6
CONTINUOUS
 10
241.772946
 20
356.252670
 11
242.716626
 21
356.252670
  0
LINE
  8
1
 62
7
  6
CONTINUOUS
 10
242.716626
 20
356.252670
 11
243.817746
 21
353.106750
  0
LINE
  8
1
 62
7
  6
CONTINUOUS
 10
240.671826
 20
353.106750
 11
243.817746
 21
353.106750
  0
LINE
  8
1
 62
7
  6
CONTINUOUS
 10
241.772946
 20
356.252670
 11
242.716626
 21
353.892990
  0
LINE
  8
1
 62
7
  6
CONTINUOUS
 10
241.458066
 20
355.150590
 11
240.671826
 21
353.106750
  0
LINE
  8
1
 62
7
  6
CONTINUOUS
 10
240.671826
 20
353.106750
 11
243.817746
 21
353.106750
  0
LINE
  8
1
 62
7
  6
CONTINUOUS
 10
241.458066
 20
355.150590
 11
242.244306
 21
355.150590
  0
LINE
  8
1
 62
7
  6
CONTINUOUS
 10
242.244306
 20
355.150590
 11
241.930386
 21
353.892990
  0
LINE
  8
1
 62
7
  6
CONTINUOUS
 10
241.930386
 20
353.892990
 11
242.716626
 21
353.892990
  0
LINE
  8
1
 62
7
  6
CONTINUOUS
 10
243.031506
 20
356.252670
 11
243.975186
 21
356.252670
  0
LINE
  8
1
 62
7
  6
CONTINUOUS
 10
243.031506
 20
356.252670
 11
244.603986
 21
353.106750
  0
LINE
  8
1
 62
7
  6
CONTINUOUS
 10
244.603986
 20
353.106750
 11
245.547666
 21
353.106750
  0
LINE
  8
1
 62
7
  6
CONTINUOUS
 10
243.975186
 20
356.252670
 11
245.547666
 21
353.106750
  0
LINE
  8
1
 62
7
  6
CONTINUOUS
 10
245.232786
 20
356.252670
 11
244.590546
 21
355.333950
  0
LINE
  8
1
 62
7
  6
CONTINUOUS
 10
245.232786
 20
356.252670
 11
245.705106
 21
355.150590
  0
LINE
  8
1
 62
7
  6
CONTINUOUS
 10
246.019026
 20
356.252670
 11
245.705106
 21
355.150590
  0
LINE
  8
1
 62
7
  6
CONTINUOUS
 10
246.019026
 20
356.252670
 11
246.963666
 21
356.252670
  0
LINE
  8
1
 62
7
  6
CONTINUOUS
 10
244.590546
 20
355.333950
 11
245.705106
 21
353.106750
  0
LINE
  8
1
 62
7
  6
CONTINUOUS
 10
246.963666
 20
356.252670
 11
245.705106
 21
353.106750
  0
LINE
  8
1
 62
7
  6
CONTINUOUS
 10
247.435986
 20
356.252670
 11
248.378706
 21
356.252670
  0
LINE
  8
1
 62
7
  6
CONTINUOUS
 10
248.378706
 20
356.252670
 11
249.479826
 21
353.106750
  0
LINE
  8
1
 62
7
  6
CONTINUOUS
 10
246.333906
 20
353.106750
 11
249.479826
 21
353.106750
  0
LINE
  8
1
 62
7
  6
CONTINUOUS
 10
247.435986
 20
356.252670
 11
248.378706
 21
353.892990
  0
LINE
  8
1
 62
7
  6
CONTINUOUS
 10
247.121106
 20
355.150590
 11
246.333906
 21
353.106750
  0
LINE
  8
1
 62
7
  6
CONTINUOUS
 10
246.333906
 20
353.106750
 11
249.479826
 21
353.106750
  0
LINE
  8
1
 62
7
  6
CONTINUOUS
 10
247.121106
 20
355.150590
 11
247.907346
 21
355.150590
  0
LINE
  8
1
 62
7
  6
CONTINUOUS
 10
247.907346
 20
355.150590
 11
247.592466
 21
353.892990
  0
LINE
  8
1
 62
7
  6
CONTINUOUS
 10
247.592466
 20
353.892990
 11
248.378706
 21
353.892990
  0
LINE
  8
1
 62
7
  6
CONTINUOUS
 10
237.840786
 20
357.195390
 11
237.840786
 21
356.409150
  0
LINE
  8
1
 62
7
  6
CONTINUOUS
 10
237.840786
 20
356.409150
 11
238.627026
 21
356.409150
  0
LINE
  8
1
 62
7
  6
CONTINUOUS
 10
237.840786
 20
357.195390
 11
238.627026
 21
357.195390
  0
LINE
  8
1
 62
7
  6
CONTINUOUS
 10
238.627026
 20
357.195390
 11
238.627026
 21
357.101310
  0
LINE
  8
1
 62
7
  6
CONTINUOUS
 10
238.627026
 20
357.101310
 11
237.935826
 21
357.101310
  0
LINE
  8
1
 62
7
  6
CONTINUOUS
 10
237.935826
 20
357.101310
 11
237.935826
 21
356.849790
  0
LINE
  8
1
 62
7
  6
CONTINUOUS
 10
237.935826
 20
356.849790
 11
238.627026
 21
356.849790
  0
LINE
  8
1
 62
7
  6
CONTINUOUS
 10
238.627026
 20
356.849790
 11
238.627026
 21
356.755710
  0
LINE
  8
1
 62
7
  6
CONTINUOUS
 10
238.627026
 20
356.755710
 11
237.935826
 21
356.755710
  0
LINE
  8
1
 62
7
  6
CONTINUOUS
 10
237.935826
 20
356.755710
 11
237.935826
 21
356.504190
  0
LINE
  8
1
 62
7
  6
CONTINUOUS
 10
237.935826
 20
356.504190
 11
238.627026
 21
356.504190
  0
LINE
  8
1
 62
7
  6
CONTINUOUS
 10
238.627026
 20
356.504190
 11
238.627026
 21
356.409150
  0
LINE
  8
1
 62
7
  6
CONTINUOUS
 10
238.784466
 20
356.409150
 11
238.784466
 21
357.195390
  0
LINE
  8
1
 62
7
  6
CONTINUOUS
 10
238.784466
 20
356.409150
 11
238.879506
 21
356.409150
  0
LINE
  8
1
 62
7
  6
CONTINUOUS
 10
238.879506
 20
356.409150
 11
238.879506
 21
357.101310
  0
LINE
  8
1
 62
7
  6
CONTINUOUS
 10
238.784466
 20
357.195390
 11
238.972626
 21
357.195390
  0
LINE
  8
1
 62
7
  6
CONTINUOUS
 10
239.728146
 20
357.195390
 11
239.728146
 21
356.409150
  0
LINE
  8
1
 62
7
  6
CONTINUOUS
 10
239.728146
 20
357.195390
 11
239.633106
 21
357.195390
  0
LINE
  8
1
 62
7
  6
CONTINUOUS
 10
239.728146
 20
356.409150
 11
239.539986
 21
356.409150
  0
LINE
  8
1
 62
7
  6
CONTINUOUS
 10
238.879506
 20
357.101310
 11
238.879506
 21
357.132990
  0
LINE
  8
1
 62
7
  6
CONTINUOUS
 10
238.879506
 20
357.132990
 11
239.539986
 21
356.409150
  0
LINE
  8
1
 62
7
  6
CONTINUOUS
 10
239.633106
 20
357.195390
 11
239.633106
 21
356.471550
  0
LINE
  8
1
 62
7
  6
CONTINUOUS
 10
239.633106
 20
356.471550
 11
238.972626
 21
357.195390
  0
LINE
  8
1
 62
7
  6
CONTINUOUS
 10
240.357906
 20
356.849790
 11
240.829266
 21
356.849790
  0
LINE
  8
1
 62
7
  6
CONTINUOUS
 10
240.829266
 20
356.471550
 11
240.829266
 21
356.849790
  0
LINE
  8
1
 62
7
  6
CONTINUOUS
 10
240.765906
 20
356.409150
 11
239.947986
 21
356.409150
  0
LINE
  8
1
 62
7
  6
CONTINUOUS
 10
239.885586
 20
356.471550
 11
239.885586
 21
357.132990
  0
LINE
  8
1
 62
7
  6
CONTINUOUS
 10
239.947986
 20
357.195390
 11
240.765906
 21
357.195390
  0
LINE
  8
1
 62
7
  6
CONTINUOUS
 10
240.829266
 20
357.132990
 11
240.829266
 21
357.007230
  0
LINE
  8
1
 62
7
  6
CONTINUOUS
 10
240.829266
 20
357.007230
 11
240.735186
 21
357.007230
  0
LINE
  8
1
 62
7
  6
CONTINUOUS
 10
240.735186
 20
357.054270
 11
240.735186
 21
357.007230
  0
LINE
  8
1
 62
7
  6
CONTINUOUS
 10
240.026706
 20
357.101310
 11
240.688146
 21
357.101310
  0
LINE
  8
1
 62
7
  6
CONTINUOUS
 10
239.979666
 20
356.550270
 11
239.979666
 21
357.054270
  0
LINE
  8
1
 62
7
  6
CONTINUOUS
 10
240.688146
 20
356.504190
 11
240.026706
 21
356.504190
  0
LINE
  8
1
 62
7
  6
CONTINUOUS
 10
240.735186
 20
356.550270
 11
240.735186
 21
356.755710
  0
LINE
  8
1
 62
7
  6
CONTINUOUS
 10
240.735186
 20
356.755710
 11
240.357906
 21
356.755710
  0
LINE
  8
1
 62
7
  6
CONTINUOUS
 10
240.357906
 20
356.755710
 11
240.357906
 21
356.849790
  0
ARC
  8
1
 62
7
  6
CONTINUOUS
 10
240.688146
 20
357.054270
 40
0.048000
 50
0.000000
 51
90.000000
  0
ARC
  8
1
 62
7
  6
CONTINUOUS
 10
240.765906
 20
357.132990
 40
0.063360
 50
0.000000
 51
90.000000
  0
ARC
  8
1
 62
7
  6
CONTINUOUS
 10
239.947986
 20
357.132990
 40
0.063360
 50
90.000000
 51
180.000000
  0
ARC
  8
1
 62
7
  6
CONTINUOUS
 10
239.947986
 20
356.471550
 40
0.063360
 50
180.000000
 51
-90.000000
  0
ARC
  8
1
 62
7
  6
CONTINUOUS
 10
240.765906
 20
356.471550
 40
0.063360
 50
-90.000000
 51
0.000000
  0
ARC
  8
1
 62
7
  6
CONTINUOUS
 10
240.026706
 20
357.054270
 40
0.048000
 50
90.000000
 51
180.000000
  0
ARC
  8
1
 62
7
  6
CONTINUOUS
 10
240.026706
 20
356.550270
 40
0.048000
 50
180.000000
 51
-90.000000
  0
ARC
  8
1
 62
7
  6
CONTINUOUS
 10
240.688146
 20
356.550270
 40
0.048000
 50
-90.000000
 51
0.000000
  0
LINE
  8
1
 62
7
  6
CONTINUOUS
 10
240.923346
 20
357.195390
 11
240.923346
 21
356.409150
  0
LINE
  8
1
 62
7
  6
CONTINUOUS
 10
240.923346
 20
356.409150
 11
241.018386
 21
356.409150
  0
LINE
  8
1
 62
7
  6
CONTINUOUS
 10
241.018386
 20
356.409150
 11
241.018386
 21
357.195390
  0
LINE
  8
1
 62
7
  6
CONTINUOUS
 10
241.018386
 20
357.195390
 11
240.923346
 21
357.195390
  0
LINE
  8
1
 62
7
  6
CONTINUOUS
 10
241.112466
 20
356.409150
 11
241.112466
 21
357.195390
  0
LINE
  8
1
 62
7
  6
CONTINUOUS
 10
241.112466
 20
356.409150
 11
241.206546
 21
356.409150
  0
LINE
  8
1
 62
7
  6
CONTINUOUS
 10
241.206546
 20
356.409150
 11
241.206546
 21
357.101310
  0
LINE
  8
1
 62
7
  6
CONTINUOUS
 10
241.112466
 20
357.195390
 11
241.300626
 21
357.195390
  0
LINE
  8
1
 62
7
  6
CONTINUOUS
 10
242.056146
 20
357.195390
 11
242.056146
 21
356.409150
  0
LINE
  8
1
 62
7
  6
CONTINUOUS
 10
242.056146
 20
357.195390
 11
241.961106
 21
357.195390
  0
LINE
  8
1
 62
7
  6
CONTINUOUS
 10
242.056146
 20
356.409150
 11
241.867986
 21
356.409150
  0
LINE
  8
1
 62
7
  6
CONTINUOUS
 10
241.206546
 20
357.101310
 11
241.206546
 21
357.132990
  0
LINE
  8
1
 62
7
  6
CONTINUOUS
 10
241.206546
 20
357.132990
 11
241.867986
 21
356.409150
  0
LINE
  8
1
 62
7
  6
CONTINUOUS
 10
241.961106
 20
357.195390
 11
241.961106
 21
356.471550
  0
LINE
  8
1
 62
7
  6
CONTINUOUS
 10
241.961106
 20
356.471550
 11
241.300626
 21
357.195390
  0
LINE
  8
1
 62
7
  6
CONTINUOUS
 10
242.213586
 20
357.195390
 11
242.213586
 21
356.409150
  0
LINE
  8
1
 62
7
  6
CONTINUOUS
 10
242.213586
 20
356.409150
 11
242.999826
 21
356.409150
  0
LINE
  8
1
 62
7
  6
CONTINUOUS
 10
242.213586
 20
357.195390
 11
242.999826
 21
357.195390
  0
LINE
  8
1
 62
7
  6
CONTINUOUS
 10
242.999826
 20
357.195390
 11
242.999826
 21
357.101310
  0
LINE
  8
1
 62
7
  6
CONTINUOUS
 10
242.999826
 20
357.101310
 11
242.307666
 21
357.101310
  0
LINE
  8
1
 62
7
  6
CONTINUOUS
 10
242.307666
 20
357.101310
 11
242.307666
 21
356.849790
  0
LINE
  8
1
 62
7
  6
CONTINUOUS
 10
242.307666
 20
356.849790
 11
242.999826
 21
356.849790
  0
LINE
  8
1
 62
7
  6
CONTINUOUS
 10
242.999826
 20
356.849790
 11
242.999826
 21
356.755710
  0
LINE
  8
1
 62
7
  6
CONTINUOUS
 10
242.999826
 20
356.755710
 11
242.307666
 21
356.755710
  0
LINE
  8
1
 62
7
  6
CONTINUOUS
 10
242.307666
 20
356.755710
 11
242.307666
 21
356.504190
  0
LINE
  8
1
 62
7
  6
CONTINUOUS
 10
242.307666
 20
356.504190
 11
242.999826
 21
356.504190
  0
LINE
  8
1
 62
7
  6
CONTINUOUS
 10
242.999826
 20
356.504190
 11
242.999826
 21
356.409150
  0
LINE
  8
1
 62
7
  6
CONTINUOUS
 10
243.157266
 20
357.195390
 11
243.157266
 21
356.409150
  0
LINE
  8
1
 62
7
  6
CONTINUOUS
 10
243.157266
 20
356.409150
 11
243.943506
 21
356.409150
  0
LINE
  8
1
 62
7
  6
CONTINUOUS
 10
243.157266
 20
357.195390
 11
243.943506
 21
357.195390
  0
LINE
  8
1
 62
7
  6
CONTINUOUS
 10
243.943506
 20
357.195390
 11
243.943506
 21
357.101310
  0
LINE
  8
1
 62
7
  6
CONTINUOUS
 10
243.943506
 20
357.101310
 11
243.251346
 21
357.101310
  0
LINE
  8
1
 62
7
  6
CONTINUOUS
 10
243.251346
 20
357.101310
 11
243.251346
 21
356.849790
  0
LINE
  8
1
 62
7
  6
CONTINUOUS
 10
243.251346
 20
356.849790
 11
243.943506
 21
356.849790
  0
LINE
  8
1
 62
7
  6
CONTINUOUS
 10
243.943506
 20
356.849790
 11
243.943506
 21
356.755710
  0
LINE
  8
1
 62
7
  6
CONTINUOUS
 10
243.943506
 20
356.755710
 11
243.251346
 21
356.755710
  0
LINE
  8
1
 62
7
  6
CONTINUOUS
 10
243.251346
 20
356.755710
 11
243.251346
 21
356.504190
  0
LINE
  8
1
 62
7
  6
CONTINUOUS
 10
243.251346
 20
356.504190
 11
243.943506
 21
356.504190
  0
LINE
  8
1
 62
7
  6
CONTINUOUS
 10
243.943506
 20
356.504190
 11
243.943506
 21
356.409150
  0
LINE
  8
1
 62
7
  6
CONTINUOUS
 10
244.100946
 20
357.195390
 11
244.100946
 21
356.409150
  0
LINE
  8
1
 62
7
  6
CONTINUOUS
 10
244.100946
 20
356.409150
 11
244.195026
 21
356.409150
  0
LINE
  8
1
 62
7
  6
CONTINUOUS
 10
244.195026
 20
356.409150
 11
244.195026
 21
356.724030
  0
LINE
  8
1
 62
7
  6
CONTINUOUS
 10
244.981266
 20
357.195390
 11
244.100946
 21
357.195390
  0
LINE
  8
1
 62
7
  6
CONTINUOUS
 10
244.887186
 20
357.101310
 11
244.195026
 21
357.101310
  0
ARC
  8
1
 62
7
  6
CONTINUOUS
 10
244.981266
 20
357.132990
 40
0.063360
 50
0.000000
 51
90.000000
  0
LINE
  8
1
 62
7
  6
CONTINUOUS
 10
244.950546
 20
356.409150
 11
245.044626
 21
356.409150
  0
LINE
  8
1
 62
7
  6
CONTINUOUS
 10
244.902546
 20
356.818110
 11
244.195026
 21
356.818110
  0
ARC
  8
1
 62
7
  6
CONTINUOUS
 10
244.902546
 20
356.865150
 40
0.048000
 50
-90.000000
 51
0.000000
  0
LINE
  8
1
 62
7
  6
CONTINUOUS
 10
244.902546
 20
356.724030
 11
244.195026
 21
356.724030
  0
LINE
  8
1
 62
7
  6
CONTINUOUS
 10
244.950546
 20
356.676030
 11
244.950546
 21
356.409150
  0
LINE
  8
1
 62
7
  6
CONTINUOUS
 10
245.044626
 20
356.409150
 11
245.044626
 21
356.724030
  0
ARC
  8
1
 62
7
  6
CONTINUOUS
 10
244.902546
 20
356.676030
 40
0.048000
 50
0.000000
 51
90.000000
  0
LINE
  8
1
 62
7
  6
CONTINUOUS
 10
244.195026
 20
357.101310
 11
244.195026
 21
356.818110
  0
LINE
  8
1
 62
7
  6
CONTINUOUS
 10
244.950546
 20
357.038910
 11
244.950546
 21
356.865150
  0
LINE
  8
1
 62
7
  6
CONTINUOUS
 10
245.044626
 20
356.818110
 11
245.044626
 21
357.132990
  0
ARC
  8
1
 62
7
  6
CONTINUOUS
 10
244.887186
 20
357.038910
 40
0.063360
 50
0.000000
 51
90.000000
  0
ARC
  8
1
 62
7
  6
CONTINUOUS
 10
244.991826
 20
356.818110
 40
0.051840
 50
-66.213000
 51
-0.686000
  0
ARC
  8
1
 62
7
  6
CONTINUOUS
 10
244.991826
 20
356.722110
 40
0.051840
 50
0.686000
 51
66.213000
  0
LINE
  8
1
 62
7
  6
CONTINUOUS
 10
245.138706
 20
357.195390
 11
245.138706
 21
356.409150
  0
LINE
  8
1
 62
7
  6
CONTINUOUS
 10
245.138706
 20
356.409150
 11
245.232786
 21
356.409150
  0
LINE
  8
1
 62
7
  6
CONTINUOUS
 10
245.232786
 20
356.409150
 11
245.232786
 21
357.195390
  0
LINE
  8
1
 62
7
  6
CONTINUOUS
 10
245.232786
 20
357.195390
 11
245.138706
 21
357.195390
  0
LINE
  8
1
 62
7
  6
CONTINUOUS
 10
245.327826
 20
356.409150
 11
245.327826
 21
357.195390
  0
LINE
  8
1
 62
7
  6
CONTINUOUS
 10
245.327826
 20
356.409150
 11
245.421906
 21
356.409150
  0
LINE
  8
1
 62
7
  6
CONTINUOUS
 10
245.421906
 20
356.409150
 11
245.421906
 21
357.101310
  0
LINE
  8
1
 62
7
  6
CONTINUOUS
 10
245.327826
 20
357.195390
 11
245.515986
 21
357.195390
  0
LINE
  8
1
 62
7
  6
CONTINUOUS
 10
246.271506
 20
357.195390
 11
246.271506
 21
356.409150
  0
LINE
  8
1
 62
7
  6
CONTINUOUS
 10
246.271506
 20
357.195390
 11
246.176466
 21
357.195390
  0
LINE
  8
1
 62
7
  6
CONTINUOUS
 10
246.271506
 20
356.409150
 11
246.082386
 21
356.409150
  0
LINE
  8
1
 62
7
  6
CONTINUOUS
 10
245.421906
 20
357.101310
 11
245.421906
 21
357.132990
  0
LINE
  8
1
 62
7
  6
CONTINUOUS
 10
245.421906
 20
357.132990
 11
246.082386
 21
356.409150
  0
LINE
  8
1
 62
7
  6
CONTINUOUS
 10
246.176466
 20
357.195390
 11
246.176466
 21
356.471550
  0
LINE
  8
1
 62
7
  6
CONTINUOUS
 10
246.176466
 20
356.471550
 11
245.515986
 21
357.195390
  0
LINE
  8
1
 62
7
  6
CONTINUOUS
 10
246.901266
 20
356.849790
 11
247.372626
 21
356.849790
  0
LINE
  8
1
 62
7
  6
CONTINUOUS
 10
247.372626
 20
356.471550
 11
247.372626
 21
356.849790
  0
LINE
  8
1
 62
7
  6
CONTINUOUS
 10
247.309266
 20
356.409150
 11
246.491346
 21
356.409150
  0
LINE
  8
1
 62
7
  6
CONTINUOUS
 10
246.428946
 20
356.471550
 11
246.428946
 21
357.132990
  0
LINE
  8
1
 62
7
  6
CONTINUOUS
 10
246.491346
 20
357.195390
 11
247.309266
 21
357.195390
  0
LINE
  8
1
 62
7
  6
CONTINUOUS
 10
247.372626
 20
357.132990
 11
247.372626
 21
357.007230
  0
LINE
  8
1
 62
7
  6
CONTINUOUS
 10
247.372626
 20
357.007230
 11
247.278546
 21
357.007230
  0
LINE
  8
1
 62
7
  6
CONTINUOUS
 10
247.278546
 20
357.054270
 11
247.278546
 21
357.007230
  0
LINE
  8
1
 62
7
  6
CONTINUOUS
 10
246.570066
 20
357.101310
 11
247.230546
 21
357.101310
  0
LINE
  8
1
 62
7
  6
CONTINUOUS
 10
246.523026
 20
356.550270
 11
246.523026
 21
357.054270
  0
LINE
  8
1
 62
7
  6
CONTINUOUS
 10
247.230546
 20
356.504190
 11
246.570066
 21
356.504190
  0
LINE
  8
1
 62
7
  6
CONTINUOUS
 10
247.278546
 20
356.550270
 11
247.278546
 21
356.755710
  0
LINE
  8
1
 62
7
  6
CONTINUOUS
 10
247.278546
 20
356.755710
 11
246.901266
 21
356.755710
  0
LINE
  8
1
 62
7
  6
CONTINUOUS
 10
246.901266
 20
356.755710
 11
246.901266
 21
356.849790
  0
ARC
  8
1
 62
7
  6
CONTINUOUS
 10
247.230546
 20
357.054270
 40
0.048000
 50
0.000000
 51
90.000000
  0
ARC
  8
1
 62
7
  6
CONTINUOUS
 10
247.309266
 20
357.132990
 40
0.063360
 50
0.000000
 51
90.000000
  0
ARC
  8
1
 62
7
  6
CONTINUOUS
 10
246.491346
 20
357.132990
 40
0.063360
 50
90.000000
 51
180.000000
  0
ARC
  8
1
 62
7
  6
CONTINUOUS
 10
246.491346
 20
356.471550
 40
0.063360
 50
180.000000
 51
-90.000000
  0
ARC
  8
1
 62
7
  6
CONTINUOUS
 10
247.309266
 20
356.471550
 40
0.063360
 50
-90.000000
 51
0.000000
  0
ARC
  8
1
 62
7
  6
CONTINUOUS
 10
246.570066
 20
357.054270
 40
0.048000
 50
90.000000
 51
180.000000
  0
ARC
  8
1
 62
7
  6
CONTINUOUS
 10
246.570066
 20
356.550270
 40
0.048000
 50
180.000000
 51
-90.000000
  0
ARC
  8
1
 62
7
  6
CONTINUOUS
 10
247.230546
 20
356.550270
 40
0.048000
 50
-90.000000
 51
0.000000
  0
LINE
  8
1
 62
7
  6
CONTINUOUS
 10
217.917906
 20
355.791870
 11
225.153426
 21
355.791870
  0
LINE
  8
1
 62
7
  6
CONTINUOUS
 10
217.917906
 20
353.590590
 11
225.153426
 21
353.590590
  0
ARC
  8
1
 62
7
  6
CONTINUOUS
 10
225.153426
 20
354.690750
 40
1.101120
 50
0.000000
 51
90.000000
  0
ARC
  8
1
 62
7
  6
CONTINUOUS
 10
225.153426
 20
354.690750
 40
1.101120
 50
-90.000000
 51
0.000000
  0
ARC
  8
1
 62
7
  6
CONTINUOUS
 10
217.917906
 20
354.690750
 40
1.101120
 50
90.000000
 51
180.000000
  0
ARC
  8
1
 62
7
  6
CONTINUOUS
 10
217.917906
 20
354.690750
 40
1.101120
 50
180.000000
 51
-90.000000
  0
LINE
  8
1
 62
7
  6
CONTINUOUS
 10
223.265106
 20
354.061950
 11
225.153426
 21
354.061950
  0
LINE
  8
1
 62
7
  6
CONTINUOUS
 10
217.917906
 20
354.061950
 11
219.805266
 21
354.061950
  0
LINE
  8
1
 62
7
  6
CONTINUOUS
 10
222.951186
 20
354.061950
 11
220.120146
 21
354.061950
  0
LINE
  8
1
 62
7
  6
CONTINUOUS
 10
219.176466
 20
355.319550
 11
217.917906
 21
354.061950
  0
LINE
  8
1
 62
7
  6
CONTINUOUS
 10
223.894866
 20
355.319550
 11
225.153426
 21
354.061950
  0
LINE
  8
1
 62
7
  6
CONTINUOUS
 10
220.435026
 20
355.319550
 11
219.176466
 21
355.319550
  0
LINE
  8
1
 62
7
  6
CONTINUOUS
 10
220.435026
 20
355.319550
 11
219.805266
 21
354.061950
  0
LINE
  8
1
 62
7
  6
CONTINUOUS
 10
220.749906
 20
355.319550
 11
220.120146
 21
354.061950
  0
LINE
  8
1
 62
7
  6
CONTINUOUS
 10
222.636306
 20
355.319550
 11
223.894866
 21
355.319550
  0
LINE
  8
1
 62
7
  6
CONTINUOUS
 10
222.636306
 20
355.319550
 11
223.265106
 21
354.061950
  0
LINE
  8
1
 62
7
  6
CONTINUOUS
 10
222.322386
 20
355.319550
 11
222.951186
 21
354.061950
  0
LINE
  8
1
 62
7
  6
CONTINUOUS
 10
222.322386
 20
355.319550
 11
220.749906
 21
355.319550
  0
TEXT
  8
1
 62
7
  6
CONTINUOUS
 10
154.638517
 20
352.576190
 40
3.000000
 41
1.666667
  1
COUNTING EVENT PRINTER
  7
KANJI
 50
-0.000000
 51
0.000000
  0
TEXT
  8
1
 62
7
  6
CONTINUOUS
 10
212.803223
 20
346.176190
 40
3.000000
 41
1.000000
  1
PRESET1
  7
KANJI
 50
-0.000000
 51
0.000000
  0
TEXT
  8
1
 62
7
  6
CONTINUOUS
 10
212.803223
 20
341.176190
 40
3.000000
 41
1.000000
  1
PRESET2
  7
KANJI
 50
-0.000000
 51
0.000000
  0
TEXT
  8
1
 62
7
  6
CONTINUOUS
 10
212.803223
 20
336.176190
 40
3.000000
 41
1.000000
  1
RS232C
  7
KANJI
 50
-0.000000
 51
0.000000
  0
TEXT
  8
1
 62
7
  6
CONTINUOUS
 10
212.803223
 20
331.176190
 40
3.000000
 41
1.000000
  1
USB
  7
KANJI
 50
-0.000000
 51
0.000000
  0
CIRCLE
  8
1
 62
7
  6
CONTINUOUS
 10
209.802866
 20
332.676190
 40
1.500000
  0
CIRCLE
  8
1
 62
7
  6
CONTINUOUS
 10
209.802866
 20
337.676190
 40
1.500000
  0
CIRCLE
  8
1
 62
7
  6
CONTINUOUS
 10
209.802866
 20
342.676190
 40
1.500000
  0
CIRCLE
  8
1
 62
7
  6
CONTINUOUS
 10
209.802866
 20
347.676190
 40
1.500000
  0
LINE
  8
1
 62
7
  6
CONTINUOUS
 10
126.802866
 20
349.676190
 11
126.802866
 21
330.676190
  0
LINE
  8
1
 62
7
  6
CONTINUOUS
 10
126.802866
 20
330.676190
 11
202.802866
 21
330.676190
  0
LINE
  8
1
 62
7
  6
CONTINUOUS
 10
202.802866
 20
330.676190
 11
202.802866
 21
349.676190
  0
LINE
  8
1
 62
7
  6
CONTINUOUS
 10
202.802866
 20
349.676190
 11
126.802866
 21
349.676190
  0
LINE
  8
1
 62
7
  6
CONTINUOUS
 10
228.302866
 20
323.322675
 11
228.302866
 21
314.322675
  0
LINE
  8
1
 62
7
  6
CONTINUOUS
 10
228.302866
 20
314.322675
 11
237.302866
 21
314.322675
  0
LINE
  8
1
 62
7
  6
CONTINUOUS
 10
237.302866
 20
314.322675
 11
237.302866
 21
323.322675
  0
LINE
  8
1
 62
7
  6
CONTINUOUS
 10
237.302866
 20
323.322675
 11
228.302866
 21
323.322675
  0
LINE
  8
1
 62
7
  6
CONTINUOUS
 10
209.302866
 20
323.322675
 11
209.302866
 21
314.322675
  0
LINE
  8
1
 62
7
  6
CONTINUOUS
 10
209.302866
 20
314.322675
 11
218.302866
 21
314.322675
  0
LINE
  8
1
 62
7
  6
CONTINUOUS
 10
218.302866
 20
314.322675
 11
218.302866
 21
323.322675
  0
LINE
  8
1
 62
7
  6
CONTINUOUS
 10
218.302866
 20
323.322675
 11
209.302866
 21
323.322675
  0
LINE
  8
1
 62
7
  6
CONTINUOUS
 10
190.302866
 20
323.322675
 11
190.302866
 21
314.322675
  0
LINE
  8
1
 62
7
  6
CONTINUOUS
 10
190.302866
 20
314.322675
 11
199.302866
 21
314.322675
  0
LINE
  8
1
 62
7
  6
CONTINUOUS
 10
199.302866
 20
314.322675
 11
199.302866
 21
323.322675
  0
LINE
  8
1
 62
7
  6
CONTINUOUS
 10
199.302866
 20
323.322675
 11
190.302866
 21
323.322675
  0
LINE
  8
1
 62
7
  6
CONTINUOUS
 10
120.796505
 20
314.822675
 11
120.796505
 21
302.122675
  0
LINE
  8
1
 62
7
  6
CONTINUOUS
 10
120.796505
 20
302.122675
 11
128.416505
 21
302.122675
  0
LINE
  8
1
 62
7
  6
CONTINUOUS
 10
128.416505
 20
302.122675
 11
128.416505
 21
314.822675
  0
LINE
  8
1
 62
7
  6
CONTINUOUS
 10
128.416505
 20
314.822675
 11
120.796505
 21
314.822675
  0
LINE
  8
1
 62
7
  6
CONTINUOUS
 10
122.606505
 20
320.822675
 11
122.606505
 21
316.822675
  0
LINE
  8
1
 62
7
  6
CONTINUOUS
 10
122.606505
 20
316.822675
 11
126.606505
 21
316.822675
  0
LINE
  8
1
 62
7
  6
CONTINUOUS
 10
126.606505
 20
316.822675
 11
126.606505
 21
320.822675
  0
LINE
  8
1
 62
7
  6
CONTINUOUS
 10
126.606505
 20
320.822675
 11
122.606505
 21
320.822675
  0
LINE
  8
1
 62
7
  6
CONTINUOUS
 10
122.606505
 20
300.122675
 11
122.606505
 21
296.122675
  0
LINE
  8
1
 62
7
  6
CONTINUOUS
 10
122.606505
 20
296.122675
 11
126.606505
 21
296.122675
  0
LINE
  8
1
 62
7
  6
CONTINUOUS
 10
126.606505
 20
296.122675
 11
126.606505
 21
300.122675
  0
LINE
  8
1
 62
7
  6
CONTINUOUS
 10
126.606505
 20
300.122675
 11
122.606505
 21
300.122675
  0
LINE
  8
1
 62
7
  6
CONTINUOUS
 10
122.606505
 20
290.122675
 11
122.606505
 21
286.122675
  0
LINE
  8
1
 62
7
  6
CONTINUOUS
 10
122.606505
 20
286.122675
 11
126.606505
 21
286.122675
  0
LINE
  8
1
 62
7
  6
CONTINUOUS
 10
126.606505
 20
286.122675
 11
126.606505
 21
290.122675
  0
LINE
  8
1
 62
7
  6
CONTINUOUS
 10
126.606505
 20
290.122675
 11
122.606505
 21
290.122675
  0
LINE
  8
1
 62
7
  6
CONTINUOUS
 10
130.226505
 20
290.122675
 11
130.226505
 21
286.122675
  0
LINE
  8
1
 62
7
  6
CONTINUOUS
 10
130.226505
 20
286.122675
 11
134.226505
 21
286.122675
  0
LINE
  8
1
 62
7
  6
CONTINUOUS
 10
134.226505
 20
286.122675
 11
134.226505
 21
290.122675
  0
LINE
  8
1
 62
7
  6
CONTINUOUS
 10
134.226505
 20
290.122675
 11
130.226505
 21
290.122675
  0
LINE
  8
1
 62
7
  6
CONTINUOUS
 10
137.846505
 20
290.122675
 11
137.846505
 21
286.122675
  0
LINE
  8
1
 62
7
  6
CONTINUOUS
 10
137.846505
 20
286.122675
 11
141.846505
 21
286.122675
  0
LINE
  8
1
 62
7
  6
CONTINUOUS
 10
141.846505
 20
286.122675
 11
141.846505
 21
290.122675
  0
LINE
  8
1
 62
7
  6
CONTINUOUS
 10
141.846505
 20
290.122675
 11
137.846505
 21
290.122675
  0
LINE
  8
1
 62
7
  6
CONTINUOUS
 10
145.466505
 20
290.122675
 11
145.466505
 21
286.122675
  0
LINE
  8
1
 62
7
  6
CONTINUOUS
 10
145.466505
 20
286.122675
 11
149.466505
 21
286.122675
  0
LINE
  8
1
 62
7
  6
CONTINUOUS
 10
149.466505
 20
286.122675
 11
149.466505
 21
290.122675
  0
LINE
  8
1
 62
7
  6
CONTINUOUS
 10
149.466505
 20
290.122675
 11
145.466505
 21
290.122675
  0
LINE
  8
1
 62
7
  6
CONTINUOUS
 10
153.086505
 20
286.122675
 11
153.086505
 21
290.122675
  0
LINE
  8
1
 62
7
  6
CONTINUOUS
 10
153.086505
 20
290.122675
 11
157.086505
 21
290.122675
  0
LINE
  8
1
 62
7
  6
CONTINUOUS
 10
157.086505
 20
290.122675
 11
157.086505
 21
286.122675
  0
LINE
  8
1
 62
7
  6
CONTINUOUS
 10
157.086505
 20
286.122675
 11
153.086505
 21
286.122675
  0
LINE
  8
1
 62
7
  6
CONTINUOUS
 10
160.706505
 20
290.122675
 11
160.706505
 21
286.122675
  0
LINE
  8
1
 62
7
  6
CONTINUOUS
 10
160.706505
 20
286.122675
 11
164.706505
 21
286.122675
  0
LINE
  8
1
 62
7
  6
CONTINUOUS
 10
164.706505
 20
286.122675
 11
164.706505
 21
290.122675
  0
LINE
  8
1
 62
7
  6
CONTINUOUS
 10
164.706505
 20
290.122675
 11
160.706505
 21
290.122675
  0
LINE
  8
1
 62
7
  6
CONTINUOUS
 10
130.226505
 20
269.422675
 11
130.226505
 21
265.422675
  0
LINE
  8
1
 62
7
  6
CONTINUOUS
 10
130.226505
 20
265.422675
 11
134.226505
 21
265.422675
  0
LINE
  8
1
 62
7
  6
CONTINUOUS
 10
134.226505
 20
265.422675
 11
134.226505
 21
269.422675
  0
LINE
  8
1
 62
7
  6
CONTINUOUS
 10
134.226505
 20
269.422675
 11
130.226505
 21
269.422675
  0
LINE
  8
1
 62
7
  6
CONTINUOUS
 10
137.846505
 20
269.422675
 11
137.846505
 21
265.422675
  0
LINE
  8
1
 62
7
  6
CONTINUOUS
 10
137.846505
 20
265.422675
 11
141.846505
 21
265.422675
  0
LINE
  8
1
 62
7
  6
CONTINUOUS
 10
141.846505
 20
265.422675
 11
141.846505
 21
269.422675
  0
LINE
  8
1
 62
7
  6
CONTINUOUS
 10
141.846505
 20
269.422675
 11
137.846505
 21
269.422675
  0
LINE
  8
1
 62
7
  6
CONTINUOUS
 10
145.466505
 20
265.422675
 11
145.466505
 21
269.422675
  0
LINE
  8
1
 62
7
  6
CONTINUOUS
 10
145.466505
 20
269.422675
 11
149.466505
 21
269.422675
  0
LINE
  8
1
 62
7
  6
CONTINUOUS
 10
149.466505
 20
269.422675
 11
149.466505
 21
265.422675
  0
LINE
  8
1
 62
7
  6
CONTINUOUS
 10
149.466505
 20
265.422675
 11
145.466505
 21
265.422675
  0
LINE
  8
1
 62
7
  6
CONTINUOUS
 10
153.086505
 20
269.422675
 11
153.086505
 21
265.422675
  0
LINE
  8
1
 62
7
  6
CONTINUOUS
 10
153.086505
 20
265.422675
 11
157.086505
 21
265.422675
  0
LINE
  8
1
 62
7
  6
CONTINUOUS
 10
157.086505
 20
265.422675
 11
157.086505
 21
269.422675
  0
LINE
  8
1
 62
7
  6
CONTINUOUS
 10
157.086505
 20
269.422675
 11
153.086505
 21
269.422675
  0
LINE
  8
1
 62
7
  6
CONTINUOUS
 10
160.706505
 20
265.422675
 11
160.706505
 21
269.422675
  0
LINE
  8
1
 62
7
  6
CONTINUOUS
 10
160.706505
 20
269.422675
 11
164.706505
 21
269.422675
  0
LINE
  8
1
 62
7
  6
CONTINUOUS
 10
164.706505
 20
269.422675
 11
164.706505
 21
265.422675
  0
LINE
  8
1
 62
7
  6
CONTINUOUS
 10
164.706505
 20
265.422675
 11
160.706505
 21
265.422675
  0
LINE
  8
1
 62
7
  6
CONTINUOUS
 10
120.796505
 20
284.122675
 11
120.796505
 21
271.422675
  0
LINE
  8
1
 62
7
  6
CONTINUOUS
 10
120.796505
 20
271.422675
 11
166.516505
 21
271.422675
  0
LINE
  8
1
 62
7
  6
CONTINUOUS
 10
166.516505
 20
271.422675
 11
166.516505
 21
284.122675
  0
LINE
  8
1
 62
7
  6
CONTINUOUS
 10
166.516505
 20
284.122675
 11
120.796505
 21
284.122675
  0
CIRCLE
  8
1
 62
7
  6
CONTINUOUS
 10
134.806505
 20
299.122675
 40
1.500000
  0
CIRCLE
  8
1
 62
7
  6
CONTINUOUS
 10
134.806505
 20
305.122675
 40
1.500000
  0
CIRCLE
  8
1
 62
7
  6
CONTINUOUS
 10
134.806505
 20
311.122675
 40
1.500000
  0
CIRCLE
  8
1
 62
7
  6
CONTINUOUS
 10
134.806505
 20
317.122675
 40
1.500000
  0
LINE
  8
1
 62
7
  6
CONTINUOUS
 10
122.606505
 20
320.822675
 11
122.606505
 21
316.822675
  0
LINE
  8
1
 62
7
  6
CONTINUOUS
 10
122.606505
 20
316.822675
 11
126.606505
 21
316.822675
  0
LINE
  8
1
 62
7
  6
CONTINUOUS
 10
126.606505
 20
316.822675
 11
126.606505
 21
320.822675
  0
LINE
  8
1
 62
7
  6
CONTINUOUS
 10
126.606505
 20
320.822675
 11
122.606505
 21
320.822675
  0
LINE
  8
1
 62
7
  6
CONTINUOUS
 10
120.796505
 20
314.822675
 11
120.796505
 21
302.122675
  0
LINE
  8
1
 62
7
  6
CONTINUOUS
 10
120.796505
 20
302.122675
 11
128.416505
 21
302.122675
  0
LINE
  8
1
 62
7
  6
CONTINUOUS
 10
128.416505
 20
302.122675
 11
128.416505
 21
314.822675
  0
LINE
  8
1
 62
7
  6
CONTINUOUS
 10
128.416505
 20
314.822675
 11
120.796505
 21
314.822675
  0
LINE
  8
1
 62
7
  6
CONTINUOUS
 10
122.606505
 20
300.122675
 11
122.606505
 21
296.122675
  0
LINE
  8
1
 62
7
  6
CONTINUOUS
 10
122.606505
 20
296.122675
 11
126.606505
 21
296.122675
  0
LINE
  8
1
 62
7
  6
CONTINUOUS
 10
126.606505
 20
296.122675
 11
126.606505
 21
300.122675
  0
LINE
  8
1
 62
7
  6
CONTINUOUS
 10
126.606505
 20
300.122675
 11
122.606505
 21
300.122675
  0
LINE
  8
1
 62
7
  6
CONTINUOUS
 10
119.802866
 20
249.276190
 11
119.802866
 21
230.076190
  0
LINE
  8
1
 62
7
  6
CONTINUOUS
 10
119.802866
 20
230.076190
 11
132.702866
 21
230.076190
  0
LINE
  8
1
 62
7
  6
CONTINUOUS
 10
132.702866
 20
230.076190
 11
132.702866
 21
249.276190
  0
LINE
  8
1
 62
7
  6
CONTINUOUS
 10
132.702866
 20
249.276190
 11
119.802866
 21
249.276190
  0
TEXT
  8
1
 62
7
  6
CONTINUOUS
 10
172.017720
 20
323.322337
 40
3.000000
 41
1.000000
  1
SHIFT
  7
KANJI
 50
-0.000000
 51
0.000000
  0
TEXT
  8
1
 62
7
  6
CONTINUOUS
 10
189.552979
 20
323.323164
 40
3.000000
 41
1.000000
  1
(EJECT)
  7
KANJI
 50
-0.000000
 51
0.000000
  0
TEXT
  8
1
 62
7
  6
CONTINUOUS
 10
191.802979
 20
326.323164
 40
3.000000
 41
1.000000
  1
MODE
  7
KANJI
 50
-0.000000
 51
0.000000
  0
TEXT
  8
1
 62
7
  6
CONTINUOUS
 10
209.302449
 20
323.322312
 40
3.000000
 41
1.000000
  1
(SAVE)
  7
KANJI
 50
-0.000000
 51
0.000000
  0
TEXT
  8
1
 62
7
  6
CONTINUOUS
 10
210.052449
 20
326.322312
 40
3.000000
 41
1.000000
  1
PRINT
  7
KANJI
 50
-0.000000
 51
0.000000
  0
TEXT
  8
1
 62
7
  6
CONTINUOUS
 10
228.302428
 20
323.323156
 40
3.000000
 41
1.000000
  1
(LOAD)
  7
KANJI
 50
-0.000000
 51
0.000000
  0
TEXT
  8
1
 62
7
  6
CONTINUOUS
 10
229.052428
 20
326.323156
 40
3.000000
 41
1.000000
  1
RESET
  7
KANJI
 50
-0.000000
 51
0.000000
  0
LINE
  8
1
 62
7
  6
CONTINUOUS
 10
116.302866
 20
358.576190
 11
116.802866
 21
359.076190
  0
LINE
  8
1
 62
7
  6
CONTINUOUS
 10
250.802866
 20
359.076190
 11
251.302866
 21
358.576190
  0
LINE
  8
1
 62
7
  6
CONTINUOUS
 10
250.802866
 20
223.076190
 11
251.302866
 21
223.576190
  0
LINE
  8
1
 62
7
  6
CONTINUOUS
 10
250.802866
 20
359.076190
 11
116.802866
 21
359.076190
  0
LINE
  8
1
 62
7
  6
CONTINUOUS
 10
251.302866
 20
223.576190
 11
251.302866
 21
358.576190
  0
LINE
  8
1
 62
7
  6
CONTINUOUS
 10
116.302866
 20
358.576190
 11
116.302866
 21
223.576190
  0
LINE
  8
1
 62
7
  6
CONTINUOUS
 10
116.802866
 20
223.076190
 11
250.802866
 21
223.076190
  0
LINE
  8
1
 62
7
  6
CONTINUOUS
 10
116.302866
 20
223.576190
 11
116.802866
 21
223.076190
  0
TEXT
  8
1
 62
7
  6
CONTINUOUS
 10
118.298524
 20
352.520527
 40
4.500000
 41
1.555556
  1
ＡＤ－７００
  7
KANJI
 50
-0.000000
 51
0.000000
  0
TEXT
  8
1
 62
7
  6
CONTINUOUS
 10
122.503228
 20
252.276404
 40
3.000000
 41
1.000000
  1
POWER
  7
KANJI
 50
-0.000000
 51
0.000000
  0
TEXT
  8
1
 62
7
  6
CONTINUOUS
 10
137.806505
 20
315.622675
 40
3.000000
 41
1.000000
  1
PRESET1
  7
KANJI
 50
-0.000000
 51
0.000000
  0
TEXT
  8
1
 62
7
  6
CONTINUOUS
 10
137.806505
 20
309.622675
 40
3.000000
 41
1.000000
  1
PRESET2
  7
KANJI
 50
-0.000000
 51
0.000000
  0
TEXT
  8
1
 62
7
  6
CONTINUOUS
 10
137.806505
 20
303.622675
 40
3.000000
 41
1.000000
  1
INITIAL SET
  7
KANJI
 50
-0.000000
 51
0.000000
  0
TEXT
  8
1
 62
7
  6
CONTINUOUS
 10
137.806505
 20
297.622675
 40
3.000000
 41
1.000000
  1
LOT NUMBER
  7
KANJI
 50
-0.000000
 51
0.000000
  0
LINE
  8
1
 62
7
  6
CONTINUOUS
 10
122.606505
 20
269.422675
 11
122.606505
 21
265.422675
  0
LINE
  8
1
 62
7
  6
CONTINUOUS
 10
122.606505
 20
265.422675
 11
126.606505
 21
265.422675
  0
LINE
  8
1
 62
7
  6
CONTINUOUS
 10
126.606505
 20
265.422675
 11
126.606505
 21
269.422675
  0
LINE
  8
1
 62
7
  6
CONTINUOUS
 10
126.606505
 20
269.422675
 11
122.606505
 21
269.422675
  0
LINE
  8
1
 62
7
  6
CONTINUOUS
 10
173.807454
 20
320.822675
 11
173.807454
 21
316.822675
  0
LINE
  8
1
 62
7
  6
CONTINUOUS
 10
173.807454
 20
316.822675
 11
177.807454
 21
316.822675
  0
LINE
  8
1
 62
7
  6
CONTINUOUS
 10
177.807454
 20
316.822675
 11
177.807454
 21
320.822675
  0
LINE
  8
1
 62
7
  6
CONTINUOUS
 10
177.807454
 20
320.822675
 11
173.807454
 21
320.822675
  0
LINE
  8
1
 62
7
  6
DASHDOT
 10
120.796505
 20
314.822675
 11
120.796505
 21
302.122675
  0
LINE
  8
1
 62
7
  6
DASHDOT
 10
120.796505
 20
302.122675
 11
128.416505
 21
302.122675
  0
LINE
  8
1
 62
7
  6
DASHDOT
 10
128.416505
 20
302.122675
 11
128.416505
 21
314.822675
  0
LINE
  8
1
 62
7
  6
CONTINUOUS
 10
120.796505
 20
314.822675
 11
120.796505
 21
302.122675
  0
LINE
  8
1
 62
7
  6
CONTINUOUS
 10
120.796505
 20
302.122675
 11
128.416505
 21
302.122675
  0
LINE
  8
1
 62
7
  6
CONTINUOUS
 10
128.416505
 20
302.122675
 11
128.416505
 21
314.822675
  0
LINE
  8
1
 62
7
  6
CONTINUOUS
 10
128.416505
 20
314.822675
 11
120.796505
 21
314.822675
  0
LINE
  8
1
 62
7
  6
CONTINUOUS
 10
117.302866
 20
352.076190
 11
250.302866
 21
352.076190
  0
TEXT
  8
1
 62
7
  6
CONTINUOUS
 10
139.156505
 20
321.272675
 40
3.000000
 41
1.000000
  1
SELECT
  7
KANJI
 50
-0.000000
 51
0.000000
  0
TEXT
  8
1
 62
7
  6
CONTINUOUS
 10
135.406357
 20
290.572644
 40
3.000000
 41
1.000000
  1
DATA PRESET
  7
KANJI
 50
-0.000000
 51
0.000000
  0
LINE
  8
1
 62
7
  6
CONTINUOUS
 10
121.302866
 20
322.272675
 11
137.302866
 21
322.272675
  0
ARC
  8
1
 62
7
  6
CONTINUOUS
 10
121.302866
 20
320.272675
 40
2.000000
 50
90.000000
 51
180.000000
  0
LINE
  8
1
 62
7
  6
CONTINUOUS
 10
150.002505
 20
322.272675
 11
166.002505
 21
322.272675
  0
ARC
  8
1
 62
7
  6
CONTINUOUS
 10
166.002505
 20
320.272675
 40
2.000000
 50
0.000000
 51
90.000000
  0
LINE
  8
1
 62
7
  6
CONTINUOUS
 10
168.002505
 20
296.672675
 11
168.002505
 21
320.272675
  0
ARC
  8
1
 62
7
  6
CONTINUOUS
 10
166.002505
 20
296.672675
 40
2.000000
 50
-90.000000
 51
0.000000
  0
LINE
  8
1
 62
7
  6
CONTINUOUS
 10
121.302866
 20
294.672675
 11
166.002505
 21
294.672675
  0
LINE
  8
1
 62
7
  6
CONTINUOUS
 10
119.302866
 20
320.272675
 11
119.302866
 21
296.672675
  0
ARC
  8
1
 62
7
  6
CONTINUOUS
 10
121.302866
 20
296.672675
 40
2.000000
 50
180.000000
 51
-90.000000
  0
LINE
  8
1
 62
7
  6
CONTINUOUS
 10
121.302866
 20
291.572675
 11
133.302866
 21
291.572675
  0
ARC
  8
1
 62
7
  6
CONTINUOUS
 10
121.302866
 20
289.572675
 40
2.000000
 50
90.000000
 51
180.000000
  0
LINE
  8
1
 62
7
  6
CONTINUOUS
 10
154.002505
 20
291.572675
 11
166.002505
 21
291.572675
  0
ARC
  8
1
 62
7
  6
CONTINUOUS
 10
166.002505
 20
289.572675
 40
2.000000
 50
0.000000
 51
90.000000
  0
LINE
  8
1
 62
7
  6
CONTINUOUS
 10
168.002505
 20
265.972675
 11
168.002505
 21
289.572675
  0
ARC
  8
1
 62
7
  6
CONTINUOUS
 10
166.002505
 20
265.972675
 40
2.000000
 50
-90.000000
 51
-0.000000
  0
LINE
  8
1
 62
7
  6
CONTINUOUS
 10
121.302866
 20
263.972675
 11
166.002505
 21
263.972675
  0
LINE
  8
1
 62
7
  6
CONTINUOUS
 10
119.302866
 20
289.572675
 11
119.302866
 21
265.972675
  0
ARC
  8
1
 62
7
  6
CONTINUOUS
 10
121.302866
 20
265.972675
 40
2.000000
 50
180.000000
 51
-90.000000
  0
LINE
  8
1
 62
7
  6
CONTINUOUS
 10
128.606506
 20
317.724598
 11
131.606506
 21
317.724598
  0
LINE
  8
1
 62
7
  6
CONTINUOUS
 10
128.606506
 20
317.724598
 11
130.106506
 21
320.322675
  0
LINE
  8
1
 62
7
  6
CONTINUOUS
 10
130.106506
 20
320.322675
 11
131.606506
 21
317.724598
  0
LINE
  8
1
 62
7
  6
CONTINUOUS
 10
128.606506
 20
299.220750
 11
130.106506
 21
296.622675
  0
LINE
  8
1
 62
7
  6
CONTINUOUS
 10
130.106506
 20
296.622675
 11
131.606505
 21
299.220750
  0
LINE
  8
1
 62
7
  6
CONTINUOUS
 10
128.606506
 20
299.220750
 11
131.606505
 21
299.220750
  0
LINE
  8
1
 62
7
  6
CONTINUOUS
 10
145.302866
 20
233.676190
 11
160.302866
 21
233.676190
  0
LINE
  8
1
 62
7
  6
CONTINUOUS
 10
160.302866
 20
233.676190
 11
160.302866
 21
241.676190
  0
LINE
  8
1
 62
7
  6
CONTINUOUS
 10
160.302866
 20
241.676190
 11
145.302866
 21
241.676190
  0
LINE
  8
1
 62
7
  6
CONTINUOUS
 10
145.302866
 20
241.676190
 11
145.302866
 21
233.676190
  0
LINE
  8
1
 62
7
  6
CONTINUOUS
 10
145.302866
 20
233.676190
 11
160.302866
 21
233.676190
  0
LINE
  8
1
 62
7
  6
CONTINUOUS
 10
160.302866
 20
233.676190
 11
160.302866
 21
241.676190
  0
LINE
  8
1
 62
7
  6
CONTINUOUS
 10
160.302866
 20
241.676190
 11
145.302866
 21
241.676190
  0
LINE
  8
1
 62
7
  6
CONTINUOUS
 10
145.302866
 20
241.676190
 11
145.302866
 21
233.676190
  0
TEXT
  8
1
 62
7
  6
CONTINUOUS
 10
150.552829
 20
243.676378
 40
3.000000
 41
1.000000
  1
USB
  7
KANJI
 50
-0.000000
 51
0.000000
  0
ARC
  8
1
 62
7
  6
CONTINUOUS
 10
114.802866
 20
360.076190
 40
3.000000
 50
90.000000
 51
180.000000
  0
ARC
  8
1
 62
7
  6
CONTINUOUS
 10
114.802866
 20
222.076190
 40
3.000000
 50
180.000000
 51
-90.000000
  0
ARC
  8
1
 62
7
  6
CONTINUOUS
 10
252.802866
 20
222.076190
 40
3.000000
 50
-90.000000
 51
-0.000000
  0
ARC
  8
1
 62
7
  6
CONTINUOUS
 10
252.802866
 20
360.076190
 40
3.000000
 50
0.000000
 51
90.000000
  0
LINE
  8
1
 62
7
  6
CONTINUOUS
 10
114.802866
 20
360.076190
 11
252.802866
 21
360.076190
  0
LINE
  8
1
 62
7
  6
CONTINUOUS
 10
252.802866
 20
360.076190
 11
252.802866
 21
222.076190
  0
LINE
  8
1
 62
7
  6
CONTINUOUS
 10
252.802866
 20
222.076190
 11
114.802866
 21
222.076190
  0
LINE
  8
1
 62
7
  6
CONTINUOUS
 10
114.802866
 20
222.076190
 11
114.802866
 21
360.076190
  0
LINE
  8
1
 62
7
  6
CONTINUOUS
 10
252.802866
 20
363.076190
 11
114.802866
 21
363.076190
  0
LINE
  8
1
 62
7
  6
CONTINUOUS
 10
255.802866
 20
360.076190
 11
255.802866
 21
222.076190
  0
LINE
  8
1
 62
7
  6
CONTINUOUS
 10
252.802866
 20
219.076190
 11
114.802866
 21
219.076190
  0
LINE
  8
1
 62
7
  6
CONTINUOUS
 10
111.802866
 20
222.076190
 11
111.802866
 21
360.076190
  0
LINE
  8
1
 62
7
  6
CONTINUOUS
 10
247.802866
 20
308.776190
 11
171.602866
 21
308.776190
  0
LINE
  8
1
 62
7
  6
CONTINUOUS
 10
247.802866
 20
228.076190
 11
247.802866
 21
308.776190
  0
LINE
  8
1
 62
7
  6
CONTINUOUS
 10
171.602866
 20
228.076190
 11
247.802866
 21
228.076190
  0
LINE
  8
1
 62
7
  6
CONTINUOUS
 10
171.602866
 20
308.776190
 11
171.602866
 21
228.076190
  0
ARC
  8
1
 62
7
  6
CONTINUOUS
 10
172.702866
 20
308.176190
 40
3.000000
 50
90.000000
 51
180.000000
  0
LINE
  8
1
 62
7
  6
CONTINUOUS
 10
246.702866
 20
311.176190
 11
172.702866
 21
311.176190
  0
ARC
  8
1
 62
7
  6
CONTINUOUS
 10
246.702866
 20
308.176190
 40
3.000000
 50
0.000000
 51
90.000000
  0
LINE
  8
1
 62
7
  6
CONTINUOUS
 10
169.702866
 20
308.176190
 11
169.702866
 21
228.676190
  0
ARC
  8
1
 62
7
  6
CONTINUOUS
 10
172.702866
 20
228.676190
 40
3.000000
 50
180.000000
 51
-90.000000
  0
LINE
  8
1
 62
7
  6
CONTINUOUS
 10
172.702866
 20
225.676190
 11
246.702866
 21
225.676190
  0
LINE
  8
1
 62
7
  6
CONTINUOUS
 10
249.702866
 20
228.676190
 11
249.702866
 21
308.176190
  0
ARC
  8
1
 62
7
  6
CONTINUOUS
 10
246.702866
 20
228.676190
 40
3.000000
 50
-90.000000
 51
0.000000
  0
LINE
  8
1
 62
7
  6
CONTINUOUS
 10
173.702866
 20
284.676190
 11
173.702866
 21
229.676190
  0
LINE
  8
1
 62
7
  6
CONTINUOUS
 10
173.702866
 20
229.676190
 11
245.702866
 21
229.676190
  0
LINE
  8
1
 62
7
  6
CONTINUOUS
 10
245.702866
 20
229.676190
 11
245.702866
 21
284.676190
  0
LINE
  8
1
 62
7
  6
CONTINUOUS
 10
245.702866
 20
284.676190
 11
173.702866
 21
284.676190
  0
LINE
  8
1
 62
7
  6
CONTINUOUS
 10
192.202866
 20
274.676190
 11
188.702866
 21
274.676190
  0
LINE
  8
1
 62
7
  6
CONTINUOUS
 10
188.702866
 20
274.676190
 11
188.702866
 21
263.676190
  0
LINE
  8
1
 62
7
  6
CONTINUOUS
 10
188.702866
 20
263.676190
 11
223.702866
 21
263.676190
  0
LINE
  8
1
 62
7
  6
CONTINUOUS
 10
223.702866
 20
263.676190
 11
223.702866
 21
274.676190
  0
LINE
  8
1
 62
7
  6
CONTINUOUS
 10
223.702866
 20
274.676190
 11
220.202866
 21
274.676190
  0
LINE
  8
1
 62
7
  6
CONTINUOUS
 10
192.202866
 20
274.676190
 11
192.298337
 21
274.717105
  0
LINE
  8
1
 62
7
  6
CONTINUOUS
 10
192.298337
 20
274.717105
 11
192.582145
 21
274.838698
  0
LINE
  8
1
 62
7
  6
CONTINUOUS
 10
192.582145
 20
274.838698
 11
193.046550
 21
275.037331
  0
LINE
  8
1
 62
7
  6
CONTINUOUS
 10
193.046550
 20
275.037331
 11
193.678883
 21
275.306425
  0
LINE
  8
1
 62
7
  6
CONTINUOUS
 10
193.678883
 20
275.306425
 11
194.461895
 21
275.635943
  0
LINE
  8
1
 62
7
  6
CONTINUOUS
 10
194.461895
 20
275.635943
 11
195.374229
 21
276.012097
  0
LINE
  8
1
 62
7
  6
CONTINUOUS
 10
195.374229
 20
276.012097
 11
196.390998
 21
276.417560
  0
LINE
  8
1
 62
7
  6
CONTINUOUS
 10
196.390998
 20
276.417560
 11
197.484468
 21
276.832349
  0
LINE
  8
1
 62
7
  6
CONTINUOUS
 10
197.484468
 20
276.832349
 11
198.624811
 21
277.235413
  0
LINE
  8
1
 62
7
  6
CONTINUOUS
 10
198.624811
 20
277.235413
 11
199.780922
 21
277.606738
  0
LINE
  8
1
 62
7
  6
CONTINUOUS
 10
199.780922
 20
277.606738
 11
200.921265
 21
277.929636
  0
LINE
  8
1
 62
7
  6
CONTINUOUS
 10
200.921265
 20
277.929636
 11
202.014734
 21
278.192781
  0
LINE
  8
1
 62
7
  6
CONTINUOUS
 10
202.014734
 20
278.192781
 11
203.031503
 21
278.391554
  0
LINE
  8
1
 62
7
  6
CONTINUOUS
 10
203.031503
 20
278.391554
 11
203.943837
 21
278.528372
  0
LINE
  8
1
 62
7
  6
CONTINUOUS
 10
203.943837
 20
278.528372
 11
204.726850
 21
278.611841
  0
LINE
  8
1
 62
7
  6
CONTINUOUS
 10
204.726850
 20
278.611841
 11
205.359182
 21
278.654838
  0
LINE
  8
1
 62
7
  6
CONTINUOUS
 10
205.359182
 20
278.654838
 11
205.823587
 21
278.671826
  0
LINE
  8
1
 62
7
  6
CONTINUOUS
 10
205.823587
 20
278.671826
 11
206.107395
 21
278.675911
  0
LINE
  8
1
 62
7
  6
CONTINUOUS
 10
206.107395
 20
278.675911
 11
206.202866
 21
278.676190
  0
LINE
  8
1
 62
7
  6
CONTINUOUS
 10
206.202866
 20
278.676190
 11
206.298337
 21
278.675911
  0
LINE
  8
1
 62
7
  6
CONTINUOUS
 10
206.298337
 20
278.675911
 11
206.582145
 21
278.671826
  0
LINE
  8
1
 62
7
  6
CONTINUOUS
 10
206.582145
 20
278.671826
 11
207.046550
 21
278.654838
  0
LINE
  8
1
 62
7
  6
CONTINUOUS
 10
207.046550
 20
278.654838
 11
207.678883
 21
278.611841
  0
LINE
  8
1
 62
7
  6
CONTINUOUS
 10
207.678883
 20
278.611841
 11
208.461895
 21
278.528372
  0
LINE
  8
1
 62
7
  6
CONTINUOUS
 10
208.461895
 20
278.528372
 11
209.374229
 21
278.391554
  0
LINE
  8
1
 62
7
  6
CONTINUOUS
 10
209.374229
 20
278.391554
 11
210.390998
 21
278.192781
  0
LINE
  8
1
 62
7
  6
CONTINUOUS
 10
210.390998
 20
278.192781
 11
211.484468
 21
277.929636
  0
LINE
  8
1
 62
7
  6
CONTINUOUS
 10
211.484468
 20
277.929636
 11
212.624811
 21
277.606738
  0
LINE
  8
1
 62
7
  6
CONTINUOUS
 10
212.624811
 20
277.606738
 11
213.780922
 21
277.235413
  0
LINE
  8
1
 62
7
  6
CONTINUOUS
 10
213.780922
 20
277.235413
 11
214.921265
 21
276.832349
  0
LINE
  8
1
 62
7
  6
CONTINUOUS
 10
214.921265
 20
276.832349
 11
216.014734
 21
276.417560
  0
LINE
  8
1
 62
7
  6
CONTINUOUS
 10
216.014734
 20
276.417560
 11
217.031503
 21
276.012097
  0
LINE
  8
1
 62
7
  6
CONTINUOUS
 10
217.031503
 20
276.012097
 11
217.943837
 21
275.635943
  0
LINE
  8
1
 62
7
  6
CONTINUOUS
 10
217.943837
 20
275.635943
 11
218.726850
 21
275.306425
  0
LINE
  8
1
 62
7
  6
CONTINUOUS
 10
218.726850
 20
275.306425
 11
219.359182
 21
275.037331
  0
LINE
  8
1
 62
7
  6
CONTINUOUS
 10
219.359182
 20
275.037331
 11
219.823587
 21
274.838698
  0
LINE
  8
1
 62
7
  6
CONTINUOUS
 10
219.823587
 20
274.838698
 11
220.107395
 21
274.717105
  0
LINE
  8
1
 62
7
  6
CONTINUOUS
 10
220.107395
 20
274.717105
 11
220.202866
 21
274.676190
  0
ARC
  8
1
 62
7
  6
CONTINUOUS
 10
222.702866
 20
306.176190
 40
1.000000
 50
90.000000
 51
180.000000
  0
LINE
  8
1
 62
7
  6
CONTINUOUS
 10
221.702866
 20
306.176190
 11
221.702866
 21
290.676190
  0
ARC
  8
1
 62
7
  6
CONTINUOUS
 10
222.702866
 20
290.676190
 40
1.000000
 50
180.000000
 51
-90.000000
  0
LINE
  8
1
 62
7
  6
CONTINUOUS
 10
222.702866
 20
289.676190
 11
246.702866
 21
289.676190
  0
ARC
  8
1
 62
7
  6
CONTINUOUS
 10
246.702866
 20
290.676190
 40
1.000000
 50
-90.000000
 51
0.000000
  0
LINE
  8
1
 62
7
  6
CONTINUOUS
 10
246.702866
 20
307.176190
 11
222.702866
 21
307.176190
  0
LINE
  8
1
 62
7
  6
CONTINUOUS
 10
247.702866
 20
290.676190
 11
247.702866
 21
306.176190
  0
ARC
  8
1
 62
7
  6
CONTINUOUS
 10
246.702866
 20
306.176190
 40
1.000000
 50
0.000000
 51
90.000000
  0
CIRCLE
  8
1
 62
7
  6
CONTINUOUS
 10
231.202866
 20
298.426190
 40
4.500000
  0
LINE
  8
1
 62
7
  6
CONTINUOUS
 10
171.602866
 20
308.776190
 11
171.602866
 21
228.076190
  0
LINE
  8
1
 62
7
  6
CONTINUOUS
 10
171.602866
 20
228.076190
 11
247.802866
 21
228.076190
  0
LINE
  8
1
 62
7
  6
CONTINUOUS
 10
247.802866
 20
228.076190
 11
247.802866
 21
308.776190
  0
LINE
  8
1
 62
7
  6
CONTINUOUS
 10
247.802866
 20
308.776190
 11
171.602866
 21
308.776190
  0
TEXT
  8
1
 62
7
  6
CONTINUOUS
 10
227.202455
 20
296.426426
 40
4.000000
 41
1.000000
  1
FEED
  7
KANJI
 50
-0.000000
 51
0.000000
  0
TEXT
  8
1
 62
7
  6
CONTINUOUS
 10
236.502866
 20
296.676426
 40
3.500000
 41
1.000000
  1
STATUS
  7
KANJI
 50
-0.000000
 51
0.000000
  0
CIRCLE
  8
1
 62
7
  6
CONTINUOUS
 10
241.752866
 20
301.551426
 40
1.375000
  0
CIRCLE
  8
1
 62
7
  6
CONTINUOUS
 10
165.249505
 20
273.987675
 40
0.475000
  0
LINE
  8
1
 62
7
  6
CONTINUOUS
 10
160.998505
 20
274.737675
 11
160.436505
 21
274.174675
  0
LINE
  8
1
 62
7
  6
CONTINUOUS
 10
163.639505
 20
274.737675
 11
164.122505
 21
274.174675
  0
LINE
  8
1
 62
7
  6
CONTINUOUS
 10
164.336505
 20
274.362675
 11
163.908505
 21
273.987675
  0
LINE
  8
1
 62
7
  6
CONTINUOUS
 10
160.248505
 20
274.362675
 11
160.623505
 21
273.987675
  0
LINE
  8
1
 62
7
  6
CONTINUOUS
 10
160.623505
 20
273.987675
 11
163.908505
 21
273.987675
  0
LINE
  8
1
 62
7
  6
CONTINUOUS
 10
164.780505
 20
277.518675
 11
164.336505
 21
274.362675
  0
LINE
  8
1
 62
7
  6
CONTINUOUS
 10
164.016505
 20
277.422675
 11
163.639505
 21
274.737675
  0
LINE
  8
1
 62
7
  6
CONTINUOUS
 10
160.998505
 20
274.737675
 11
161.376505
 21
277.422675
  0
LINE
  8
1
 62
7
  6
CONTINUOUS
 10
160.626505
 20
277.422675
 11
160.248505
 21
274.362675
  0
LINE
  8
1
 62
7
  6
CONTINUOUS
 10
160.998505
 20
274.737675
 11
163.639505
 21
274.737675
  0
LINE
  8
1
 62
7
  6
CONTINUOUS
 10
161.376505
 20
277.422675
 11
164.016505
 21
277.422675
  0
LINE
  8
1
 62
7
  6
CONTINUOUS
 10
160.718505
 20
278.076675
 11
161.376505
 21
277.422675
  0
LINE
  8
1
 62
7
  6
CONTINUOUS
 10
161.483505
 20
278.188675
 11
160.626505
 21
277.422675
  0
LINE
  8
1
 62
7
  6
CONTINUOUS
 10
164.843505
 20
278.064675
 11
164.016505
 21
277.422675
  0
LINE
  8
1
 62
7
  6
CONTINUOUS
 10
164.122505
 20
278.172675
 11
164.780505
 21
277.518675
  0
LINE
  8
1
 62
7
  6
CONTINUOUS
 10
161.858505
 20
280.857675
 11
161.483505
 21
278.188675
  0
LINE
  8
1
 62
7
  6
CONTINUOUS
 10
161.483505
 20
278.188675
 11
164.122505
 21
278.188675
  0
LINE
  8
1
 62
7
  6
CONTINUOUS
 10
164.499505
 20
280.857675
 11
164.122505
 21
278.172675
  0
LINE
  8
1
 62
7
  6
CONTINUOUS
 10
165.249505
 20
281.232675
 11
164.843505
 21
278.064675
  0
LINE
  8
1
 62
7
  6
CONTINUOUS
 10
164.874505
 20
281.607675
 11
165.249505
 21
281.232675
  0
LINE
  8
1
 62
7
  6
CONTINUOUS
 10
164.499505
 20
280.857675
 11
165.061505
 21
281.420675
  0
LINE
  8
1
 62
7
  6
CONTINUOUS
 10
161.858505
 20
280.857675
 11
164.499505
 21
280.857675
  0
LINE
  8
1
 62
7
  6
CONTINUOUS
 10
161.483505
 20
281.607675
 11
164.874505
 21
281.607675
  0
LINE
  8
1
 62
7
  6
CONTINUOUS
 10
161.858505
 20
280.857675
 11
161.332505
 21
281.431675
  0
LINE
  8
1
 62
7
  6
CONTINUOUS
 10
161.483505
 20
281.607675
 11
161.161505
 21
281.232675
  0
LINE
  8
1
 62
7
  6
CONTINUOUS
 10
161.161505
 20
281.232675
 11
160.718505
 21
278.076675
  0
LINE
  8
1
 62
7
  6
CONTINUOUS
 10
160.626505
 20
277.422675
 11
160.623505
 21
277.405675
  0
CIRCLE
  8
1
 62
7
  6
CONTINUOUS
 10
157.629505
 20
273.987675
 40
0.475000
  0
LINE
  8
1
 62
7
  6
CONTINUOUS
 10
153.378505
 20
274.737675
 11
152.816505
 21
274.174675
  0
LINE
  8
1
 62
7
  6
CONTINUOUS
 10
156.019505
 20
274.737675
 11
156.502505
 21
274.174675
  0
LINE
  8
1
 62
7
  6
CONTINUOUS
 10
156.716505
 20
274.362675
 11
156.288505
 21
273.987675
  0
LINE
  8
1
 62
7
  6
CONTINUOUS
 10
152.628505
 20
274.362675
 11
153.003505
 21
273.987675
  0
LINE
  8
1
 62
7
  6
CONTINUOUS
 10
153.003505
 20
273.987675
 11
156.288505
 21
273.987675
  0
LINE
  8
1
 62
7
  6
CONTINUOUS
 10
157.160505
 20
277.518675
 11
156.716505
 21
274.362675
  0
LINE
  8
1
 62
7
  6
CONTINUOUS
 10
156.396505
 20
277.422675
 11
156.019505
 21
274.737675
  0
LINE
  8
1
 62
7
  6
CONTINUOUS
 10
153.378505
 20
274.737675
 11
153.756505
 21
277.422675
  0
LINE
  8
1
 62
7
  6
CONTINUOUS
 10
153.006505
 20
277.422675
 11
152.628505
 21
274.362675
  0
LINE
  8
1
 62
7
  6
CONTINUOUS
 10
153.378505
 20
274.737675
 11
156.019505
 21
274.737675
  0
LINE
  8
1
 62
7
  6
CONTINUOUS
 10
153.756505
 20
277.422675
 11
156.396505
 21
277.422675
  0
LINE
  8
1
 62
7
  6
CONTINUOUS
 10
153.098505
 20
278.076675
 11
153.756505
 21
277.422675
  0
LINE
  8
1
 62
7
  6
CONTINUOUS
 10
153.863505
 20
278.188675
 11
153.006505
 21
277.422675
  0
LINE
  8
1
 62
7
  6
CONTINUOUS
 10
157.223505
 20
278.064675
 11
156.396505
 21
277.422675
  0
LINE
  8
1
 62
7
  6
CONTINUOUS
 10
156.502505
 20
278.172675
 11
157.160505
 21
277.518675
  0
LINE
  8
1
 62
7
  6
CONTINUOUS
 10
154.238505
 20
280.857675
 11
153.863505
 21
278.188675
  0
LINE
  8
1
 62
7
  6
CONTINUOUS
 10
153.863505
 20
278.188675
 11
156.502505
 21
278.188675
  0
LINE
  8
1
 62
7
  6
CONTINUOUS
 10
156.879505
 20
280.857675
 11
156.502505
 21
278.172675
  0
LINE
  8
1
 62
7
  6
CONTINUOUS
 10
157.629505
 20
281.232675
 11
157.223505
 21
278.064675
  0
LINE
  8
1
 62
7
  6
CONTINUOUS
 10
157.254505
 20
281.607675
 11
157.629505
 21
281.232675
  0
LINE
  8
1
 62
7
  6
CONTINUOUS
 10
156.879505
 20
280.857675
 11
157.441505
 21
281.420675
  0
LINE
  8
1
 62
7
  6
CONTINUOUS
 10
154.238505
 20
280.857675
 11
156.879505
 21
280.857675
  0
LINE
  8
1
 62
7
  6
CONTINUOUS
 10
153.863505
 20
281.607675
 11
157.254505
 21
281.607675
  0
LINE
  8
1
 62
7
  6
CONTINUOUS
 10
154.238505
 20
280.857675
 11
153.712505
 21
281.431675
  0
LINE
  8
1
 62
7
  6
CONTINUOUS
 10
153.863505
 20
281.607675
 11
153.541505
 21
281.232675
  0
LINE
  8
1
 62
7
  6
CONTINUOUS
 10
153.541505
 20
281.232675
 11
153.098505
 21
278.076675
  0
LINE
  8
1
 62
7
  6
CONTINUOUS
 10
153.006505
 20
277.422675
 11
153.003505
 21
277.405675
  0
CIRCLE
  8
1
 62
7
  6
CONTINUOUS
 10
150.009505
 20
273.987675
 40
0.475000
  0
LINE
  8
1
 62
7
  6
CONTINUOUS
 10
145.758505
 20
274.737675
 11
145.196505
 21
274.174675
  0
LINE
  8
1
 62
7
  6
CONTINUOUS
 10
148.399505
 20
274.737675
 11
148.882505
 21
274.174675
  0
LINE
  8
1
 62
7
  6
CONTINUOUS
 10
149.096505
 20
274.362675
 11
148.668505
 21
273.987675
  0
LINE
  8
1
 62
7
  6
CONTINUOUS
 10
145.008505
 20
274.362675
 11
145.383505
 21
273.987675
  0
LINE
  8
1
 62
7
  6
CONTINUOUS
 10
145.383505
 20
273.987675
 11
148.668505
 21
273.987675
  0
LINE
  8
1
 62
7
  6
CONTINUOUS
 10
149.540505
 20
277.518675
 11
149.096505
 21
274.362675
  0
LINE
  8
1
 62
7
  6
CONTINUOUS
 10
148.776505
 20
277.422675
 11
148.399505
 21
274.737675
  0
LINE
  8
1
 62
7
  6
CONTINUOUS
 10
145.758505
 20
274.737675
 11
146.136505
 21
277.422675
  0
LINE
  8
1
 62
7
  6
CONTINUOUS
 10
145.386505
 20
277.422675
 11
145.008505
 21
274.362675
  0
LINE
  8
1
 62
7
  6
CONTINUOUS
 10
145.758505
 20
274.737675
 11
148.399505
 21
274.737675
  0
LINE
  8
1
 62
7
  6
CONTINUOUS
 10
146.136505
 20
277.422675
 11
148.776505
 21
277.422675
  0
LINE
  8
1
 62
7
  6
CONTINUOUS
 10
145.478505
 20
278.076675
 11
146.136505
 21
277.422675
  0
LINE
  8
1
 62
7
  6
CONTINUOUS
 10
146.243505
 20
278.188675
 11
145.386505
 21
277.422675
  0
LINE
  8
1
 62
7
  6
CONTINUOUS
 10
149.603505
 20
278.064675
 11
148.776505
 21
277.422675
  0
LINE
  8
1
 62
7
  6
CONTINUOUS
 10
148.882505
 20
278.172675
 11
149.540505
 21
277.518675
  0
LINE
  8
1
 62
7
  6
CONTINUOUS
 10
146.618505
 20
280.857675
 11
146.243505
 21
278.188675
  0
LINE
  8
1
 62
7
  6
CONTINUOUS
 10
146.243505
 20
278.188675
 11
148.882505
 21
278.188675
  0
LINE
  8
1
 62
7
  6
CONTINUOUS
 10
149.259505
 20
280.857675
 11
148.882505
 21
278.172675
  0
LINE
  8
1
 62
7
  6
CONTINUOUS
 10
150.009505
 20
281.232675
 11
149.603505
 21
278.064675
  0
LINE
  8
1
 62
7
  6
CONTINUOUS
 10
149.634505
 20
281.607675
 11
150.009505
 21
281.232675
  0
LINE
  8
1
 62
7
  6
CONTINUOUS
 10
149.259505
 20
280.857675
 11
149.821505
 21
281.420675
  0
LINE
  8
1
 62
7
  6
CONTINUOUS
 10
146.618505
 20
280.857675
 11
149.259505
 21
280.857675
  0
LINE
  8
1
 62
7
  6
CONTINUOUS
 10
146.243505
 20
281.607675
 11
149.634505
 21
281.607675
  0
LINE
  8
1
 62
7
  6
CONTINUOUS
 10
146.618505
 20
280.857675
 11
146.092505
 21
281.431675
  0
LINE
  8
1
 62
7
  6
CONTINUOUS
 10
146.243505
 20
281.607675
 11
145.921505
 21
281.232675
  0
LINE
  8
1
 62
7
  6
CONTINUOUS
 10
145.921505
 20
281.232675
 11
145.478505
 21
278.076675
  0
LINE
  8
1
 62
7
  6
CONTINUOUS
 10
145.386505
 20
277.422675
 11
145.383505
 21
277.405675
  0
CIRCLE
  8
1
 62
7
  6
CONTINUOUS
 10
142.389505
 20
273.987675
 40
0.475000
  0
LINE
  8
1
 62
7
  6
CONTINUOUS
 10
138.138505
 20
274.737675
 11
137.576505
 21
274.174675
  0
LINE
  8
1
 62
7
  6
CONTINUOUS
 10
140.779505
 20
274.737675
 11
141.262505
 21
274.174675
  0
LINE
  8
1
 62
7
  6
CONTINUOUS
 10
141.476505
 20
274.362675
 11
141.048505
 21
273.987675
  0
LINE
  8
1
 62
7
  6
CONTINUOUS
 10
137.388505
 20
274.362675
 11
137.763505
 21
273.987675
  0
LINE
  8
1
 62
7
  6
CONTINUOUS
 10
137.763505
 20
273.987675
 11
141.048505
 21
273.987675
  0
LINE
  8
1
 62
7
  6
CONTINUOUS
 10
141.920505
 20
277.518675
 11
141.476505
 21
274.362675
  0
LINE
  8
1
 62
7
  6
CONTINUOUS
 10
141.156505
 20
277.422675
 11
140.779505
 21
274.737675
  0
LINE
  8
1
 62
7
  6
CONTINUOUS
 10
138.138505
 20
274.737675
 11
138.516505
 21
277.422675
  0
LINE
  8
1
 62
7
  6
CONTINUOUS
 10
137.766505
 20
277.422675
 11
137.388505
 21
274.362675
  0
LINE
  8
1
 62
7
  6
CONTINUOUS
 10
138.138505
 20
274.737675
 11
140.779505
 21
274.737675
  0
LINE
  8
1
 62
7
  6
CONTINUOUS
 10
138.516505
 20
277.422675
 11
141.156505
 21
277.422675
  0
LINE
  8
1
 62
7
  6
CONTINUOUS
 10
137.858505
 20
278.076675
 11
138.516505
 21
277.422675
  0
LINE
  8
1
 62
7
  6
CONTINUOUS
 10
138.623505
 20
278.188675
 11
137.766505
 21
277.422675
  0
LINE
  8
1
 62
7
  6
CONTINUOUS
 10
141.983505
 20
278.064675
 11
141.156505
 21
277.422675
  0
LINE
  8
1
 62
7
  6
CONTINUOUS
 10
141.262505
 20
278.172675
 11
141.920505
 21
277.518675
  0
LINE
  8
1
 62
7
  6
CONTINUOUS
 10
138.998505
 20
280.857675
 11
138.623505
 21
278.188675
  0
LINE
  8
1
 62
7
  6
CONTINUOUS
 10
138.623505
 20
278.188675
 11
141.262505
 21
278.188675
  0
LINE
  8
1
 62
7
  6
CONTINUOUS
 10
141.639505
 20
280.857675
 11
141.262505
 21
278.172675
  0
LINE
  8
1
 62
7
  6
CONTINUOUS
 10
142.389505
 20
281.232675
 11
141.983505
 21
278.064675
  0
LINE
  8
1
 62
7
  6
CONTINUOUS
 10
142.014505
 20
281.607675
 11
142.389505
 21
281.232675
  0
LINE
  8
1
 62
7
  6
CONTINUOUS
 10
141.639505
 20
280.857675
 11
142.201505
 21
281.420675
  0
LINE
  8
1
 62
7
  6
CONTINUOUS
 10
138.998505
 20
280.857675
 11
141.639505
 21
280.857675
  0
LINE
  8
1
 62
7
  6
CONTINUOUS
 10
138.623505
 20
281.607675
 11
142.014505
 21
281.607675
  0
LINE
  8
1
 62
7
  6
CONTINUOUS
 10
138.998505
 20
280.857675
 11
138.472505
 21
281.431675
  0
LINE
  8
1
 62
7
  6
CONTINUOUS
 10
138.623505
 20
281.607675
 11
138.301505
 21
281.232675
  0
LINE
  8
1
 62
7
  6
CONTINUOUS
 10
138.301505
 20
281.232675
 11
137.858505
 21
278.076675
  0
LINE
  8
1
 62
7
  6
CONTINUOUS
 10
137.766505
 20
277.422675
 11
137.763505
 21
277.405675
  0
CIRCLE
  8
1
 62
7
  6
CONTINUOUS
 10
134.769505
 20
273.987675
 40
0.475000
  0
LINE
  8
1
 62
7
  6
CONTINUOUS
 10
130.518505
 20
274.737675
 11
129.956505
 21
274.174675
  0
LINE
  8
1
 62
7
  6
CONTINUOUS
 10
133.159505
 20
274.737675
 11
133.642505
 21
274.174675
  0
LINE
  8
1
 62
7
  6
CONTINUOUS
 10
133.856505
 20
274.362675
 11
133.428505
 21
273.987675
  0
LINE
  8
1
 62
7
  6
CONTINUOUS
 10
129.768505
 20
274.362675
 11
130.143505
 21
273.987675
  0
LINE
  8
1
 62
7
  6
CONTINUOUS
 10
130.143505
 20
273.987675
 11
133.428505
 21
273.987675
  0
LINE
  8
1
 62
7
  6
CONTINUOUS
 10
134.300505
 20
277.518675
 11
133.856505
 21
274.362675
  0
LINE
  8
1
 62
7
  6
CONTINUOUS
 10
133.536505
 20
277.422675
 11
133.159505
 21
274.737675
  0
LINE
  8
1
 62
7
  6
CONTINUOUS
 10
130.518505
 20
274.737675
 11
130.896505
 21
277.422675
  0
LINE
  8
1
 62
7
  6
CONTINUOUS
 10
130.146505
 20
277.422675
 11
129.768505
 21
274.362675
  0
LINE
  8
1
 62
7
  6
CONTINUOUS
 10
130.518505
 20
274.737675
 11
133.159505
 21
274.737675
  0
LINE
  8
1
 62
7
  6
CONTINUOUS
 10
130.896505
 20
277.422675
 11
133.536505
 21
277.422675
  0
LINE
  8
1
 62
7
  6
CONTINUOUS
 10
130.238505
 20
278.076675
 11
130.896505
 21
277.422675
  0
LINE
  8
1
 62
7
  6
CONTINUOUS
 10
131.003505
 20
278.188675
 11
130.146505
 21
277.422675
  0
LINE
  8
1
 62
7
  6
CONTINUOUS
 10
134.363505
 20
278.064675
 11
133.536505
 21
277.422675
  0
LINE
  8
1
 62
7
  6
CONTINUOUS
 10
133.642505
 20
278.172675
 11
134.300505
 21
277.518675
  0
LINE
  8
1
 62
7
  6
CONTINUOUS
 10
131.378505
 20
280.857675
 11
131.003505
 21
278.188675
  0
LINE
  8
1
 62
7
  6
CONTINUOUS
 10
131.003505
 20
278.188675
 11
133.642505
 21
278.188675
  0
LINE
  8
1
 62
7
  6
CONTINUOUS
 10
134.019505
 20
280.857675
 11
133.642505
 21
278.172675
  0
LINE
  8
1
 62
7
  6
CONTINUOUS
 10
134.769505
 20
281.232675
 11
134.363505
 21
278.064675
  0
LINE
  8
1
 62
7
  6
CONTINUOUS
 10
134.394505
 20
281.607675
 11
134.769505
 21
281.232675
  0
LINE
  8
1
 62
7
  6
CONTINUOUS
 10
134.019505
 20
280.857675
 11
134.581505
 21
281.420675
  0
LINE
  8
1
 62
7
  6
CONTINUOUS
 10
131.378505
 20
280.857675
 11
134.019505
 21
280.857675
  0
LINE
  8
1
 62
7
  6
CONTINUOUS
 10
131.003505
 20
281.607675
 11
134.394505
 21
281.607675
  0
LINE
  8
1
 62
7
  6
CONTINUOUS
 10
131.378505
 20
280.857675
 11
130.852505
 21
281.431675
  0
LINE
  8
1
 62
7
  6
CONTINUOUS
 10
131.003505
 20
281.607675
 11
130.681505
 21
281.232675
  0
LINE
  8
1
 62
7
  6
CONTINUOUS
 10
130.681505
 20
281.232675
 11
130.238505
 21
278.076675
  0
LINE
  8
1
 62
7
  6
CONTINUOUS
 10
130.146505
 20
277.422675
 11
130.143505
 21
277.405675
  0
CIRCLE
  8
1
 62
7
  6
CONTINUOUS
 10
127.149505
 20
273.987675
 40
0.475000
  0
LINE
  8
1
 62
7
  6
CONTINUOUS
 10
122.898505
 20
274.737675
 11
122.336505
 21
274.174675
  0
LINE
  8
1
 62
7
  6
CONTINUOUS
 10
125.539505
 20
274.737675
 11
126.022505
 21
274.174675
  0
LINE
  8
1
 62
7
  6
CONTINUOUS
 10
126.236505
 20
274.362675
 11
125.808505
 21
273.987675
  0
LINE
  8
1
 62
7
  6
CONTINUOUS
 10
122.148505
 20
274.362675
 11
122.523505
 21
273.987675
  0
LINE
  8
1
 62
7
  6
CONTINUOUS
 10
122.523505
 20
273.987675
 11
125.808505
 21
273.987675
  0
LINE
  8
1
 62
7
  6
CONTINUOUS
 10
126.680505
 20
277.518675
 11
126.236505
 21
274.362675
  0
LINE
  8
1
 62
7
  6
CONTINUOUS
 10
125.916505
 20
277.422675
 11
125.539505
 21
274.737675
  0
LINE
  8
1
 62
7
  6
CONTINUOUS
 10
122.898505
 20
274.737675
 11
123.276505
 21
277.422675
  0
LINE
  8
1
 62
7
  6
CONTINUOUS
 10
122.526505
 20
277.422675
 11
122.148505
 21
274.362675
  0
LINE
  8
1
 62
7
  6
CONTINUOUS
 10
122.898505
 20
274.737675
 11
125.539505
 21
274.737675
  0
LINE
  8
1
 62
7
  6
CONTINUOUS
 10
123.276505
 20
277.422675
 11
125.916505
 21
277.422675
  0
LINE
  8
1
 62
7
  6
CONTINUOUS
 10
122.618505
 20
278.076675
 11
123.276505
 21
277.422675
  0
LINE
  8
1
 62
7
  6
CONTINUOUS
 10
123.383505
 20
278.188675
 11
122.526505
 21
277.422675
  0
LINE
  8
1
 62
7
  6
CONTINUOUS
 10
126.743505
 20
278.064675
 11
125.916505
 21
277.422675
  0
LINE
  8
1
 62
7
  6
CONTINUOUS
 10
126.022505
 20
278.172675
 11
126.680505
 21
277.518675
  0
LINE
  8
1
 62
7
  6
CONTINUOUS
 10
123.758505
 20
280.857675
 11
123.383505
 21
278.188675
  0
LINE
  8
1
 62
7
  6
CONTINUOUS
 10
123.383505
 20
278.188675
 11
126.022505
 21
278.188675
  0
LINE
  8
1
 62
7
  6
CONTINUOUS
 10
126.399505
 20
280.857675
 11
126.022505
 21
278.172675
  0
LINE
  8
1
 62
7
  6
CONTINUOUS
 10
127.149505
 20
281.232675
 11
126.743505
 21
278.064675
  0
LINE
  8
1
 62
7
  6
CONTINUOUS
 10
126.774505
 20
281.607675
 11
127.149505
 21
281.232675
  0
LINE
  8
1
 62
7
  6
CONTINUOUS
 10
126.399505
 20
280.857675
 11
126.961505
 21
281.420675
  0
LINE
  8
1
 62
7
  6
CONTINUOUS
 10
123.758505
 20
280.857675
 11
126.399505
 21
280.857675
  0
LINE
  8
1
 62
7
  6
CONTINUOUS
 10
123.383505
 20
281.607675
 11
126.774505
 21
281.607675
  0
LINE
  8
1
 62
7
  6
CONTINUOUS
 10
123.758505
 20
280.857675
 11
123.232505
 21
281.431675
  0
LINE
  8
1
 62
7
  6
CONTINUOUS
 10
123.383505
 20
281.607675
 11
123.061505
 21
281.232675
  0
LINE
  8
1
 62
7
  6
CONTINUOUS
 10
123.061505
 20
281.232675
 11
122.618505
 21
278.076675
  0
LINE
  8
1
 62
7
  6
CONTINUOUS
 10
122.526505
 20
277.422675
 11
122.523505
 21
277.405675
  0
LINE
  8
1
 62
7
  6
CONTINUOUS
 10
126.774505
 20
312.307675
 11
127.149505
 21
311.932675
  0
LINE
  8
1
 62
7
  6
CONTINUOUS
 10
126.399505
 20
311.557675
 11
126.961505
 21
312.120675
  0
CIRCLE
  8
1
 62
7
  6
CONTINUOUS
 10
127.149505
 20
304.687675
 40
0.475000
  0
LINE
  8
1
 62
7
  6
CONTINUOUS
 10
122.898505
 20
305.437675
 11
122.336505
 21
304.874675
  0
LINE
  8
1
 62
7
  6
CONTINUOUS
 10
125.539505
 20
305.437675
 11
126.022505
 21
304.874675
  0
LINE
  8
1
 62
7
  6
CONTINUOUS
 10
126.236505
 20
305.062675
 11
125.808505
 21
304.687675
  0
LINE
  8
1
 62
7
  6
CONTINUOUS
 10
122.148505
 20
305.062675
 11
122.523505
 21
304.687675
  0
LINE
  8
1
 62
7
  6
CONTINUOUS
 10
122.523505
 20
304.687675
 11
125.808505
 21
304.687675
  0
LINE
  8
1
 62
7
  6
CONTINUOUS
 10
126.680505
 20
308.218675
 11
126.236505
 21
305.062675
  0
LINE
  8
1
 62
7
  6
CONTINUOUS
 10
125.916505
 20
308.122675
 11
125.539505
 21
305.437675
  0
LINE
  8
1
 62
7
  6
CONTINUOUS
 10
122.898505
 20
305.437675
 11
123.276505
 21
308.122675
  0
LINE
  8
1
 62
7
  6
CONTINUOUS
 10
122.526505
 20
308.122675
 11
122.148505
 21
305.062675
  0
LINE
  8
1
 62
7
  6
CONTINUOUS
 10
122.898505
 20
305.437675
 11
125.539505
 21
305.437675
  0
LINE
  8
1
 62
7
  6
CONTINUOUS
 10
123.276505
 20
308.122675
 11
125.916505
 21
308.122675
  0
LINE
  8
1
 62
7
  6
CONTINUOUS
 10
122.618505
 20
308.776675
 11
123.276505
 21
308.122675
  0
LINE
  8
1
 62
7
  6
CONTINUOUS
 10
123.383505
 20
308.888675
 11
122.526505
 21
308.122675
  0
LINE
  8
1
 62
7
  6
CONTINUOUS
 10
126.743505
 20
308.764675
 11
125.916505
 21
308.122675
  0
LINE
  8
1
 62
7
  6
CONTINUOUS
 10
126.022505
 20
308.872675
 11
126.680505
 21
308.218675
  0
LINE
  8
1
 62
7
  6
CONTINUOUS
 10
123.758505
 20
311.557675
 11
123.383505
 21
308.888675
  0
LINE
  8
1
 62
7
  6
CONTINUOUS
 10
123.383505
 20
308.888675
 11
126.022505
 21
308.888675
  0
LINE
  8
1
 62
7
  6
CONTINUOUS
 10
126.399505
 20
311.557675
 11
126.022505
 21
308.872675
  0
LINE
  8
1
 62
7
  6
CONTINUOUS
 10
127.149505
 20
311.932675
 11
126.743505
 21
308.764675
  0
LINE
  8
1
 62
7
  6
CONTINUOUS
 10
123.758505
 20
311.557675
 11
126.399505
 21
311.557675
  0
LINE
  8
1
 62
7
  6
CONTINUOUS
 10
123.383505
 20
312.307675
 11
126.774505
 21
312.307675
  0
LINE
  8
1
 62
7
  6
CONTINUOUS
 10
123.758505
 20
311.557675
 11
123.232505
 21
312.131675
  0
LINE
  8
1
 62
7
  6
CONTINUOUS
 10
123.383505
 20
312.307675
 11
123.061505
 21
311.932675
  0
LINE
  8
1
 62
7
  6
CONTINUOUS
 10
123.061505
 20
311.932675
 11
122.618505
 21
308.776675
  0
CIRCLE
  8
1
 62
7
  6
CONTINUOUS
 10
200.944866
 20
332.600190
 40
0.950000
  0
LINE
  8
1
 62
7
  6
CONTINUOUS
 10
192.444866
 20
334.100190
 11
191.319866
 21
332.975190
  0
LINE
  8
1
 62
7
  6
CONTINUOUS
 10
197.724866
 20
334.100190
 11
198.691866
 21
332.975190
  0
LINE
  8
1
 62
7
  6
CONTINUOUS
 10
199.119866
 20
333.350190
 11
198.263866
 21
332.600190
  0
LINE
  8
1
 62
7
  6
CONTINUOUS
 10
190.944866
 20
333.350190
 11
191.694866
 21
332.600190
  0
LINE
  8
1
 62
7
  6
CONTINUOUS
 10
191.694866
 20
332.600190
 11
198.263866
 21
332.600190
  0
LINE
  8
1
 62
7
  6
CONTINUOUS
 10
200.006866
 20
339.662190
 11
199.119866
 21
333.350190
  0
LINE
  8
1
 62
7
  6
CONTINUOUS
 10
198.479866
 20
339.470190
 11
197.724866
 21
334.100190
  0
LINE
  8
1
 62
7
  6
CONTINUOUS
 10
192.444866
 20
334.100190
 11
193.199866
 21
339.470190
  0
LINE
  8
1
 62
7
  6
CONTINUOUS
 10
191.699866
 20
339.470190
 11
190.944866
 21
333.350190
  0
LINE
  8
1
 62
7
  6
CONTINUOUS
 10
192.444866
 20
334.100190
 11
197.724866
 21
334.100190
  0
LINE
  8
1
 62
7
  6
CONTINUOUS
 10
193.199866
 20
339.470190
 11
198.479866
 21
339.470190
  0
LINE
  8
1
 62
7
  6
CONTINUOUS
 10
191.883866
 20
340.778190
 11
193.199866
 21
339.470190
  0
LINE
  8
1
 62
7
  6
CONTINUOUS
 10
193.414866
 20
341.002190
 11
191.699866
 21
339.470190
  0
LINE
  8
1
 62
7
  6
CONTINUOUS
 10
200.132866
 20
340.754190
 11
198.479866
 21
339.470190
  0
LINE
  8
1
 62
7
  6
CONTINUOUS
 10
198.690866
 20
340.970190
 11
200.006866
 21
339.662190
  0
LINE
  8
1
 62
7
  6
CONTINUOUS
 10
194.164866
 20
346.340190
 11
193.414866
 21
341.002190
  0
LINE
  8
1
 62
7
  6
CONTINUOUS
 10
193.414866
 20
341.002190
 11
198.690866
 21
341.002190
  0
LINE
  8
1
 62
7
  6
CONTINUOUS
 10
199.444866
 20
346.340190
 11
198.690866
 21
340.970190
  0
LINE
  8
1
 62
7
  6
CONTINUOUS
 10
200.944866
 20
347.090190
 11
200.132866
 21
340.754190
  0
LINE
  8
1
 62
7
  6
CONTINUOUS
 10
200.194866
 20
347.840190
 11
200.944866
 21
347.090190
  0
LINE
  8
1
 62
7
  6
CONTINUOUS
 10
199.444866
 20
346.340190
 11
200.569866
 21
347.465190
  0
LINE
  8
1
 62
7
  6
CONTINUOUS
 10
194.164866
 20
346.340190
 11
199.444866
 21
346.340190
  0
LINE
  8
1
 62
7
  6
CONTINUOUS
 10
193.414866
 20
347.840190
 11
200.194866
 21
347.840190
  0
LINE
  8
1
 62
7
  6
CONTINUOUS
 10
194.164866
 20
346.340190
 11
193.112866
 21
347.488190
  0
LINE
  8
1
 62
7
  6
CONTINUOUS
 10
193.414866
 20
347.840190
 11
192.770866
 21
347.090190
  0
LINE
  8
1
 62
7
  6
CONTINUOUS
 10
192.770866
 20
347.090190
 11
191.883866
 21
340.778190
  0
LINE
  8
1
 62
7
  6
CONTINUOUS
 10
191.699866
 20
339.470190
 11
191.694866
 21
339.436190
  0
CIRCLE
  8
1
 62
7
  6
CONTINUOUS
 10
188.444866
 20
332.600190
 40
0.950000
  0
LINE
  8
1
 62
7
  6
CONTINUOUS
 10
179.944866
 20
334.100190
 11
178.819866
 21
332.975190
  0
LINE
  8
1
 62
7
  6
CONTINUOUS
 10
185.224866
 20
334.100190
 11
186.191866
 21
332.975190
  0
LINE
  8
1
 62
7
  6
CONTINUOUS
 10
186.619866
 20
333.350190
 11
185.763866
 21
332.600190
  0
LINE
  8
1
 62
7
  6
CONTINUOUS
 10
178.444866
 20
333.350190
 11
179.194866
 21
332.600190
  0
LINE
  8
1
 62
7
  6
CONTINUOUS
 10
179.194866
 20
332.600190
 11
185.763866
 21
332.600190
  0
LINE
  8
1
 62
7
  6
CONTINUOUS
 10
187.506866
 20
339.662190
 11
186.619866
 21
333.350190
  0
LINE
  8
1
 62
7
  6
CONTINUOUS
 10
185.979866
 20
339.470190
 11
185.224866
 21
334.100190
  0
LINE
  8
1
 62
7
  6
CONTINUOUS
 10
179.944866
 20
334.100190
 11
180.699866
 21
339.470190
  0
LINE
  8
1
 62
7
  6
CONTINUOUS
 10
179.199866
 20
339.470190
 11
178.444866
 21
333.350190
  0
LINE
  8
1
 62
7
  6
CONTINUOUS
 10
179.944866
 20
334.100190
 11
185.224866
 21
334.100190
  0
LINE
  8
1
 62
7
  6
CONTINUOUS
 10
180.699866
 20
339.470190
 11
185.979866
 21
339.470190
  0
LINE
  8
1
 62
7
  6
CONTINUOUS
 10
179.383866
 20
340.778190
 11
180.699866
 21
339.470190
  0
LINE
  8
1
 62
7
  6
CONTINUOUS
 10
180.914866
 20
341.002190
 11
179.199866
 21
339.470190
  0
LINE
  8
1
 62
7
  6
CONTINUOUS
 10
187.632866
 20
340.754190
 11
185.979866
 21
339.470190
  0
LINE
  8
1
 62
7
  6
CONTINUOUS
 10
186.190866
 20
340.970190
 11
187.506866
 21
339.662190
  0
LINE
  8
1
 62
7
  6
CONTINUOUS
 10
181.664866
 20
346.340190
 11
180.914866
 21
341.002190
  0
LINE
  8
1
 62
7
  6
CONTINUOUS
 10
180.914866
 20
341.002190
 11
186.190866
 21
341.002190
  0
LINE
  8
1
 62
7
  6
CONTINUOUS
 10
186.944866
 20
346.340190
 11
186.190866
 21
340.970190
  0
LINE
  8
1
 62
7
  6
CONTINUOUS
 10
188.444866
 20
347.090190
 11
187.632866
 21
340.754190
  0
LINE
  8
1
 62
7
  6
CONTINUOUS
 10
187.694866
 20
347.840190
 11
188.444866
 21
347.090190
  0
LINE
  8
1
 62
7
  6
CONTINUOUS
 10
186.944866
 20
346.340190
 11
188.069866
 21
347.465190
  0
LINE
  8
1
 62
7
  6
CONTINUOUS
 10
181.664866
 20
346.340190
 11
186.944866
 21
346.340190
  0
LINE
  8
1
 62
7
  6
CONTINUOUS
 10
180.914866
 20
347.840190
 11
187.694866
 21
347.840190
  0
LINE
  8
1
 62
7
  6
CONTINUOUS
 10
181.664866
 20
346.340190
 11
180.612866
 21
347.488190
  0
LINE
  8
1
 62
7
  6
CONTINUOUS
 10
180.914866
 20
347.840190
 11
180.270866
 21
347.090190
  0
LINE
  8
1
 62
7
  6
CONTINUOUS
 10
180.270866
 20
347.090190
 11
179.383866
 21
340.778190
  0
CIRCLE
  8
1
 62
7
  6
CONTINUOUS
 10
175.944866
 20
332.600190
 40
0.950000
  0
LINE
  8
1
 62
7
  6
CONTINUOUS
 10
167.444866
 20
334.100190
 11
166.319866
 21
332.975190
  0
LINE
  8
1
 62
7
  6
CONTINUOUS
 10
172.724866
 20
334.100190
 11
173.691866
 21
332.975190
  0
LINE
  8
1
 62
7
  6
CONTINUOUS
 10
174.119866
 20
333.350190
 11
173.263866
 21
332.600190
  0
LINE
  8
1
 62
7
  6
CONTINUOUS
 10
165.944866
 20
333.350190
 11
166.694866
 21
332.600190
  0
LINE
  8
1
 62
7
  6
CONTINUOUS
 10
166.694866
 20
332.600190
 11
173.263866
 21
332.600190
  0
LINE
  8
1
 62
7
  6
CONTINUOUS
 10
175.006866
 20
339.662190
 11
174.119866
 21
333.350190
  0
LINE
  8
1
 62
7
  6
CONTINUOUS
 10
173.479866
 20
339.470190
 11
172.724866
 21
334.100190
  0
LINE
  8
1
 62
7
  6
CONTINUOUS
 10
167.444866
 20
334.100190
 11
168.199866
 21
339.470190
  0
LINE
  8
1
 62
7
  6
CONTINUOUS
 10
166.699866
 20
339.470190
 11
165.944866
 21
333.350190
  0
LINE
  8
1
 62
7
  6
CONTINUOUS
 10
167.444866
 20
334.100190
 11
172.724866
 21
334.100190
  0
LINE
  8
1
 62
7
  6
CONTINUOUS
 10
168.199866
 20
339.470190
 11
173.479866
 21
339.470190
  0
LINE
  8
1
 62
7
  6
CONTINUOUS
 10
166.883866
 20
340.778190
 11
168.199866
 21
339.470190
  0
LINE
  8
1
 62
7
  6
CONTINUOUS
 10
168.414866
 20
341.002190
 11
166.699866
 21
339.470190
  0
LINE
  8
1
 62
7
  6
CONTINUOUS
 10
175.132866
 20
340.754190
 11
173.479866
 21
339.470190
  0
LINE
  8
1
 62
7
  6
CONTINUOUS
 10
173.690866
 20
340.970190
 11
175.006866
 21
339.662190
  0
LINE
  8
1
 62
7
  6
CONTINUOUS
 10
169.164866
 20
346.340190
 11
168.414866
 21
341.002190
  0
LINE
  8
1
 62
7
  6
CONTINUOUS
 10
168.414866
 20
341.002190
 11
173.690866
 21
341.002190
  0
LINE
  8
1
 62
7
  6
CONTINUOUS
 10
174.444866
 20
346.340190
 11
173.690866
 21
340.970190
  0
LINE
  8
1
 62
7
  6
CONTINUOUS
 10
175.944866
 20
347.090190
 11
175.132866
 21
340.754190
  0
LINE
  8
1
 62
7
  6
CONTINUOUS
 10
175.194866
 20
347.840190
 11
175.944866
 21
347.090190
  0
LINE
  8
1
 62
7
  6
CONTINUOUS
 10
174.444866
 20
346.340190
 11
175.569866
 21
347.465190
  0
LINE
  8
1
 62
7
  6
CONTINUOUS
 10
169.164866
 20
346.340190
 11
174.444866
 21
346.340190
  0
LINE
  8
1
 62
7
  6
CONTINUOUS
 10
168.414866
 20
347.840190
 11
175.194866
 21
347.840190
  0
LINE
  8
1
 62
7
  6
CONTINUOUS
 10
169.164866
 20
346.340190
 11
168.112866
 21
347.488190
  0
LINE
  8
1
 62
7
  6
CONTINUOUS
 10
168.414866
 20
347.840190
 11
167.770866
 21
347.090190
  0
LINE
  8
1
 62
7
  6
CONTINUOUS
 10
167.770866
 20
347.090190
 11
166.883866
 21
340.778190
  0
LINE
  8
1
 62
7
  6
CONTINUOUS
 10
166.699866
 20
339.470190
 11
166.694866
 21
339.436190
  0
CIRCLE
  8
1
 62
7
  6
CONTINUOUS
 10
163.444866
 20
332.600190
 40
0.950000
  0
LINE
  8
1
 62
7
  6
CONTINUOUS
 10
154.944866
 20
334.100190
 11
153.819866
 21
332.975190
  0
LINE
  8
1
 62
7
  6
CONTINUOUS
 10
160.224866
 20
334.100190
 11
161.191866
 21
332.975190
  0
LINE
  8
1
 62
7
  6
CONTINUOUS
 10
161.619866
 20
333.350190
 11
160.763866
 21
332.600190
  0
LINE
  8
1
 62
7
  6
CONTINUOUS
 10
153.444866
 20
333.350190
 11
154.194866
 21
332.600190
  0
LINE
  8
1
 62
7
  6
CONTINUOUS
 10
154.194866
 20
332.600190
 11
160.763866
 21
332.600190
  0
LINE
  8
1
 62
7
  6
CONTINUOUS
 10
162.506866
 20
339.662190
 11
161.619866
 21
333.350190
  0
LINE
  8
1
 62
7
  6
CONTINUOUS
 10
160.979866
 20
339.470190
 11
160.224866
 21
334.100190
  0
LINE
  8
1
 62
7
  6
CONTINUOUS
 10
154.944866
 20
334.100190
 11
155.699866
 21
339.470190
  0
LINE
  8
1
 62
7
  6
CONTINUOUS
 10
154.199866
 20
339.470190
 11
153.444866
 21
333.350190
  0
LINE
  8
1
 62
7
  6
CONTINUOUS
 10
154.944866
 20
334.100190
 11
160.224866
 21
334.100190
  0
LINE
  8
1
 62
7
  6
CONTINUOUS
 10
155.699866
 20
339.470190
 11
160.979866
 21
339.470190
  0
LINE
  8
1
 62
7
  6
CONTINUOUS
 10
154.383866
 20
340.778190
 11
155.699866
 21
339.470190
  0
LINE
  8
1
 62
7
  6
CONTINUOUS
 10
155.914866
 20
341.002190
 11
154.199866
 21
339.470190
  0
LINE
  8
1
 62
7
  6
CONTINUOUS
 10
162.632866
 20
340.754190
 11
160.979866
 21
339.470190
  0
LINE
  8
1
 62
7
  6
CONTINUOUS
 10
161.190866
 20
340.970190
 11
162.506866
 21
339.662190
  0
LINE
  8
1
 62
7
  6
CONTINUOUS
 10
156.664866
 20
346.340190
 11
155.914866
 21
341.002190
  0
LINE
  8
1
 62
7
  6
CONTINUOUS
 10
155.914866
 20
341.002190
 11
161.190866
 21
341.002190
  0
LINE
  8
1
 62
7
  6
CONTINUOUS
 10
161.944866
 20
346.340190
 11
161.190866
 21
340.970190
  0
LINE
  8
1
 62
7
  6
CONTINUOUS
 10
163.444866
 20
347.090190
 11
162.632866
 21
340.754190
  0
LINE
  8
1
 62
7
  6
CONTINUOUS
 10
162.694866
 20
347.840190
 11
163.444866
 21
347.090190
  0
LINE
  8
1
 62
7
  6
CONTINUOUS
 10
161.944866
 20
346.340190
 11
163.069866
 21
347.465190
  0
LINE
  8
1
 62
7
  6
CONTINUOUS
 10
156.664866
 20
346.340190
 11
161.944866
 21
346.340190
  0
LINE
  8
1
 62
7
  6
CONTINUOUS
 10
155.914866
 20
347.840190
 11
162.694866
 21
347.840190
  0
LINE
  8
1
 62
7
  6
CONTINUOUS
 10
156.664866
 20
346.340190
 11
155.612866
 21
347.488190
  0
LINE
  8
1
 62
7
  6
CONTINUOUS
 10
155.914866
 20
347.840190
 11
155.270866
 21
347.090190
  0
LINE
  8
1
 62
7
  6
CONTINUOUS
 10
155.270866
 20
347.090190
 11
154.383866
 21
340.778190
  0
LINE
  8
1
 62
7
  6
CONTINUOUS
 10
154.199866
 20
339.470190
 11
154.194866
 21
339.436190
  0
CIRCLE
  8
1
 62
7
  6
CONTINUOUS
 10
150.944866
 20
332.600190
 40
0.950000
  0
LINE
  8
1
 62
7
  6
CONTINUOUS
 10
142.444866
 20
334.100190
 11
141.319866
 21
332.975190
  0
LINE
  8
1
 62
7
  6
CONTINUOUS
 10
147.724866
 20
334.100190
 11
148.691866
 21
332.975190
  0
LINE
  8
1
 62
7
  6
CONTINUOUS
 10
149.119866
 20
333.350190
 11
148.263866
 21
332.600190
  0
LINE
  8
1
 62
7
  6
CONTINUOUS
 10
140.944866
 20
333.350190
 11
141.694866
 21
332.600190
  0
LINE
  8
1
 62
7
  6
CONTINUOUS
 10
141.694866
 20
332.600190
 11
148.263866
 21
332.600190
  0
LINE
  8
1
 62
7
  6
CONTINUOUS
 10
150.006866
 20
339.662190
 11
149.119866
 21
333.350190
  0
LINE
  8
1
 62
7
  6
CONTINUOUS
 10
148.479866
 20
339.470190
 11
147.724866
 21
334.100190
  0
LINE
  8
1
 62
7
  6
CONTINUOUS
 10
142.444866
 20
334.100190
 11
143.199866
 21
339.470190
  0
LINE
  8
1
 62
7
  6
CONTINUOUS
 10
141.699866
 20
339.470190
 11
140.944866
 21
333.350190
  0
LINE
  8
1
 62
7
  6
CONTINUOUS
 10
142.444866
 20
334.100190
 11
147.724866
 21
334.100190
  0
LINE
  8
1
 62
7
  6
CONTINUOUS
 10
143.199866
 20
339.470190
 11
148.479866
 21
339.470190
  0
LINE
  8
1
 62
7
  6
CONTINUOUS
 10
141.883866
 20
340.778190
 11
143.199866
 21
339.470190
  0
LINE
  8
1
 62
7
  6
CONTINUOUS
 10
143.414866
 20
341.002190
 11
141.699866
 21
339.470190
  0
LINE
  8
1
 62
7
  6
CONTINUOUS
 10
150.132866
 20
340.754190
 11
148.479866
 21
339.470190
  0
LINE
  8
1
 62
7
  6
CONTINUOUS
 10
148.690866
 20
340.970190
 11
150.006866
 21
339.662190
  0
LINE
  8
1
 62
7
  6
CONTINUOUS
 10
144.164866
 20
346.340190
 11
143.414866
 21
341.002190
  0
LINE
  8
1
 62
7
  6
CONTINUOUS
 10
143.414866
 20
341.002190
 11
148.690866
 21
341.002190
  0
LINE
  8
1
 62
7
  6
CONTINUOUS
 10
149.444866
 20
346.340190
 11
148.690866
 21
340.970190
  0
LINE
  8
1
 62
7
  6
CONTINUOUS
 10
150.944866
 20
347.090190
 11
150.132866
 21
340.754190
  0
LINE
  8
1
 62
7
  6
CONTINUOUS
 10
150.194866
 20
347.840190
 11
150.944866
 21
347.090190
  0
LINE
  8
1
 62
7
  6
CONTINUOUS
 10
149.444866
 20
346.340190
 11
150.569866
 21
347.465190
  0
LINE
  8
1
 62
7
  6
CONTINUOUS
 10
144.164866
 20
346.340190
 11
149.444866
 21
346.340190
  0
LINE
  8
1
 62
7
  6
CONTINUOUS
 10
143.414866
 20
347.840190
 11
150.194866
 21
347.840190
  0
LINE
  8
1
 62
7
  6
CONTINUOUS
 10
144.164866
 20
346.340190
 11
143.112866
 21
347.488190
  0
LINE
  8
1
 62
7
  6
CONTINUOUS
 10
143.414866
 20
347.840190
 11
142.770866
 21
347.090190
  0
LINE
  8
1
 62
7
  6
CONTINUOUS
 10
142.770866
 20
347.090190
 11
141.883866
 21
340.778190
  0
LINE
  8
1
 62
7
  6
CONTINUOUS
 10
141.699866
 20
339.470190
 11
141.694866
 21
339.436190
  0
CIRCLE
  8
1
 62
7
  6
CONTINUOUS
 10
138.444866
 20
332.600190
 40
0.950000
  0
LINE
  8
1
 62
7
  6
CONTINUOUS
 10
129.944866
 20
334.100190
 11
128.819866
 21
332.975190
  0
LINE
  8
1
 62
7
  6
CONTINUOUS
 10
135.224866
 20
334.100190
 11
136.191866
 21
332.975190
  0
LINE
  8
1
 62
7
  6
CONTINUOUS
 10
136.619866
 20
333.350190
 11
135.763866
 21
332.600190
  0
LINE
  8
1
 62
7
  6
CONTINUOUS
 10
128.444866
 20
333.350190
 11
129.194866
 21
332.600190
  0
LINE
  8
1
 62
7
  6
CONTINUOUS
 10
129.194866
 20
332.600190
 11
135.763866
 21
332.600190
  0
LINE
  8
1
 62
7
  6
CONTINUOUS
 10
137.506866
 20
339.662190
 11
136.619866
 21
333.350190
  0
LINE
  8
1
 62
7
  6
CONTINUOUS
 10
135.979866
 20
339.470190
 11
135.224866
 21
334.100190
  0
LINE
  8
1
 62
7
  6
CONTINUOUS
 10
129.944866
 20
334.100190
 11
130.699866
 21
339.470190
  0
LINE
  8
1
 62
7
  6
CONTINUOUS
 10
129.199866
 20
339.470190
 11
128.444866
 21
333.350190
  0
LINE
  8
1
 62
7
  6
CONTINUOUS
 10
129.944866
 20
334.100190
 11
135.224866
 21
334.100190
  0
LINE
  8
1
 62
7
  6
CONTINUOUS
 10
130.699866
 20
339.470190
 11
135.979866
 21
339.470190
  0
LINE
  8
1
 62
7
  6
CONTINUOUS
 10
129.383866
 20
340.778190
 11
130.699866
 21
339.470190
  0
LINE
  8
1
 62
7
  6
CONTINUOUS
 10
130.914866
 20
341.002190
 11
129.199866
 21
339.470190
  0
LINE
  8
1
 62
7
  6
CONTINUOUS
 10
137.632866
 20
340.754190
 11
135.979866
 21
339.470190
  0
LINE
  8
1
 62
7
  6
CONTINUOUS
 10
136.190866
 20
340.970190
 11
137.506866
 21
339.662190
  0
LINE
  8
1
 62
7
  6
CONTINUOUS
 10
131.664866
 20
346.340190
 11
130.914866
 21
341.002190
  0
LINE
  8
1
 62
7
  6
CONTINUOUS
 10
130.914866
 20
341.002190
 11
136.190866
 21
341.002190
  0
LINE
  8
1
 62
7
  6
CONTINUOUS
 10
136.944866
 20
346.340190
 11
136.190866
 21
340.970190
  0
LINE
  8
1
 62
7
  6
CONTINUOUS
 10
138.444866
 20
347.090190
 11
137.632866
 21
340.754190
  0
LINE
  8
1
 62
7
  6
CONTINUOUS
 10
137.694866
 20
347.840190
 11
138.444866
 21
347.090190
  0
LINE
  8
1
 62
7
  6
CONTINUOUS
 10
136.944866
 20
346.340190
 11
138.069866
 21
347.465190
  0
LINE
  8
1
 62
7
  6
CONTINUOUS
 10
131.664866
 20
346.340190
 11
136.944866
 21
346.340190
  0
LINE
  8
1
 62
7
  6
CONTINUOUS
 10
130.914866
 20
347.840190
 11
137.694866
 21
347.840190
  0
LINE
  8
1
 62
7
  6
CONTINUOUS
 10
131.664866
 20
346.340190
 11
130.612866
 21
347.488190
  0
LINE
  8
1
 62
7
  6
CONTINUOUS
 10
130.914866
 20
347.840190
 11
130.270866
 21
347.090190
  0
LINE
  8
1
 62
7
  6
CONTINUOUS
 10
130.270866
 20
347.090190
 11
129.383866
 21
340.778190
  0
LINE
  8
1
 62
7
  6
CONTINUOUS
 10
129.199866
 20
339.470190
 11
129.194866
 21
339.436190
  0
DIMENSION
  8
1
 62
7
  6
CONTINUOUS
  2
*D1
 10
255.802866
 20
372.629190
 11
183.802866
 21
372.629190
 70
     0
  1
144
 13
255.802866
 23
224.076190
 14
111.802866
 24
224.076190
 50
-180.000000
  0
DIMENSION
  8
1
 62
7
  6
CONTINUOUS
  2
*D2
 10
98.389866
 20
363.076190
 11
98.389866
 21
291.076190
 70
     0
  1
144
 13
250.802866
 23
363.076190
 14
250.802866
 24
219.076190
 50
-90.000000
  0
TEXT
  8
1
 62
7
  6
CONTINUOUS
 10
331.052866
 20
371.715190
 40
10.000000
 41
1.200000
  1
16
  7
KANJI
 50
-0.000000
 51
0.000000
  0
TEXT
  8
1
 62
7
  6
CONTINUOUS
 10
422.902866
 20
371.501690
 40
8.000000
 41
1.500000
  1
175 max
  7
KANJI
 50
-0.000000
 51
0.000000
  0
LINE
  8
1
 62
7
  6
CONTINUOUS
 10
341.802866
 20
371.464190
 11
512.002866
 21
371.464190
  0
LINE
  8
1
 62
7
  6
CONTINUOUS
 10
512.002866
 20
328.996190
 11
512.002866
 21
372.964190
  0
LINE
  8
1
 62
7
  6
CONTINUOUS
 10
341.802866
 20
365.076190
 11
341.802866
 21
372.964190
  0
LINE
  8
1
 62
7
  6
CONTINUOUS
 10
325.802866
 20
371.665190
 11
341.802866
 21
371.665190
  0
LINE
  8
1
 62
7
  6
CONTINUOUS
 10
341.802866
 20
365.076190
 11
341.802866
 21
373.665190
  0
LINE
  8
1
 62
7
  6
CONTINUOUS
 10
325.802866
 20
365.076190
 11
325.802866
 21
373.665190
  0
LINE
  8
1
 62
7
  6
CONTINUOUS
 10
493.302866
 20
275.676190
 11
493.302866
 21
264.578190
  0
LINE
  8
1
 62
7
  6
CONTINUOUS
 10
481.802866
 20
277.076190
 11
481.802866
 21
303.076190
  0
LINE
  8
1
 62
7
  6
CONTINUOUS
 10
480.802866
 20
277.076190
 11
480.802866
 21
264.582190
  0
LINE
  8
1
 62
7
  6
CONTINUOUS
 10
481.802866
 20
277.076190
 11
480.802866
 21
277.076190
  0
LINE
  8
1
 62
7
  6
CONTINUOUS
 10
490.302866
 20
276.076190
 11
480.802866
 21
276.076190
  0
LINE
  8
1
 62
7
  6
CONTINUOUS
 10
485.302866
 20
275.076190
 11
485.302866
 21
264.580190
  0
LINE
  8
1
 62
7
  6
CONTINUOUS
 10
483.302866
 20
275.076190
 11
485.302866
 21
275.076190
  0
LINE
  8
1
 62
7
  6
CONTINUOUS
 10
482.802866
 20
276.076190
 11
483.302866
 21
275.076190
  0
LINE
  8
1
 62
7
  6
CONTINUOUS
 10
492.302866
 20
275.076190
 11
493.302866
 21
275.676190
  0
LINE
  8
1
 62
7
  6
CONTINUOUS
 10
491.302866
 20
275.076190
 11
492.302866
 21
275.076190
  0
LINE
  8
1
 62
7
  6
CONTINUOUS
 10
490.302866
 20
276.076190
 11
491.302866
 21
275.076190
  0
LINE
  8
1
 62
7
  6
CONTINUOUS
 10
490.302866
 20
276.076190
 11
485.302866
 21
276.076190
  0
LINE
  8
1
 62
7
  6
CONTINUOUS
 10
480.802866
 20
303.076190
 11
481.802866
 21
303.076190
  0
LINE
  8
1
 62
7
  6
CONTINUOUS
 10
480.802866
 20
316.576190
 11
480.802866
 21
303.076190
  0
LINE
  8
1
 62
7
  6
CONTINUOUS
 10
490.302866
 20
304.076190
 11
480.802866
 21
304.076190
  0
LINE
  8
1
 62
7
  6
CONTINUOUS
 10
483.302866
 20
305.076190
 11
482.802866
 21
304.076190
  0
LINE
  8
1
 62
7
  6
CONTINUOUS
 10
485.302866
 20
305.076190
 11
483.302866
 21
305.076190
  0
LINE
  8
1
 62
7
  6
CONTINUOUS
 10
485.302866
 20
316.076190
 11
485.302866
 21
305.076190
  0
LINE
  8
1
 62
7
  6
CONTINUOUS
 10
483.302866
 20
316.076190
 11
485.302866
 21
316.076190
  0
LINE
  8
1
 62
7
  6
CONTINUOUS
 10
483.052866
 20
316.576190
 11
483.302866
 21
316.076190
  0
LINE
  8
1
 62
7
  6
CONTINUOUS
 10
490.302866
 20
304.076190
 11
485.302866
 21
304.076190
  0
LINE
  8
1
 62
7
  6
CONTINUOUS
 10
491.302866
 20
305.076190
 11
490.302866
 21
304.076190
  0
LINE
  8
1
 62
7
  6
CONTINUOUS
 10
492.302866
 20
305.076190
 11
491.302866
 21
305.076190
  0
LINE
  8
1
 62
7
  6
CONTINUOUS
 10
493.302866
 20
304.476190
 11
492.302866
 21
305.076190
  0
LINE
  8
1
 62
7
  6
CONTINUOUS
 10
493.302866
 20
305.076190
 11
493.302866
 21
304.476190
  0
LINE
  8
1
 62
7
  6
CONTINUOUS
 10
493.302866
 20
316.676190
 11
493.302866
 21
305.076190
  0
LINE
  8
1
 62
7
  6
CONTINUOUS
 10
492.302866
 20
316.076190
 11
493.302866
 21
316.676190
  0
LINE
  8
1
 62
7
  6
CONTINUOUS
 10
491.302866
 20
316.076190
 11
492.302866
 21
316.076190
  0
LINE
  8
1
 62
7
  6
CONTINUOUS
 10
490.802866
 20
316.576190
 11
491.302866
 21
316.076190
  0
LINE
  8
1
 62
7
  6
HIDDEN
 10
498.002866
 20
264.576190
 11
498.002866
 21
262.276190
  0
LINE
  8
1
 62
7
  6
CONTINUOUS
 10
341.802866
 20
247.576190
 11
498.002866
 21
247.576190
  0
LINE
  8
1
 62
7
  6
CONTINUOUS
 10
498.002866
 20
262.276190
 11
498.002866
 21
247.576190
  0
LINE
  8
1
 62
7
  6
CONTINUOUS
 10
341.772866
 20
264.626190
 11
498.002866
 21
264.576190
  0
LINE
  8
1
 62
7
  6
HIDDEN
 10
498.002866
 20
333.576190
 11
498.002866
 21
331.276190
  0
LINE
  8
1
 62
7
  6
CONTINUOUS
 10
341.802866
 20
316.576190
 11
498.002866
 21
316.576190
  0
LINE
  8
1
 62
7
  6
CONTINUOUS
 10
341.772866
 20
333.626190
 11
498.002866
 21
333.576190
  0
LINE
  8
1
 62
7
  6
CONTINUOUS
 10
502.162866
 20
326.756190
 11
502.002866
 21
327.076190
  0
LINE
  8
1
 62
7
  6
CONTINUOUS
 10
502.162866
 20
326.756190
 11
502.002866
 21
325.615190
  0
LINE
  8
1
 62
7
  6
CONTINUOUS
 10
512.002866
 20
323.396190
 11
512.002866
 21
326.996190
  0
LINE
  8
1
 62
7
  6
CONTINUOUS
 10
511.682866
 20
323.076190
 11
512.002866
 21
323.396190
  0
LINE
  8
1
 62
7
  6
CONTINUOUS
 10
512.002866
 20
326.996190
 11
511.762866
 21
326.756190
  0
LINE
  8
1
 62
7
  6
CONTINUOUS
 10
511.362866
 20
323.396190
 11
511.682866
 21
323.076190
  0
LINE
  8
1
 62
7
  6
CONTINUOUS
 10
511.762866
 20
326.756190
 11
511.362866
 21
323.396190
  0
LINE
  8
1
 62
7
  6
CONTINUOUS
 10
511.362866
 20
323.396190
 11
511.762866
 21
326.756190
  0
LINE
  8
1
 62
7
  6
CONTINUOUS
 10
510.722866
 20
323.396190
 11
511.042866
 21
323.076190
  0
LINE
  8
1
 62
7
  6
CONTINUOUS
 10
511.122866
 20
326.756190
 11
510.722866
 21
323.396190
  0
LINE
  8
1
 62
7
  6
CONTINUOUS
 10
510.722866
 20
323.396190
 11
511.122866
 21
326.756190
  0
LINE
  8
1
 62
7
  6
CONTINUOUS
 10
511.762866
 20
326.756190
 11
511.362866
 21
323.396190
  0
LINE
  8
1
 62
7
  6
CONTINUOUS
 10
511.042866
 20
323.076190
 11
511.362866
 21
323.396190
  0
LINE
  8
1
 62
7
  6
CONTINUOUS
 10
511.442866
 20
327.076190
 11
511.122866
 21
326.756190
  0
LINE
  8
1
 62
7
  6
CONTINUOUS
 10
511.762866
 20
326.756190
 11
511.442866
 21
327.076190
  0
LINE
  8
1
 62
7
  6
CONTINUOUS
 10
510.082866
 20
323.396190
 11
510.402866
 21
323.076190
  0
LINE
  8
1
 62
7
  6
CONTINUOUS
 10
510.482866
 20
326.756190
 11
510.082866
 21
323.396190
  0
LINE
  8
1
 62
7
  6
CONTINUOUS
 10
510.082866
 20
323.396190
 11
510.482866
 21
326.756190
  0
LINE
  8
1
 62
7
  6
CONTINUOUS
 10
511.122866
 20
326.756190
 11
510.722866
 21
323.396190
  0
LINE
  8
1
 62
7
  6
CONTINUOUS
 10
510.402866
 20
323.076190
 11
510.722866
 21
323.396190
  0
LINE
  8
1
 62
7
  6
CONTINUOUS
 10
510.802866
 20
327.076190
 11
510.482866
 21
326.756190
  0
LINE
  8
1
 62
7
  6
CONTINUOUS
 10
511.122866
 20
326.756190
 11
510.802866
 21
327.076190
  0
LINE
  8
1
 62
7
  6
CONTINUOUS
 10
509.442866
 20
323.396190
 11
509.762866
 21
323.076190
  0
LINE
  8
1
 62
7
  6
CONTINUOUS
 10
509.842866
 20
326.756190
 11
509.442866
 21
323.396190
  0
LINE
  8
1
 62
7
  6
CONTINUOUS
 10
509.442866
 20
323.396190
 11
509.842866
 21
326.756190
  0
LINE
  8
1
 62
7
  6
CONTINUOUS
 10
510.482866
 20
326.756190
 11
510.082866
 21
323.396190
  0
LINE
  8
1
 62
7
  6
CONTINUOUS
 10
509.762866
 20
323.076190
 11
510.082866
 21
323.396190
  0
LINE
  8
1
 62
7
  6
CONTINUOUS
 10
510.162866
 20
327.076190
 11
509.842866
 21
326.756190
  0
LINE
  8
1
 62
7
  6
CONTINUOUS
 10
510.482866
 20
326.756190
 11
510.162866
 21
327.076190
  0
LINE
  8
1
 62
7
  6
CONTINUOUS
 10
508.802866
 20
323.396190
 11
509.122866
 21
323.076190
  0
LINE
  8
1
 62
7
  6
CONTINUOUS
 10
509.202866
 20
326.756190
 11
508.802866
 21
323.396190
  0
LINE
  8
1
 62
7
  6
CONTINUOUS
 10
508.802866
 20
323.396190
 11
509.202866
 21
326.756190
  0
LINE
  8
1
 62
7
  6
CONTINUOUS
 10
509.842866
 20
326.756190
 11
509.442866
 21
323.396190
  0
LINE
  8
1
 62
7
  6
CONTINUOUS
 10
509.122866
 20
323.076190
 11
509.442866
 21
323.396190
  0
LINE
  8
1
 62
7
  6
CONTINUOUS
 10
509.522866
 20
327.076190
 11
509.202866
 21
326.756190
  0
LINE
  8
1
 62
7
  6
CONTINUOUS
 10
509.842866
 20
326.756190
 11
509.522866
 21
327.076190
  0
LINE
  8
1
 62
7
  6
CONTINUOUS
 10
508.162866
 20
323.396190
 11
508.482866
 21
323.076190
  0
LINE
  8
1
 62
7
  6
CONTINUOUS
 10
508.562866
 20
326.756190
 11
508.162866
 21
323.396190
  0
LINE
  8
1
 62
7
  6
CONTINUOUS
 10
508.162866
 20
323.396190
 11
508.562866
 21
326.756190
  0
LINE
  8
1
 62
7
  6
CONTINUOUS
 10
509.202866
 20
326.756190
 11
508.802866
 21
323.396190
  0
LINE
  8
1
 62
7
  6
CONTINUOUS
 10
508.482866
 20
323.076190
 11
508.802866
 21
323.396190
  0
LINE
  8
1
 62
7
  6
CONTINUOUS
 10
508.882866
 20
327.076190
 11
508.562866
 21
326.756190
  0
LINE
  8
1
 62
7
  6
CONTINUOUS
 10
509.202866
 20
326.756190
 11
508.882866
 21
327.076190
  0
LINE
  8
1
 62
7
  6
CONTINUOUS
 10
507.522866
 20
323.396190
 11
507.842866
 21
323.076190
  0
LINE
  8
1
 62
7
  6
CONTINUOUS
 10
507.922866
 20
326.756190
 11
507.522866
 21
323.396190
  0
LINE
  8
1
 62
7
  6
CONTINUOUS
 10
507.522866
 20
323.396190
 11
507.922866
 21
326.756190
  0
LINE
  8
1
 62
7
  6
CONTINUOUS
 10
508.562866
 20
326.756190
 11
508.162866
 21
323.396190
  0
LINE
  8
1
 62
7
  6
CONTINUOUS
 10
507.842866
 20
323.076190
 11
508.162866
 21
323.396190
  0
LINE
  8
1
 62
7
  6
CONTINUOUS
 10
508.242866
 20
327.076190
 11
507.922866
 21
326.756190
  0
LINE
  8
1
 62
7
  6
CONTINUOUS
 10
508.562866
 20
326.756190
 11
508.242866
 21
327.076190
  0
LINE
  8
1
 62
7
  6
CONTINUOUS
 10
506.882866
 20
323.396190
 11
507.202866
 21
323.076190
  0
LINE
  8
1
 62
7
  6
CONTINUOUS
 10
507.282866
 20
326.756190
 11
506.882866
 21
323.396190
  0
LINE
  8
1
 62
7
  6
CONTINUOUS
 10
506.882866
 20
323.396190
 11
507.282866
 21
326.756190
  0
LINE
  8
1
 62
7
  6
CONTINUOUS
 10
507.922866
 20
326.756190
 11
507.522866
 21
323.396190
  0
LINE
  8
1
 62
7
  6
CONTINUOUS
 10
507.202866
 20
323.076190
 11
507.522866
 21
323.396190
  0
LINE
  8
1
 62
7
  6
CONTINUOUS
 10
507.602866
 20
327.076190
 11
507.282866
 21
326.756190
  0
LINE
  8
1
 62
7
  6
CONTINUOUS
 10
507.922866
 20
326.756190
 11
507.602866
 21
327.076190
  0
LINE
  8
1
 62
7
  6
CONTINUOUS
 10
506.242866
 20
323.396190
 11
506.562866
 21
323.076190
  0
LINE
  8
1
 62
7
  6
CONTINUOUS
 10
506.642866
 20
326.756190
 11
506.242866
 21
323.396190
  0
LINE
  8
1
 62
7
  6
CONTINUOUS
 10
506.242866
 20
323.396190
 11
506.642866
 21
326.756190
  0
LINE
  8
1
 62
7
  6
CONTINUOUS
 10
507.282866
 20
326.756190
 11
506.882866
 21
323.396190
  0
LINE
  8
1
 62
7
  6
CONTINUOUS
 10
506.562866
 20
323.076190
 11
506.882866
 21
323.396190
  0
LINE
  8
1
 62
7
  6
CONTINUOUS
 10
506.962866
 20
327.076190
 11
506.642866
 21
326.756190
  0
LINE
  8
1
 62
7
  6
CONTINUOUS
 10
507.282866
 20
326.756190
 11
506.962866
 21
327.076190
  0
LINE
  8
1
 62
7
  6
CONTINUOUS
 10
505.602866
 20
323.396190
 11
505.922866
 21
323.076190
  0
LINE
  8
1
 62
7
  6
CONTINUOUS
 10
506.002866
 20
326.756190
 11
505.602866
 21
323.396190
  0
LINE
  8
1
 62
7
  6
CONTINUOUS
 10
505.602866
 20
323.396190
 11
506.002866
 21
326.756190
  0
LINE
  8
1
 62
7
  6
CONTINUOUS
 10
506.642866
 20
326.756190
 11
506.242866
 21
323.396190
  0
LINE
  8
1
 62
7
  6
CONTINUOUS
 10
505.922866
 20
323.076190
 11
506.242866
 21
323.396190
  0
LINE
  8
1
 62
7
  6
CONTINUOUS
 10
506.322866
 20
327.076190
 11
506.002866
 21
326.756190
  0
LINE
  8
1
 62
7
  6
CONTINUOUS
 10
506.642866
 20
326.756190
 11
506.322866
 21
327.076190
  0
LINE
  8
1
 62
7
  6
CONTINUOUS
 10
504.962866
 20
323.396190
 11
505.282866
 21
323.076190
  0
LINE
  8
1
 62
7
  6
CONTINUOUS
 10
505.362866
 20
326.756190
 11
504.962866
 21
323.396190
  0
LINE
  8
1
 62
7
  6
CONTINUOUS
 10
504.962866
 20
323.396190
 11
505.362866
 21
326.756190
  0
LINE
  8
1
 62
7
  6
CONTINUOUS
 10
506.002866
 20
326.756190
 11
505.602866
 21
323.396190
  0
LINE
  8
1
 62
7
  6
CONTINUOUS
 10
505.282866
 20
323.076190
 11
505.602866
 21
323.396190
  0
LINE
  8
1
 62
7
  6
CONTINUOUS
 10
505.682866
 20
327.076190
 11
505.362866
 21
326.756190
  0
LINE
  8
1
 62
7
  6
CONTINUOUS
 10
506.002866
 20
326.756190
 11
505.682866
 21
327.076190
  0
LINE
  8
1
 62
7
  6
CONTINUOUS
 10
504.322866
 20
323.396190
 11
504.642866
 21
323.076190
  0
LINE
  8
1
 62
7
  6
CONTINUOUS
 10
504.722866
 20
326.756190
 11
504.322866
 21
323.396190
  0
LINE
  8
1
 62
7
  6
CONTINUOUS
 10
504.322866
 20
323.396190
 11
504.722866
 21
326.756190
  0
LINE
  8
1
 62
7
  6
CONTINUOUS
 10
505.362866
 20
326.756190
 11
504.962866
 21
323.396190
  0
LINE
  8
1
 62
7
  6
CONTINUOUS
 10
504.642866
 20
323.076190
 11
504.962866
 21
323.396190
  0
LINE
  8
1
 62
7
  6
CONTINUOUS
 10
505.042866
 20
327.076190
 11
504.722866
 21
326.756190
  0
LINE
  8
1
 62
7
  6
CONTINUOUS
 10
505.362866
 20
326.756190
 11
505.042866
 21
327.076190
  0
LINE
  8
1
 62
7
  6
CONTINUOUS
 10
503.682866
 20
323.396190
 11
504.002866
 21
323.076190
  0
LINE
  8
1
 62
7
  6
CONTINUOUS
 10
504.082866
 20
326.756190
 11
503.682866
 21
323.396190
  0
LINE
  8
1
 62
7
  6
CONTINUOUS
 10
503.682866
 20
323.396190
 11
504.082866
 21
326.756190
  0
LINE
  8
1
 62
7
  6
CONTINUOUS
 10
504.722866
 20
326.756190
 11
504.322866
 21
323.396190
  0
LINE
  8
1
 62
7
  6
CONTINUOUS
 10
504.002866
 20
323.076190
 11
504.322866
 21
323.396190
  0
LINE
  8
1
 62
7
  6
CONTINUOUS
 10
504.402866
 20
327.076190
 11
504.082866
 21
326.756190
  0
LINE
  8
1
 62
7
  6
CONTINUOUS
 10
504.722866
 20
326.756190
 11
504.402866
 21
327.076190
  0
LINE
  8
1
 62
7
  6
CONTINUOUS
 10
503.042866
 20
323.396190
 11
503.362866
 21
323.076190
  0
LINE
  8
1
 62
7
  6
CONTINUOUS
 10
503.442866
 20
326.756190
 11
503.042866
 21
323.396190
  0
LINE
  8
1
 62
7
  6
CONTINUOUS
 10
503.042866
 20
323.396190
 11
503.442866
 21
326.756190
  0
LINE
  8
1
 62
7
  6
CONTINUOUS
 10
504.082866
 20
326.756190
 11
503.682866
 21
323.396190
  0
LINE
  8
1
 62
7
  6
CONTINUOUS
 10
503.362866
 20
323.076190
 11
503.682866
 21
323.396190
  0
LINE
  8
1
 62
7
  6
CONTINUOUS
 10
503.762866
 20
327.076190
 11
503.442866
 21
326.756190
  0
LINE
  8
1
 62
7
  6
CONTINUOUS
 10
504.082866
 20
326.756190
 11
503.762866
 21
327.076190
  0
LINE
  8
1
 62
7
  6
CONTINUOUS
 10
502.402866
 20
323.396190
 11
502.722866
 21
323.076190
  0
LINE
  8
1
 62
7
  6
CONTINUOUS
 10
502.802866
 20
326.756190
 11
502.402866
 21
323.396190
  0
LINE
  8
1
 62
7
  6
CONTINUOUS
 10
502.402866
 20
323.396190
 11
502.802866
 21
326.756190
  0
LINE
  8
1
 62
7
  6
CONTINUOUS
 10
503.442866
 20
326.756190
 11
503.042866
 21
323.396190
  0
LINE
  8
1
 62
7
  6
CONTINUOUS
 10
502.722866
 20
323.076190
 11
503.042866
 21
323.396190
  0
LINE
  8
1
 62
7
  6
CONTINUOUS
 10
503.122866
 20
327.076190
 11
502.802866
 21
326.756190
  0
LINE
  8
1
 62
7
  6
CONTINUOUS
 10
503.442866
 20
326.756190
 11
503.122866
 21
327.076190
  0
LINE
  8
1
 62
7
  6
CONTINUOUS
 10
502.802866
 20
326.756190
 11
502.402866
 21
323.396190
  0
LINE
  8
1
 62
7
  6
CONTINUOUS
 10
502.082866
 20
323.076190
 11
502.402866
 21
323.396190
  0
LINE
  8
1
 62
7
  6
CONTINUOUS
 10
502.482866
 20
327.076190
 11
502.162866
 21
326.756190
  0
LINE
  8
1
 62
7
  6
CONTINUOUS
 10
502.802866
 20
326.756190
 11
502.482866
 21
327.076190
  0
LINE
  8
1
 62
7
  6
CONTINUOUS
 10
499.002866
 20
326.576190
 11
498.002866
 21
326.576190
  0
LINE
  8
1
 62
7
  6
CONTINUOUS
 10
498.002866
 20
326.076190
 11
499.002866
 21
326.076190
  0
LINE
  8
1
 62
7
  6
CONTINUOUS
 10
499.002866
 20
329.276190
 11
498.002866
 21
329.276190
  0
LINE
  8
1
 62
7
  6
CONTINUOUS
 10
499.002866
 20
320.876190
 11
499.002866
 21
329.276190
  0
LINE
  8
1
 62
7
  6
CONTINUOUS
 10
498.002866
 20
320.876190
 11
499.002866
 21
320.876190
  0
LINE
  8
1
 62
7
  6
CONTINUOUS
 10
501.602866
 20
323.076190
 11
499.002866
 21
323.076190
  0
LINE
  8
1
 62
7
  6
CONTINUOUS
 10
501.602866
 20
327.076190
 11
499.002866
 21
327.076190
  0
ARC
  8
1
 62
7
  6
CONTINUOUS
 10
496.402866
 20
320.176190
 40
5.900000
 50
19.641000
 51
29.152000
  0
ARC
  8
1
 62
7
  6
CONTINUOUS
 10
497.402866
 20
329.076190
 40
4.700000
 50
-25.450000
 51
-11.069000
  0
ARC
  8
1
 62
7
  6
CONTINUOUS
 10
497.202866
 20
325.076190
 40
4.800000
 50
-24.419000
 51
24.454000
  0
LINE
  8
1
 62
7
  6
CONTINUOUS
 10
499.002866
 20
329.276190
 11
498.002866
 21
329.276190
  0
LINE
  8
1
 62
7
  6
CONTINUOUS
 10
499.002866
 20
329.076190
 11
499.002866
 21
329.276190
  0
LINE
  8
1
 62
7
  6
CONTINUOUS
 10
499.002866
 20
320.876190
 11
499.002866
 21
321.076190
  0
LINE
  8
1
 62
7
  6
CONTINUOUS
 10
498.002866
 20
320.876190
 11
499.002866
 21
320.876190
  0
LINE
  8
1
 62
7
  6
CONTINUOUS
 10
502.002866
 20
322.176190
 11
502.002866
 21
327.976190
  0
LINE
  8
1
 62
7
  6
CONTINUOUS
 10
502.002866
 20
328.576190
 11
502.002866
 21
328.176190
  0
LINE
  8
1
 62
7
  6
CONTINUOUS
 10
501.602866
 20
329.076190
 11
502.002866
 21
328.576190
  0
LINE
  8
1
 62
7
  6
CONTINUOUS
 10
499.002866
 20
329.076190
 11
501.602866
 21
329.076190
  0
LINE
  8
1
 62
7
  6
CONTINUOUS
 10
501.602866
 20
321.076190
 11
499.002866
 21
321.076190
  0
LINE
  8
1
 62
7
  6
CONTINUOUS
 10
502.002866
 20
321.576190
 11
501.602866
 21
321.076190
  0
LINE
  8
1
 62
7
  6
CONTINUOUS
 10
502.002866
 20
322.176190
 11
502.002866
 21
321.576190
  0
LINE
  8
1
 62
7
  6
CONTINUOUS
 10
502.162866
 20
257.756190
 11
502.002866
 21
258.076190
  0
LINE
  8
1
 62
7
  6
CONTINUOUS
 10
502.162866
 20
257.756190
 11
502.002866
 21
256.615190
  0
LINE
  8
1
 62
7
  6
CONTINUOUS
 10
512.002866
 20
254.396190
 11
512.002866
 21
257.996190
  0
LINE
  8
1
 62
7
  6
CONTINUOUS
 10
511.682866
 20
254.076190
 11
512.002866
 21
254.396190
  0
LINE
  8
1
 62
7
  6
CONTINUOUS
 10
512.002866
 20
257.996190
 11
511.762866
 21
257.756190
  0
LINE
  8
1
 62
7
  6
CONTINUOUS
 10
511.362866
 20
254.396190
 11
511.682866
 21
254.076190
  0
LINE
  8
1
 62
7
  6
CONTINUOUS
 10
511.762866
 20
257.756190
 11
511.362866
 21
254.396190
  0
LINE
  8
1
 62
7
  6
CONTINUOUS
 10
511.362866
 20
254.396190
 11
511.762866
 21
257.756190
  0
LINE
  8
1
 62
7
  6
CONTINUOUS
 10
510.722866
 20
254.396190
 11
511.042866
 21
254.076190
  0
LINE
  8
1
 62
7
  6
CONTINUOUS
 10
511.122866
 20
257.756190
 11
510.722866
 21
254.396190
  0
LINE
  8
1
 62
7
  6
CONTINUOUS
 10
510.722866
 20
254.396190
 11
511.122866
 21
257.756190
  0
LINE
  8
1
 62
7
  6
CONTINUOUS
 10
511.762866
 20
257.756190
 11
511.362866
 21
254.396190
  0
LINE
  8
1
 62
7
  6
CONTINUOUS
 10
511.042866
 20
254.076190
 11
511.362866
 21
254.396190
  0
LINE
  8
1
 62
7
  6
CONTINUOUS
 10
511.442866
 20
258.076190
 11
511.122866
 21
257.756190
  0
LINE
  8
1
 62
7
  6
CONTINUOUS
 10
511.762866
 20
257.756190
 11
511.442866
 21
258.076190
  0
LINE
  8
1
 62
7
  6
CONTINUOUS
 10
510.082866
 20
254.396190
 11
510.402866
 21
254.076190
  0
LINE
  8
1
 62
7
  6
CONTINUOUS
 10
510.482866
 20
257.756190
 11
510.082866
 21
254.396190
  0
LINE
  8
1
 62
7
  6
CONTINUOUS
 10
510.082866
 20
254.396190
 11
510.482866
 21
257.756190
  0
LINE
  8
1
 62
7
  6
CONTINUOUS
 10
511.122866
 20
257.756190
 11
510.722866
 21
254.396190
  0
LINE
  8
1
 62
7
  6
CONTINUOUS
 10
510.402866
 20
254.076190
 11
510.722866
 21
254.396190
  0
LINE
  8
1
 62
7
  6
CONTINUOUS
 10
510.802866
 20
258.076190
 11
510.482866
 21
257.756190
  0
LINE
  8
1
 62
7
  6
CONTINUOUS
 10
511.122866
 20
257.756190
 11
510.802866
 21
258.076190
  0
LINE
  8
1
 62
7
  6
CONTINUOUS
 10
509.442866
 20
254.396190
 11
509.762866
 21
254.076190
  0
LINE
  8
1
 62
7
  6
CONTINUOUS
 10
509.842866
 20
257.756190
 11
509.442866
 21
254.396190
  0
LINE
  8
1
 62
7
  6
CONTINUOUS
 10
509.442866
 20
254.396190
 11
509.842866
 21
257.756190
  0
LINE
  8
1
 62
7
  6
CONTINUOUS
 10
510.482866
 20
257.756190
 11
510.082866
 21
254.396190
  0
LINE
  8
1
 62
7
  6
CONTINUOUS
 10
509.762866
 20
254.076190
 11
510.082866
 21
254.396190
  0
LINE
  8
1
 62
7
  6
CONTINUOUS
 10
510.162866
 20
258.076190
 11
509.842866
 21
257.756190
  0
LINE
  8
1
 62
7
  6
CONTINUOUS
 10
510.482866
 20
257.756190
 11
510.162866
 21
258.076190
  0
LINE
  8
1
 62
7
  6
CONTINUOUS
 10
508.802866
 20
254.396190
 11
509.122866
 21
254.076190
  0
LINE
  8
1
 62
7
  6
CONTINUOUS
 10
509.202866
 20
257.756190
 11
508.802866
 21
254.396190
  0
LINE
  8
1
 62
7
  6
CONTINUOUS
 10
508.802866
 20
254.396190
 11
509.202866
 21
257.756190
  0
LINE
  8
1
 62
7
  6
CONTINUOUS
 10
509.842866
 20
257.756190
 11
509.442866
 21
254.396190
  0
LINE
  8
1
 62
7
  6
CONTINUOUS
 10
509.122866
 20
254.076190
 11
509.442866
 21
254.396190
  0
LINE
  8
1
 62
7
  6
CONTINUOUS
 10
509.522866
 20
258.076190
 11
509.202866
 21
257.756190
  0
LINE
  8
1
 62
7
  6
CONTINUOUS
 10
509.842866
 20
257.756190
 11
509.522866
 21
258.076190
  0
LINE
  8
1
 62
7
  6
CONTINUOUS
 10
508.162866
 20
254.396190
 11
508.482866
 21
254.076190
  0
LINE
  8
1
 62
7
  6
CONTINUOUS
 10
508.562866
 20
257.756190
 11
508.162866
 21
254.396190
  0
LINE
  8
1
 62
7
  6
CONTINUOUS
 10
508.162866
 20
254.396190
 11
508.562866
 21
257.756190
  0
LINE
  8
1
 62
7
  6
CONTINUOUS
 10
509.202866
 20
257.756190
 11
508.802866
 21
254.396190
  0
LINE
  8
1
 62
7
  6
CONTINUOUS
 10
508.482866
 20
254.076190
 11
508.802866
 21
254.396190
  0
LINE
  8
1
 62
7
  6
CONTINUOUS
 10
508.882866
 20
258.076190
 11
508.562866
 21
257.756190
  0
LINE
  8
1
 62
7
  6
CONTINUOUS
 10
509.202866
 20
257.756190
 11
508.882866
 21
258.076190
  0
LINE
  8
1
 62
7
  6
CONTINUOUS
 10
507.522866
 20
254.396190
 11
507.842866
 21
254.076190
  0
LINE
  8
1
 62
7
  6
CONTINUOUS
 10
507.922866
 20
257.756190
 11
507.522866
 21
254.396190
  0
LINE
  8
1
 62
7
  6
CONTINUOUS
 10
507.522866
 20
254.396190
 11
507.922866
 21
257.756190
  0
LINE
  8
1
 62
7
  6
CONTINUOUS
 10
508.562866
 20
257.756190
 11
508.162866
 21
254.396190
  0
LINE
  8
1
 62
7
  6
CONTINUOUS
 10
507.842866
 20
254.076190
 11
508.162866
 21
254.396190
  0
LINE
  8
1
 62
7
  6
CONTINUOUS
 10
508.242866
 20
258.076190
 11
507.922866
 21
257.756190
  0
LINE
  8
1
 62
7
  6
CONTINUOUS
 10
508.562866
 20
257.756190
 11
508.242866
 21
258.076190
  0
LINE
  8
1
 62
7
  6
CONTINUOUS
 10
506.882866
 20
254.396190
 11
507.202866
 21
254.076190
  0
LINE
  8
1
 62
7
  6
CONTINUOUS
 10
507.282866
 20
257.756190
 11
506.882866
 21
254.396190
  0
LINE
  8
1
 62
7
  6
CONTINUOUS
 10
506.882866
 20
254.396190
 11
507.282866
 21
257.756190
  0
LINE
  8
1
 62
7
  6
CONTINUOUS
 10
507.922866
 20
257.756190
 11
507.522866
 21
254.396190
  0
LINE
  8
1
 62
7
  6
CONTINUOUS
 10
507.202866
 20
254.076190
 11
507.522866
 21
254.396190
  0
LINE
  8
1
 62
7
  6
CONTINUOUS
 10
507.602866
 20
258.076190
 11
507.282866
 21
257.756190
  0
LINE
  8
1
 62
7
  6
CONTINUOUS
 10
507.922866
 20
257.756190
 11
507.602866
 21
258.076190
  0
LINE
  8
1
 62
7
  6
CONTINUOUS
 10
506.242866
 20
254.396190
 11
506.562866
 21
254.076190
  0
LINE
  8
1
 62
7
  6
CONTINUOUS
 10
506.642866
 20
257.756190
 11
506.242866
 21
254.396190
  0
LINE
  8
1
 62
7
  6
CONTINUOUS
 10
506.242866
 20
254.396190
 11
506.642866
 21
257.756190
  0
LINE
  8
1
 62
7
  6
CONTINUOUS
 10
507.282866
 20
257.756190
 11
506.882866
 21
254.396190
  0
LINE
  8
1
 62
7
  6
CONTINUOUS
 10
506.562866
 20
254.076190
 11
506.882866
 21
254.396190
  0
LINE
  8
1
 62
7
  6
CONTINUOUS
 10
506.962866
 20
258.076190
 11
506.642866
 21
257.756190
  0
LINE
  8
1
 62
7
  6
CONTINUOUS
 10
507.282866
 20
257.756190
 11
506.962866
 21
258.076190
  0
LINE
  8
1
 62
7
  6
CONTINUOUS
 10
505.602866
 20
254.396190
 11
505.922866
 21
254.076190
  0
LINE
  8
1
 62
7
  6
CONTINUOUS
 10
506.002866
 20
257.756190
 11
505.602866
 21
254.396190
  0
LINE
  8
1
 62
7
  6
CONTINUOUS
 10
505.602866
 20
254.396190
 11
506.002866
 21
257.756190
  0
LINE
  8
1
 62
7
  6
CONTINUOUS
 10
506.642866
 20
257.756190
 11
506.242866
 21
254.396190
  0
LINE
  8
1
 62
7
  6
CONTINUOUS
 10
505.922866
 20
254.076190
 11
506.242866
 21
254.396190
  0
LINE
  8
1
 62
7
  6
CONTINUOUS
 10
506.322866
 20
258.076190
 11
506.002866
 21
257.756190
  0
LINE
  8
1
 62
7
  6
CONTINUOUS
 10
506.642866
 20
257.756190
 11
506.322866
 21
258.076190
  0
LINE
  8
1
 62
7
  6
CONTINUOUS
 10
504.962866
 20
254.396190
 11
505.282866
 21
254.076190
  0
LINE
  8
1
 62
7
  6
CONTINUOUS
 10
505.362866
 20
257.756190
 11
504.962866
 21
254.396190
  0
LINE
  8
1
 62
7
  6
CONTINUOUS
 10
504.962866
 20
254.396190
 11
505.362866
 21
257.756190
  0
LINE
  8
1
 62
7
  6
CONTINUOUS
 10
506.002866
 20
257.756190
 11
505.602866
 21
254.396190
  0
LINE
  8
1
 62
7
  6
CONTINUOUS
 10
505.282866
 20
254.076190
 11
505.602866
 21
254.396190
  0
LINE
  8
1
 62
7
  6
CONTINUOUS
 10
505.682866
 20
258.076190
 11
505.362866
 21
257.756190
  0
LINE
  8
1
 62
7
  6
CONTINUOUS
 10
506.002866
 20
257.756190
 11
505.682866
 21
258.076190
  0
LINE
  8
1
 62
7
  6
CONTINUOUS
 10
504.322866
 20
254.396190
 11
504.642866
 21
254.076190
  0
LINE
  8
1
 62
7
  6
CONTINUOUS
 10
504.722866
 20
257.756190
 11
504.322866
 21
254.396190
  0
LINE
  8
1
 62
7
  6
CONTINUOUS
 10
504.322866
 20
254.396190
 11
504.722866
 21
257.756190
  0
LINE
  8
1
 62
7
  6
CONTINUOUS
 10
505.362866
 20
257.756190
 11
504.962866
 21
254.396190
  0
LINE
  8
1
 62
7
  6
CONTINUOUS
 10
504.642866
 20
254.076190
 11
504.962866
 21
254.396190
  0
LINE
  8
1
 62
7
  6
CONTINUOUS
 10
505.042866
 20
258.076190
 11
504.722866
 21
257.756190
  0
LINE
  8
1
 62
7
  6
CONTINUOUS
 10
505.362866
 20
257.756190
 11
505.042866
 21
258.076190
  0
LINE
  8
1
 62
7
  6
CONTINUOUS
 10
503.682866
 20
254.396190
 11
504.002866
 21
254.076190
  0
LINE
  8
1
 62
7
  6
CONTINUOUS
 10
504.082866
 20
257.756190
 11
503.682866
 21
254.396190
  0
LINE
  8
1
 62
7
  6
CONTINUOUS
 10
503.682866
 20
254.396190
 11
504.082866
 21
257.756190
  0
LINE
  8
1
 62
7
  6
CONTINUOUS
 10
504.722866
 20
257.756190
 11
504.322866
 21
254.396190
  0
LINE
  8
1
 62
7
  6
CONTINUOUS
 10
504.002866
 20
254.076190
 11
504.322866
 21
254.396190
  0
LINE
  8
1
 62
7
  6
CONTINUOUS
 10
504.402866
 20
258.076190
 11
504.082866
 21
257.756190
  0
LINE
  8
1
 62
7
  6
CONTINUOUS
 10
504.722866
 20
257.756190
 11
504.402866
 21
258.076190
  0
LINE
  8
1
 62
7
  6
CONTINUOUS
 10
503.042866
 20
254.396190
 11
503.362866
 21
254.076190
  0
LINE
  8
1
 62
7
  6
CONTINUOUS
 10
503.442866
 20
257.756190
 11
503.042866
 21
254.396190
  0
LINE
  8
1
 62
7
  6
CONTINUOUS
 10
503.042866
 20
254.396190
 11
503.442866
 21
257.756190
  0
LINE
  8
1
 62
7
  6
CONTINUOUS
 10
504.082866
 20
257.756190
 11
503.682866
 21
254.396190
  0
LINE
  8
1
 62
7
  6
CONTINUOUS
 10
503.362866
 20
254.076190
 11
503.682866
 21
254.396190
  0
LINE
  8
1
 62
7
  6
CONTINUOUS
 10
503.762866
 20
258.076190
 11
503.442866
 21
257.756190
  0
LINE
  8
1
 62
7
  6
CONTINUOUS
 10
504.082866
 20
257.756190
 11
503.762866
 21
258.076190
  0
LINE
  8
1
 62
7
  6
CONTINUOUS
 10
502.402866
 20
254.396190
 11
502.722866
 21
254.076190
  0
LINE
  8
1
 62
7
  6
CONTINUOUS
 10
502.802866
 20
257.756190
 11
502.402866
 21
254.396190
  0
LINE
  8
1
 62
7
  6
CONTINUOUS
 10
502.402866
 20
254.396190
 11
502.802866
 21
257.756190
  0
LINE
  8
1
 62
7
  6
CONTINUOUS
 10
503.442866
 20
257.756190
 11
503.042866
 21
254.396190
  0
LINE
  8
1
 62
7
  6
CONTINUOUS
 10
502.722866
 20
254.076190
 11
503.042866
 21
254.396190
  0
LINE
  8
1
 62
7
  6
CONTINUOUS
 10
503.122866
 20
258.076190
 11
502.802866
 21
257.756190
  0
LINE
  8
1
 62
7
  6
CONTINUOUS
 10
503.442866
 20
257.756190
 11
503.122866
 21
258.076190
  0
LINE
  8
1
 62
7
  6
CONTINUOUS
 10
502.802866
 20
257.756190
 11
502.402866
 21
254.396190
  0
LINE
  8
1
 62
7
  6
CONTINUOUS
 10
502.082866
 20
254.076190
 11
502.402866
 21
254.396190
  0
LINE
  8
1
 62
7
  6
CONTINUOUS
 10
502.482866
 20
258.076190
 11
502.162866
 21
257.756190
  0
LINE
  8
1
 62
7
  6
CONTINUOUS
 10
502.802866
 20
257.756190
 11
502.482866
 21
258.076190
  0
LINE
  8
1
 62
7
  6
CONTINUOUS
 10
499.002866
 20
257.576190
 11
498.002866
 21
257.576190
  0
LINE
  8
1
 62
7
  6
CONTINUOUS
 10
498.002866
 20
257.076190
 11
499.002866
 21
257.076190
  0
LINE
  8
1
 62
7
  6
CONTINUOUS
 10
499.002866
 20
260.276190
 11
498.002866
 21
260.276190
  0
LINE
  8
1
 62
7
  6
CONTINUOUS
 10
499.002866
 20
251.876190
 11
499.002866
 21
260.276190
  0
LINE
  8
1
 62
7
  6
CONTINUOUS
 10
498.002866
 20
251.876190
 11
499.002866
 21
251.876190
  0
LINE
  8
1
 62
7
  6
CONTINUOUS
 10
501.602866
 20
254.076190
 11
499.002866
 21
254.076190
  0
LINE
  8
1
 62
7
  6
CONTINUOUS
 10
501.602866
 20
258.076190
 11
499.002866
 21
258.076190
  0
ARC
  8
1
 62
7
  6
CONTINUOUS
 10
496.402866
 20
251.176190
 40
5.900000
 50
19.641000
 51
29.152000
  0
ARC
  8
1
 62
7
  6
CONTINUOUS
 10
497.402866
 20
260.076190
 40
4.700000
 50
-25.450000
 51
-11.069000
  0
ARC
  8
1
 62
7
  6
CONTINUOUS
 10
497.202866
 20
256.076190
 40
4.800000
 50
-24.419000
 51
24.454000
  0
LINE
  8
1
 62
7
  6
CONTINUOUS
 10
499.002866
 20
260.276190
 11
498.002866
 21
260.276190
  0
LINE
  8
1
 62
7
  6
CONTINUOUS
 10
499.002866
 20
260.076190
 11
499.002866
 21
260.276190
  0
LINE
  8
1
 62
7
  6
CONTINUOUS
 10
499.002866
 20
251.876190
 11
499.002866
 21
252.076190
  0
LINE
  8
1
 62
7
  6
CONTINUOUS
 10
498.002866
 20
251.876190
 11
499.002866
 21
251.876190
  0
LINE
  8
1
 62
7
  6
CONTINUOUS
 10
502.002866
 20
253.176190
 11
502.002866
 21
258.976190
  0
LINE
  8
1
 62
7
  6
CONTINUOUS
 10
502.002866
 20
259.576190
 11
502.002866
 21
259.176190
  0
LINE
  8
1
 62
7
  6
CONTINUOUS
 10
501.602866
 20
260.076190
 11
502.002866
 21
259.576190
  0
LINE
  8
1
 62
7
  6
CONTINUOUS
 10
499.002866
 20
260.076190
 11
501.602866
 21
260.076190
  0
LINE
  8
1
 62
7
  6
CONTINUOUS
 10
501.602866
 20
252.076190
 11
499.002866
 21
252.076190
  0
LINE
  8
1
 62
7
  6
CONTINUOUS
 10
502.002866
 20
252.576190
 11
501.602866
 21
252.076190
  0
LINE
  8
1
 62
7
  6
CONTINUOUS
 10
502.002866
 20
253.176190
 11
502.002866
 21
252.576190
  0
LINE
  8
1
 62
7
  6
CONTINUOUS
 10
498.002866
 20
331.276190
 11
498.002866
 21
316.576190
  0
LINE
  8
1
 62
7
  6
CONTINUOUS
 10
341.802866
 20
247.876190
 11
341.802866
 21
331.276190
  0
LINE
  8
1
 62
7
  6
CONTINUOUS
 10
481.802866
 20
247.576190
 11
481.802866
 21
222.076190
  0
LINE
  8
1
 62
7
  6
CONTINUOUS
 10
481.802866
 20
333.576190
 11
481.802866
 21
344.076190
  0
LINE
  8
1
 62
7
  6
CONTINUOUS
 10
480.802866
 20
360.076190
 11
480.802866
 21
345.076190
  0
LINE
  8
1
 62
7
  6
CONTINUOUS
 10
481.802866
 20
222.076190
 11
480.802866
 21
222.076190
  0
LINE
  8
1
 62
7
  6
CONTINUOUS
 10
480.802866
 20
344.076190
 11
481.802866
 21
344.076190
  0
LINE
  8
1
 62
7
  6
CONTINUOUS
 10
480.802866
 20
345.076190
 11
480.802866
 21
344.076190
  0
LINE
  8
1
 62
7
  6
CONTINUOUS
 10
490.302866
 20
345.076190
 11
480.802866
 21
345.076190
  0
LINE
  8
1
 62
7
  6
CONTINUOUS
 10
490.302866
 20
358.076190
 11
480.802866
 21
358.076190
  0
LINE
  8
1
 62
7
  6
CONTINUOUS
 10
483.302866
 20
346.076190
 11
482.802866
 21
345.076190
  0
LINE
  8
1
 62
7
  6
CONTINUOUS
 10
485.302866
 20
346.076190
 11
483.302866
 21
346.076190
  0
LINE
  8
1
 62
7
  6
CONTINUOUS
 10
485.302866
 20
357.076190
 11
485.302866
 21
346.076190
  0
LINE
  8
1
 62
7
  6
CONTINUOUS
 10
483.302866
 20
357.076190
 11
485.302866
 21
357.076190
  0
LINE
  8
1
 62
7
  6
CONTINUOUS
 10
482.802866
 20
358.076190
 11
483.302866
 21
357.076190
  0
LINE
  8
1
 62
7
  6
CONTINUOUS
 10
490.302866
 20
345.076190
 11
485.302866
 21
345.076190
  0
LINE
  8
1
 62
7
  6
CONTINUOUS
 10
491.302866
 20
346.076190
 11
490.302866
 21
345.076190
  0
LINE
  8
1
 62
7
  6
CONTINUOUS
 10
492.302866
 20
346.076190
 11
491.302866
 21
346.076190
  0
LINE
  8
1
 62
7
  6
CONTINUOUS
 10
493.302866
 20
345.476190
 11
492.302866
 21
346.076190
  0
LINE
  8
1
 62
7
  6
CONTINUOUS
 10
493.302866
 20
346.076190
 11
493.302866
 21
345.476190
  0
LINE
  8
1
 62
7
  6
CONTINUOUS
 10
493.302866
 20
357.676190
 11
493.302866
 21
346.076190
  0
LINE
  8
1
 62
7
  6
CONTINUOUS
 10
492.302866
 20
357.076190
 11
493.302866
 21
357.676190
  0
LINE
  8
1
 62
7
  6
CONTINUOUS
 10
491.302866
 20
357.076190
 11
492.302866
 21
357.076190
  0
LINE
  8
1
 62
7
  6
CONTINUOUS
 10
490.302866
 20
358.076190
 11
491.302866
 21
357.076190
  0
LINE
  8
1
 62
7
  6
CONTINUOUS
 10
490.302866
 20
358.076190
 11
485.302866
 21
358.076190
  0
LINE
  8
1
 62
7
  6
CONTINUOUS
 10
372.802866
 20
235.076190
 11
354.802866
 21
235.076190
  0
LINE
  8
1
 62
7
  6
CONTINUOUS
 10
372.802866
 20
237.076190
 11
354.802866
 21
237.076190
  0
ARC
  8
1
 62
7
  6
CONTINUOUS
 10
354.802866
 20
236.076190
 40
1.000000
 50
90.000000
 51
180.000000
  0
ARC
  8
1
 62
7
  6
CONTINUOUS
 10
354.802866
 20
236.076190
 40
1.000000
 50
180.000000
 51
-90.000000
  0
ARC
  8
1
 62
7
  6
CONTINUOUS
 10
372.802866
 20
236.076190
 40
1.000000
 50
0.000000
 51
90.000000
  0
ARC
  8
1
 62
7
  6
CONTINUOUS
 10
372.802866
 20
236.076190
 40
1.000000
 50
-90.000000
 51
0.000000
  0
LINE
  8
1
 62
7
  6
CONTINUOUS
 10
372.802866
 20
232.076190
 11
354.802866
 21
232.076190
  0
LINE
  8
1
 62
7
  6
CONTINUOUS
 10
372.802866
 20
234.076190
 11
354.802866
 21
234.076190
  0
ARC
  8
1
 62
7
  6
CONTINUOUS
 10
354.802866
 20
233.076190
 40
1.000000
 50
90.000000
 51
180.000000
  0
ARC
  8
1
 62
7
  6
CONTINUOUS
 10
354.802866
 20
233.076190
 40
1.000000
 50
180.000000
 51
-90.000000
  0
ARC
  8
1
 62
7
  6
CONTINUOUS
 10
372.802866
 20
233.076190
 40
1.000000
 50
0.000000
 51
90.000000
  0
ARC
  8
1
 62
7
  6
CONTINUOUS
 10
372.802866
 20
233.076190
 40
1.000000
 50
-90.000000
 51
0.000000
  0
LINE
  8
1
 62
7
  6
CONTINUOUS
 10
372.802866
 20
238.076190
 11
354.802866
 21
238.076190
  0
LINE
  8
1
 62
7
  6
CONTINUOUS
 10
372.802866
 20
240.076190
 11
354.802866
 21
240.076190
  0
ARC
  8
1
 62
7
  6
CONTINUOUS
 10
354.802866
 20
239.076190
 40
1.000000
 50
90.000000
 51
180.000000
  0
ARC
  8
1
 62
7
  6
CONTINUOUS
 10
354.802866
 20
239.076190
 40
1.000000
 50
180.000000
 51
-90.000000
  0
ARC
  8
1
 62
7
  6
CONTINUOUS
 10
372.802866
 20
239.076190
 40
1.000000
 50
0.000000
 51
90.000000
  0
ARC
  8
1
 62
7
  6
CONTINUOUS
 10
372.802866
 20
239.076190
 40
1.000000
 50
-90.000000
 51
0.000000
  0
LINE
  8
1
 62
7
  6
CONTINUOUS
 10
402.802866
 20
235.076190
 11
384.802866
 21
235.076190
  0
LINE
  8
1
 62
7
  6
CONTINUOUS
 10
402.802866
 20
237.076190
 11
384.802866
 21
237.076190
  0
ARC
  8
1
 62
7
  6
CONTINUOUS
 10
384.802866
 20
236.076190
 40
1.000000
 50
90.000000
 51
180.000000
  0
ARC
  8
1
 62
7
  6
CONTINUOUS
 10
384.802866
 20
236.076190
 40
1.000000
 50
180.000000
 51
-90.000000
  0
ARC
  8
1
 62
7
  6
CONTINUOUS
 10
402.802866
 20
236.076190
 40
1.000000
 50
-0.000000
 51
90.000000
  0
ARC
  8
1
 62
7
  6
CONTINUOUS
 10
402.802866
 20
236.076190
 40
1.000000
 50
-90.000000
 51
-0.000000
  0
LINE
  8
1
 62
7
  6
CONTINUOUS
 10
402.802866
 20
232.076190
 11
384.802866
 21
232.076190
  0
LINE
  8
1
 62
7
  6
CONTINUOUS
 10
402.802866
 20
234.076190
 11
384.802866
 21
234.076190
  0
ARC
  8
1
 62
7
  6
CONTINUOUS
 10
384.802866
 20
233.076190
 40
1.000000
 50
90.000000
 51
180.000000
  0
ARC
  8
1
 62
7
  6
CONTINUOUS
 10
384.802866
 20
233.076190
 40
1.000000
 50
180.000000
 51
-90.000000
  0
ARC
  8
1
 62
7
  6
CONTINUOUS
 10
402.802866
 20
233.076190
 40
1.000000
 50
-0.000000
 51
90.000000
  0
ARC
  8
1
 62
7
  6
CONTINUOUS
 10
402.802866
 20
233.076190
 40
1.000000
 50
-90.000000
 51
-0.000000
  0
LINE
  8
1
 62
7
  6
CONTINUOUS
 10
402.802866
 20
238.076190
 11
384.802866
 21
238.076190
  0
LINE
  8
1
 62
7
  6
CONTINUOUS
 10
402.802866
 20
240.076190
 11
384.802866
 21
240.076190
  0
ARC
  8
1
 62
7
  6
CONTINUOUS
 10
384.802866
 20
239.076190
 40
1.000000
 50
90.000000
 51
180.000000
  0
ARC
  8
1
 62
7
  6
CONTINUOUS
 10
384.802866
 20
239.076190
 40
1.000000
 50
180.000000
 51
-90.000000
  0
ARC
  8
1
 62
7
  6
CONTINUOUS
 10
402.802866
 20
239.076190
 40
1.000000
 50
-0.000000
 51
90.000000
  0
ARC
  8
1
 62
7
  6
CONTINUOUS
 10
402.802866
 20
239.076190
 40
1.000000
 50
-90.000000
 51
-0.000000
  0
LINE
  8
1
 62
7
  6
CONTINUOUS
 10
432.802866
 20
235.076190
 11
414.802866
 21
235.076190
  0
LINE
  8
1
 62
7
  6
CONTINUOUS
 10
432.802866
 20
237.076190
 11
414.802866
 21
237.076190
  0
ARC
  8
1
 62
7
  6
CONTINUOUS
 10
414.802866
 20
236.076190
 40
1.000000
 50
90.000000
 51
180.000000
  0
ARC
  8
1
 62
7
  6
CONTINUOUS
 10
414.802866
 20
236.076190
 40
1.000000
 50
180.000000
 51
-90.000000
  0
ARC
  8
1
 62
7
  6
CONTINUOUS
 10
432.802866
 20
236.076190
 40
1.000000
 50
0.000000
 51
90.000000
  0
ARC
  8
1
 62
7
  6
CONTINUOUS
 10
432.802866
 20
236.076190
 40
1.000000
 50
-90.000000
 51
0.000000
  0
LINE
  8
1
 62
7
  6
CONTINUOUS
 10
432.802866
 20
232.076190
 11
414.802866
 21
232.076190
  0
LINE
  8
1
 62
7
  6
CONTINUOUS
 10
432.802866
 20
234.076190
 11
414.802866
 21
234.076190
  0
ARC
  8
1
 62
7
  6
CONTINUOUS
 10
414.802866
 20
233.076190
 40
1.000000
 50
90.000000
 51
180.000000
  0
ARC
  8
1
 62
7
  6
CONTINUOUS
 10
414.802866
 20
233.076190
 40
1.000000
 50
180.000000
 51
-90.000000
  0
ARC
  8
1
 62
7
  6
CONTINUOUS
 10
432.802866
 20
233.076190
 40
1.000000
 50
0.000000
 51
90.000000
  0
ARC
  8
1
 62
7
  6
CONTINUOUS
 10
432.802866
 20
233.076190
 40
1.000000
 50
-90.000000
 51
0.000000
  0
LINE
  8
1
 62
7
  6
CONTINUOUS
 10
432.802866
 20
238.076190
 11
414.802866
 21
238.076190
  0
LINE
  8
1
 62
7
  6
CONTINUOUS
 10
432.802866
 20
240.076190
 11
414.802866
 21
240.076190
  0
ARC
  8
1
 62
7
  6
CONTINUOUS
 10
414.802866
 20
239.076190
 40
1.000000
 50
90.000000
 51
180.000000
  0
ARC
  8
1
 62
7
  6
CONTINUOUS
 10
414.802866
 20
239.076190
 40
1.000000
 50
180.000000
 51
-90.000000
  0
ARC
  8
1
 62
7
  6
CONTINUOUS
 10
432.802866
 20
239.076190
 40
1.000000
 50
0.000000
 51
90.000000
  0
ARC
  8
1
 62
7
  6
CONTINUOUS
 10
432.802866
 20
239.076190
 40
1.000000
 50
-90.000000
 51
0.000000
  0
LINE
  8
1
 62
7
  6
CONTINUOUS
 10
462.802866
 20
235.076190
 11
444.802866
 21
235.076190
  0
LINE
  8
1
 62
7
  6
CONTINUOUS
 10
462.802866
 20
237.076190
 11
444.802866
 21
237.076190
  0
ARC
  8
1
 62
7
  6
CONTINUOUS
 10
444.802866
 20
236.076190
 40
1.000000
 50
90.000000
 51
180.000000
  0
ARC
  8
1
 62
7
  6
CONTINUOUS
 10
444.802866
 20
236.076190
 40
1.000000
 50
180.000000
 51
-90.000000
  0
ARC
  8
1
 62
7
  6
CONTINUOUS
 10
462.802866
 20
236.076190
 40
1.000000
 50
0.000000
 51
90.000000
  0
ARC
  8
1
 62
7
  6
CONTINUOUS
 10
462.802866
 20
236.076190
 40
1.000000
 50
-90.000000
 51
0.000000
  0
LINE
  8
1
 62
7
  6
CONTINUOUS
 10
462.802866
 20
232.076190
 11
444.802866
 21
232.076190
  0
LINE
  8
1
 62
7
  6
CONTINUOUS
 10
462.802866
 20
234.076190
 11
444.802866
 21
234.076190
  0
ARC
  8
1
 62
7
  6
CONTINUOUS
 10
444.802866
 20
233.076190
 40
1.000000
 50
90.000000
 51
180.000000
  0
ARC
  8
1
 62
7
  6
CONTINUOUS
 10
444.802866
 20
233.076190
 40
1.000000
 50
180.000000
 51
-90.000000
  0
ARC
  8
1
 62
7
  6
CONTINUOUS
 10
462.802866
 20
233.076190
 40
1.000000
 50
0.000000
 51
90.000000
  0
ARC
  8
1
 62
7
  6
CONTINUOUS
 10
462.802866
 20
233.076190
 40
1.000000
 50
-90.000000
 51
0.000000
  0
LINE
  8
1
 62
7
  6
CONTINUOUS
 10
462.802866
 20
238.076190
 11
444.802866
 21
238.076190
  0
LINE
  8
1
 62
7
  6
CONTINUOUS
 10
462.802866
 20
240.076190
 11
444.802866
 21
240.076190
  0
ARC
  8
1
 62
7
  6
CONTINUOUS
 10
444.802866
 20
239.076190
 40
1.000000
 50
90.000000
 51
180.000000
  0
ARC
  8
1
 62
7
  6
CONTINUOUS
 10
444.802866
 20
239.076190
 40
1.000000
 50
180.000000
 51
-90.000000
  0
ARC
  8
1
 62
7
  6
CONTINUOUS
 10
462.802866
 20
239.076190
 40
1.000000
 50
0.000000
 51
90.000000
  0
ARC
  8
1
 62
7
  6
CONTINUOUS
 10
462.802866
 20
239.076190
 40
1.000000
 50
-90.000000
 51
0.000000
  0
LINE
  8
1
 62
7
  6
CONTINUOUS
 10
480.802866
 20
222.076190
 11
341.802866
 21
222.076190
  0
LINE
  8
1
 62
7
  6
CONTINUOUS
 10
325.802866
 20
219.076190
 11
341.802866
 21
219.076190
  0
LINE
  8
1
 62
7
  6
CONTINUOUS
 10
372.802866
 20
342.076190
 11
354.802866
 21
342.076190
  0
LINE
  8
1
 62
7
  6
CONTINUOUS
 10
372.802866
 20
344.076190
 11
354.802866
 21
344.076190
  0
ARC
  8
1
 62
7
  6
CONTINUOUS
 10
354.802866
 20
343.076190
 40
1.000000
 50
90.000000
 51
180.000000
  0
ARC
  8
1
 62
7
  6
CONTINUOUS
 10
354.802866
 20
343.076190
 40
1.000000
 50
180.000000
 51
-90.000000
  0
ARC
  8
1
 62
7
  6
CONTINUOUS
 10
372.802866
 20
343.076190
 40
1.000000
 50
0.000000
 51
90.000000
  0
ARC
  8
1
 62
7
  6
CONTINUOUS
 10
372.802866
 20
343.076190
 40
1.000000
 50
-90.000000
 51
0.000000
  0
LINE
  8
1
 62
7
  6
CONTINUOUS
 10
372.802866
 20
339.076190
 11
354.802866
 21
339.076190
  0
LINE
  8
1
 62
7
  6
CONTINUOUS
 10
372.802866
 20
341.076190
 11
354.802866
 21
341.076190
  0
ARC
  8
1
 62
7
  6
CONTINUOUS
 10
354.802866
 20
340.076190
 40
1.000000
 50
90.000000
 51
180.000000
  0
ARC
  8
1
 62
7
  6
CONTINUOUS
 10
354.802866
 20
340.076190
 40
1.000000
 50
180.000000
 51
-90.000000
  0
ARC
  8
1
 62
7
  6
CONTINUOUS
 10
372.802866
 20
340.076190
 40
1.000000
 50
0.000000
 51
90.000000
  0
ARC
  8
1
 62
7
  6
CONTINUOUS
 10
372.802866
 20
340.076190
 40
1.000000
 50
-90.000000
 51
0.000000
  0
LINE
  8
1
 62
7
  6
CONTINUOUS
 10
372.802866
 20
345.076190
 11
354.802866
 21
345.076190
  0
LINE
  8
1
 62
7
  6
CONTINUOUS
 10
372.802866
 20
347.076190
 11
354.802866
 21
347.076190
  0
ARC
  8
1
 62
7
  6
CONTINUOUS
 10
354.802866
 20
346.076190
 40
1.000000
 50
90.000000
 51
180.000000
  0
ARC
  8
1
 62
7
  6
CONTINUOUS
 10
354.802866
 20
346.076190
 40
1.000000
 50
180.000000
 51
-90.000000
  0
ARC
  8
1
 62
7
  6
CONTINUOUS
 10
372.802866
 20
346.076190
 40
1.000000
 50
0.000000
 51
90.000000
  0
ARC
  8
1
 62
7
  6
CONTINUOUS
 10
372.802866
 20
346.076190
 40
1.000000
 50
-90.000000
 51
0.000000
  0
LINE
  8
1
 62
7
  6
CONTINUOUS
 10
462.802866
 20
342.076190
 11
444.802866
 21
342.076190
  0
LINE
  8
1
 62
7
  6
CONTINUOUS
 10
462.802866
 20
344.076190
 11
444.802866
 21
344.076190
  0
ARC
  8
1
 62
7
  6
CONTINUOUS
 10
444.802866
 20
343.076190
 40
1.000000
 50
90.000000
 51
180.000000
  0
ARC
  8
1
 62
7
  6
CONTINUOUS
 10
444.802866
 20
343.076190
 40
1.000000
 50
180.000000
 51
-90.000000
  0
ARC
  8
1
 62
7
  6
CONTINUOUS
 10
462.802866
 20
343.076190
 40
1.000000
 50
0.000000
 51
90.000000
  0
ARC
  8
1
 62
7
  6
CONTINUOUS
 10
462.802866
 20
343.076190
 40
1.000000
 50
-90.000000
 51
0.000000
  0
LINE
  8
1
 62
7
  6
CONTINUOUS
 10
462.802866
 20
339.076190
 11
444.802866
 21
339.076190
  0
LINE
  8
1
 62
7
  6
CONTINUOUS
 10
462.802866
 20
341.076190
 11
444.802866
 21
341.076190
  0
ARC
  8
1
 62
7
  6
CONTINUOUS
 10
444.802866
 20
340.076190
 40
1.000000
 50
90.000000
 51
180.000000
  0
ARC
  8
1
 62
7
  6
CONTINUOUS
 10
444.802866
 20
340.076190
 40
1.000000
 50
180.000000
 51
-90.000000
  0
ARC
  8
1
 62
7
  6
CONTINUOUS
 10
462.802866
 20
340.076190
 40
1.000000
 50
0.000000
 51
90.000000
  0
ARC
  8
1
 62
7
  6
CONTINUOUS
 10
462.802866
 20
340.076190
 40
1.000000
 50
-90.000000
 51
0.000000
  0
LINE
  8
1
 62
7
  6
CONTINUOUS
 10
462.802866
 20
345.076190
 11
444.802866
 21
345.076190
  0
LINE
  8
1
 62
7
  6
CONTINUOUS
 10
462.802866
 20
347.076190
 11
444.802866
 21
347.076190
  0
ARC
  8
1
 62
7
  6
CONTINUOUS
 10
444.802866
 20
346.076190
 40
1.000000
 50
90.000000
 51
180.000000
  0
ARC
  8
1
 62
7
  6
CONTINUOUS
 10
444.802866
 20
346.076190
 40
1.000000
 50
180.000000
 51
-90.000000
  0
ARC
  8
1
 62
7
  6
CONTINUOUS
 10
462.802866
 20
346.076190
 40
1.000000
 50
0.000000
 51
90.000000
  0
ARC
  8
1
 62
7
  6
CONTINUOUS
 10
462.802866
 20
346.076190
 40
1.000000
 50
-90.000000
 51
0.000000
  0
LINE
  8
1
 62
7
  6
CONTINUOUS
 10
432.802866
 20
342.076190
 11
414.802866
 21
342.076190
  0
LINE
  8
1
 62
7
  6
CONTINUOUS
 10
432.802866
 20
344.076190
 11
414.802866
 21
344.076190
  0
ARC
  8
1
 62
7
  6
CONTINUOUS
 10
414.802866
 20
343.076190
 40
1.000000
 50
90.000000
 51
180.000000
  0
ARC
  8
1
 62
7
  6
CONTINUOUS
 10
414.802866
 20
343.076190
 40
1.000000
 50
180.000000
 51
-90.000000
  0
ARC
  8
1
 62
7
  6
CONTINUOUS
 10
432.802866
 20
343.076190
 40
1.000000
 50
0.000000
 51
90.000000
  0
ARC
  8
1
 62
7
  6
CONTINUOUS
 10
432.802866
 20
343.076190
 40
1.000000
 50
-90.000000
 51
0.000000
  0
LINE
  8
1
 62
7
  6
CONTINUOUS
 10
432.802866
 20
339.076190
 11
414.802866
 21
339.076190
  0
LINE
  8
1
 62
7
  6
CONTINUOUS
 10
432.802866
 20
341.076190
 11
414.802866
 21
341.076190
  0
ARC
  8
1
 62
7
  6
CONTINUOUS
 10
414.802866
 20
340.076190
 40
1.000000
 50
90.000000
 51
180.000000
  0
ARC
  8
1
 62
7
  6
CONTINUOUS
 10
414.802866
 20
340.076190
 40
1.000000
 50
180.000000
 51
-90.000000
  0
ARC
  8
1
 62
7
  6
CONTINUOUS
 10
432.802866
 20
340.076190
 40
1.000000
 50
0.000000
 51
90.000000
  0
ARC
  8
1
 62
7
  6
CONTINUOUS
 10
432.802866
 20
340.076190
 40
1.000000
 50
-90.000000
 51
0.000000
  0
LINE
  8
1
 62
7
  6
CONTINUOUS
 10
432.802866
 20
345.076190
 11
414.802866
 21
345.076190
  0
LINE
  8
1
 62
7
  6
CONTINUOUS
 10
432.802866
 20
347.076190
 11
414.802866
 21
347.076190
  0
ARC
  8
1
 62
7
  6
CONTINUOUS
 10
414.802866
 20
346.076190
 40
1.000000
 50
90.000000
 51
180.000000
  0
ARC
  8
1
 62
7
  6
CONTINUOUS
 10
414.802866
 20
346.076190
 40
1.000000
 50
180.000000
 51
-90.000000
  0
ARC
  8
1
 62
7
  6
CONTINUOUS
 10
432.802866
 20
346.076190
 40
1.000000
 50
0.000000
 51
90.000000
  0
ARC
  8
1
 62
7
  6
CONTINUOUS
 10
432.802866
 20
346.076190
 40
1.000000
 50
-90.000000
 51
0.000000
  0
LINE
  8
1
 62
7
  6
CONTINUOUS
 10
402.802866
 20
342.076190
 11
384.802866
 21
342.076190
  0
LINE
  8
1
 62
7
  6
CONTINUOUS
 10
402.802866
 20
344.076190
 11
384.802866
 21
344.076190
  0
ARC
  8
1
 62
7
  6
CONTINUOUS
 10
384.802866
 20
343.076190
 40
1.000000
 50
90.000000
 51
180.000000
  0
ARC
  8
1
 62
7
  6
CONTINUOUS
 10
384.802866
 20
343.076190
 40
1.000000
 50
180.000000
 51
-90.000000
  0
ARC
  8
1
 62
7
  6
CONTINUOUS
 10
402.802866
 20
343.076190
 40
1.000000
 50
0.000000
 51
90.000000
  0
ARC
  8
1
 62
7
  6
CONTINUOUS
 10
402.802866
 20
343.076190
 40
1.000000
 50
-90.000000
 51
0.000000
  0
LINE
  8
1
 62
7
  6
CONTINUOUS
 10
402.802866
 20
339.076190
 11
384.802866
 21
339.076190
  0
LINE
  8
1
 62
7
  6
CONTINUOUS
 10
402.802866
 20
341.076190
 11
384.802866
 21
341.076190
  0
ARC
  8
1
 62
7
  6
CONTINUOUS
 10
384.802866
 20
340.076190
 40
1.000000
 50
90.000000
 51
180.000000
  0
ARC
  8
1
 62
7
  6
CONTINUOUS
 10
384.802866
 20
340.076190
 40
1.000000
 50
180.000000
 51
-90.000000
  0
ARC
  8
1
 62
7
  6
CONTINUOUS
 10
402.802866
 20
340.076190
 40
1.000000
 50
0.000000
 51
90.000000
  0
ARC
  8
1
 62
7
  6
CONTINUOUS
 10
402.802866
 20
340.076190
 40
1.000000
 50
-90.000000
 51
0.000000
  0
LINE
  8
1
 62
7
  6
CONTINUOUS
 10
402.802866
 20
345.076190
 11
384.802866
 21
345.076190
  0
LINE
  8
1
 62
7
  6
CONTINUOUS
 10
402.802866
 20
347.076190
 11
384.802866
 21
347.076190
  0
ARC
  8
1
 62
7
  6
CONTINUOUS
 10
384.802866
 20
346.076190
 40
1.000000
 50
90.000000
 51
180.000000
  0
ARC
  8
1
 62
7
  6
CONTINUOUS
 10
384.802866
 20
346.076190
 40
1.000000
 50
180.000000
 51
-90.000000
  0
ARC
  8
1
 62
7
  6
CONTINUOUS
 10
402.802866
 20
346.076190
 40
1.000000
 50
0.000000
 51
90.000000
  0
ARC
  8
1
 62
7
  6
CONTINUOUS
 10
402.802866
 20
346.076190
 40
1.000000
 50
-90.000000
 51
0.000000
  0
LINE
  8
1
 62
7
  6
CONTINUOUS
 10
341.802866
 20
219.076190
 11
341.802866
 21
360.076190
  0
LINE
  8
1
 62
7
  6
CONTINUOUS
 10
325.802866
 20
363.076190
 11
325.802866
 21
219.076190
  0
LINE
  8
1
 62
7
  6
CONTINUOUS
 10
341.802866
 20
360.076190
 11
480.802866
 21
360.076190
  0
LINE
  8
1
 62
7
  6
CONTINUOUS
 10
341.802866
 20
363.076190
 11
341.802866
 21
360.076190
  0
LINE
  8
1
 62
7
  6
CONTINUOUS
 10
325.802866
 20
363.076190
 11
341.802866
 21
363.076190
  0
TEXT
  8
2
 62
134
  6
CONTINUOUS
 10
435.501168
 20
33.534589
 40
10.000000
 41
1.557333
  1
OutLine Drawing
  7
KANJI
 50
0.044194
 51
0.000000
  0
TEXT
  8
2
 62
134
  6
CONTINUOUS
 10
436.141480
 20
50.811353
 40
10.000000
 41
0.960000
  1
外形図
  7
KANJI
 50
0.044194
 51
0.000000
  0
TEXT
  8
2
 62
134
  6
CONTINUOUS
 10
384.497490
 20
50.171473
 40
10.000000
 41
1.600000
  1
AD-700
  7
KANJI
 50
0.044194
 51
0.000000
  0
LINE
  8
1
 62
7
  6
CONTINUOUS
 10
114.802866
 20
187.001766
 11
252.802866
 21
187.001766
  0
LINE
  8
1
 62
7
  6
CONTINUOUS
 10
252.802866
 20
182.817606
 11
252.802866
 21
191.141766
  0
LINE
  8
1
 62
7
  6
CONTINUOUS
 10
114.802866
 20
182.817606
 11
114.802866
 21
191.141766
  0
LINE
  8
20
 62
250
  6
CONTINUOUS
 10
251.417346
 20
39.297606
 11
252.802866
 21
40.683126
  0
LINE
  8
20
 62
250
  6
CONTINUOUS
 10
247.514706
 20
39.297606
 11
252.802866
 21
44.585766
  0
LINE
  8
20
 62
250
  6
CONTINUOUS
 10
243.612066
 20
39.297606
 11
252.802866
 21
48.488406
  0
LINE
  8
20
 62
250
  6
CONTINUOUS
 10
239.709426
 20
39.297606
 11
252.802866
 21
52.391046
  0
LINE
  8
20
 62
250
  6
CONTINUOUS
 10
235.801266
 20
39.297606
 11
252.802866
 21
56.299206
  0
LINE
  8
20
 62
250
  6
CONTINUOUS
 10
231.898626
 20
39.297606
 11
252.802866
 21
60.201846
  0
LINE
  8
20
 62
250
  6
CONTINUOUS
 10
227.995986
 20
39.297606
 11
252.802866
 21
64.104486
  0
LINE
  8
20
 62
250
  6
CONTINUOUS
 10
224.093346
 20
39.297606
 11
252.802866
 21
68.007126
  0
LINE
  8
20
 62
250
  6
CONTINUOUS
 10
220.190706
 20
39.297606
 11
252.802866
 21
71.909766
  0
LINE
  8
20
 62
250
  6
CONTINUOUS
 10
216.288066
 20
39.297606
 11
252.802866
 21
75.812406
  0
LINE
  8
20
 62
250
  6
CONTINUOUS
 10
212.385426
 20
39.297606
 11
252.802866
 21
79.715046
  0
LINE
  8
20
 62
250
  6
CONTINUOUS
 10
208.482786
 20
39.297606
 11
252.802866
 21
83.617686
  0
LINE
  8
20
 62
250
  6
CONTINUOUS
 10
204.580146
 20
39.297606
 11
252.802866
 21
87.520326
  0
LINE
  8
20
 62
250
  6
CONTINUOUS
 10
200.677506
 20
39.297606
 11
252.802866
 21
91.422966
  0
LINE
  8
20
 62
250
  6
CONTINUOUS
 10
196.769346
 20
39.297606
 11
252.802866
 21
95.331126
  0
LINE
  8
20
 62
250
  6
CONTINUOUS
 10
192.866706
 20
39.297606
 11
252.802866
 21
99.233766
  0
LINE
  8
20
 62
250
  6
CONTINUOUS
 10
188.964066
 20
39.297606
 11
252.802866
 21
103.136406
  0
LINE
  8
20
 62
250
  6
CONTINUOUS
 10
185.061426
 20
39.297606
 11
252.802866
 21
107.039046
  0
LINE
  8
20
 62
250
  6
CONTINUOUS
 10
181.158786
 20
39.297606
 11
252.802866
 21
110.941686
  0
LINE
  8
20
 62
250
  6
CONTINUOUS
 10
177.256146
 20
39.297606
 11
252.802866
 21
114.844326
  0
LINE
  8
20
 62
250
  6
CONTINUOUS
 10
173.353506
 20
39.297606
 11
252.802866
 21
118.746966
  0
LINE
  8
20
 62
250
  6
CONTINUOUS
 10
169.450866
 20
39.297606
 11
252.802866
 21
122.649606
  0
LINE
  8
20
 62
250
  6
CONTINUOUS
 10
165.548226
 20
39.297606
 11
252.802866
 21
126.552246
  0
LINE
  8
20
 62
250
  6
CONTINUOUS
 10
161.640066
 20
39.297606
 11
252.802866
 21
130.460406
  0
LINE
  8
20
 62
250
  6
CONTINUOUS
 10
157.737426
 20
39.297606
 11
252.802866
 21
134.363046
  0
LINE
  8
20
 62
250
  6
CONTINUOUS
 10
153.834786
 20
39.297606
 11
252.802866
 21
138.265686
  0
LINE
  8
20
 62
250
  6
CONTINUOUS
 10
149.932146
 20
39.297606
 11
252.802866
 21
142.168326
  0
LINE
  8
20
 62
250
  6
CONTINUOUS
 10
146.029506
 20
39.297606
 11
252.802866
 21
146.070966
  0
LINE
  8
20
 62
250
  6
CONTINUOUS
 10
142.126866
 20
39.297606
 11
252.802866
 21
149.973606
  0
LINE
  8
20
 62
250
  6
CONTINUOUS
 10
138.224226
 20
39.297606
 11
252.802866
 21
153.876246
  0
LINE
  8
20
 62
250
  6
CONTINUOUS
 10
134.321586
 20
39.297606
 11
252.802866
 21
157.778886
  0
LINE
  8
20
 62
250
  6
CONTINUOUS
 10
130.418946
 20
39.297606
 11
252.802866
 21
161.681526
  0
LINE
  8
20
 62
250
  6
CONTINUOUS
 10
126.510786
 20
39.297606
 11
252.802866
 21
165.589686
  0
LINE
  8
20
 62
250
  6
CONTINUOUS
 10
122.608146
 20
39.297606
 11
252.802866
 21
169.492326
  0
LINE
  8
20
 62
250
  6
CONTINUOUS
 10
118.705506
 20
39.297606
 11
252.802866
 21
173.394966
  0
LINE
  8
20
 62
250
  6
CONTINUOUS
 10
114.802866
 20
39.297606
 11
252.802866
 21
177.297606
  0
LINE
  8
20
 62
250
  6
CONTINUOUS
 10
114.802866
 20
43.200246
 11
248.900226
 21
177.297606
  0
LINE
  8
20
 62
250
  6
CONTINUOUS
 10
114.802866
 20
47.102886
 11
244.997586
 21
177.297606
  0
LINE
  8
20
 62
250
  6
CONTINUOUS
 10
114.802866
 20
51.005526
 11
241.094946
 21
177.297606
  0
LINE
  8
20
 62
250
  6
CONTINUOUS
 10
114.802866
 20
54.908166
 11
237.192306
 21
177.297606
  0
LINE
  8
20
 62
250
  6
CONTINUOUS
 10
114.802866
 20
58.810806
 11
233.289666
 21
177.297606
  0
LINE
  8
20
 62
250
  6
CONTINUOUS
 10
114.802866
 20
62.713446
 11
229.387026
 21
177.297606
  0
LINE
  8
20
 62
250
  6
CONTINUOUS
 10
114.802866
 20
66.621606
 11
225.478866
 21
177.297606
  0
LINE
  8
20
 62
250
  6
CONTINUOUS
 10
114.802866
 20
70.524246
 11
221.576226
 21
177.297606
  0
LINE
  8
20
 62
250
  6
CONTINUOUS
 10
114.802866
 20
74.426886
 11
217.673586
 21
177.297606
  0
LINE
  8
20
 62
250
  6
CONTINUOUS
 10
114.802866
 20
78.329526
 11
213.770946
 21
177.297606
  0
LINE
  8
20
 62
250
  6
CONTINUOUS
 10
114.802866
 20
82.232166
 11
209.868306
 21
177.297606
  0
LINE
  8
20
 62
250
  6
CONTINUOUS
 10
114.802866
 20
86.134806
 11
205.965666
 21
177.297606
  0
LINE
  8
20
 62
250
  6
CONTINUOUS
 10
114.802866
 20
90.037446
 11
202.063026
 21
177.297606
  0
LINE
  8
20
 62
250
  6
CONTINUOUS
 10
114.802866
 20
93.940086
 11
198.160386
 21
177.297606
  0
LINE
  8
20
 62
250
  6
CONTINUOUS
 10
114.802866
 20
97.842726
 11
194.257746
 21
177.297606
  0
LINE
  8
20
 62
250
  6
CONTINUOUS
 10
114.802866
 20
101.750886
 11
190.349586
 21
177.297606
  0
LINE
  8
20
 62
250
  6
CONTINUOUS
 10
114.802866
 20
105.653526
 11
186.446946
 21
177.297606
  0
LINE
  8
20
 62
250
  6
CONTINUOUS
 10
114.802866
 20
109.556166
 11
182.544306
 21
177.297606
  0
LINE
  8
20
 62
250
  6
CONTINUOUS
 10
114.802866
 20
113.458806
 11
178.641666
 21
177.297606
  0
LINE
  8
20
 62
250
  6
CONTINUOUS
 10
114.802866
 20
117.361446
 11
174.739026
 21
177.297606
  0
LINE
  8
20
 62
250
  6
CONTINUOUS
 10
114.802866
 20
121.264086
 11
170.836386
 21
177.297606
  0
LINE
  8
20
 62
250
  6
CONTINUOUS
 10
114.802866
 20
125.166726
 11
166.933746
 21
177.297606
  0
LINE
  8
20
 62
250
  6
CONTINUOUS
 10
114.802866
 20
129.069366
 11
163.031106
 21
177.297606
  0
LINE
  8
20
 62
250
  6
CONTINUOUS
 10
114.802866
 20
132.972006
 11
159.128466
 21
177.297606
  0
LINE
  8
20
 62
250
  6
CONTINUOUS
 10
114.802866
 20
136.880166
 11
155.220306
 21
177.297606
  0
LINE
  8
20
 62
250
  6
CONTINUOUS
 10
114.802866
 20
140.782806
 11
151.317666
 21
177.297606
  0
LINE
  8
20
 62
250
  6
CONTINUOUS
 10
114.802866
 20
144.685446
 11
147.415026
 21
177.297606
  0
LINE
  8
20
 62
250
  6
CONTINUOUS
 10
114.802866
 20
148.588086
 11
143.512386
 21
177.297606
  0
LINE
  8
20
 62
250
  6
CONTINUOUS
 10
114.802866
 20
152.490726
 11
139.609746
 21
177.297606
  0
LINE
  8
20
 62
250
  6
CONTINUOUS
 10
114.802866
 20
156.393366
 11
135.707106
 21
177.297606
  0
LINE
  8
20
 62
250
  6
CONTINUOUS
 10
114.802866
 20
160.296006
 11
131.804466
 21
177.297606
  0
LINE
  8
20
 62
250
  6
CONTINUOUS
 10
114.802866
 20
164.198646
 11
127.901826
 21
177.297606
  0
LINE
  8
20
 62
250
  6
CONTINUOUS
 10
114.802866
 20
168.101286
 11
123.999186
 21
177.297606
  0
LINE
  8
20
 62
250
  6
CONTINUOUS
 10
114.802866
 20
172.003926
 11
120.096546
 21
177.297606
  0
LINE
  8
20
 62
250
  6
CONTINUOUS
 10
114.802866
 20
175.912086
 11
116.188386
 21
177.297606
  0
LINE
  8
1
 62
7
  6
CONTINUOUS
 10
258.322866
 20
39.297606
 11
268.653546
 21
39.297606
  0
LINE
  8
1
 62
7
  6
CONTINUOUS
 10
258.322866
 20
177.297606
 11
268.653546
 21
177.297606
  0
LINE
  8
1
 62
7
  6
CONTINUOUS
 10
264.513546
 20
39.297606
 11
264.513546
 21
177.297606
  0
LINE
  8
1
 62
7
  6
CONTINUOUS
 10
252.802866
 20
177.297606
 11
114.802866
 21
177.297606
  0
LINE
  8
1
 62
7
  6
CONTINUOUS
 10
114.802866
 20
177.297606
 11
114.802866
 21
39.297606
  0
LINE
  8
1
 62
7
  6
CONTINUOUS
 10
114.802866
 20
39.297606
 11
252.802866
 21
39.297606
  0
LINE
  8
1
 62
7
  6
CONTINUOUS
 10
252.802866
 20
39.297606
 11
252.802866
 21
177.297606
  0
TEXT
  8
1
 62
7
  6
CONTINUOUS
 10
184.450356
 20
193.824213
 40
5.000000
 41
1.400000
  1
+1
  7
KANJI
 50
0.000000
 51
0.000000
  0
TEXT
  8
1
 62
7
  6
CONTINUOUS
 10
184.450356
 20
189.292578
 40
5.000000
 41
1.400000
  1
-0
  7
KANJI
 50
0.000000
 51
0.000000
  0
TEXT
  8
1
 62
7
  6
CONTINUOUS
 10
170.802866
 20
189.841296
 40
8.000000
 41
1.125000
  1
138
  7
KANJI
 50
0.000000
 51
0.000000
  0
TEXT
  8
1
 62
7
  6
CONTINUOUS
 10
280.681846
 20
108.795844
 40
5.000000
 41
1.400000
  1
+1
  7
KANJI
 50
0.000000
 51
0.000000
  0
TEXT
  8
1
 62
7
  6
CONTINUOUS
 10
280.681846
 20
104.264208
 40
5.000000
 41
1.400000
  1
-0
  7
KANJI
 50
0.000000
 51
0.000000
  0
TEXT
  8
1
 62
7
  6
CONTINUOUS
 10
266.623787
 20
105.337933
 40
8.000000
 41
1.125000
  1
138
  7
KANJI
 50
0.000000
 51
0.000000
  0
TEXT
  8
2
 62
134
  6
CONTINUOUS
 10
153.218416
 20
24.543691
 40
6.000000
 41
1.200000
  1
パネルカット寸法
  7
KANJI
 50
0.000000
 51
0.000000
  0
TEXT
  8
2
 62
134
  6
CONTINUOUS
 10
140.122866
 20
14.543691
 40
6.000000
 41
1.532632
  1
Panel Cut Dimention
  7
KANJI
 50
0.000000
 51
0.000000
  0
ENDSEC
  0
EOF
