  0
SECTION
  2
HEADER
  9
$ACADVER
  1
AC1009
  9
$INSBASE
 10
0.0
 20
0.0
 30
0.0
  9
$EXTMIN
 10
-84.014372682681255
 20
61.571534215439563
 30
-0.0015258207003583
  9
$EXTMAX
 10
377.20427049440832
 20
401.02252290982591
 30
0.0000000349246037
  9
$LIMMIN
 10
-126.4252704586083
 20
26.522807007552501
  9
$LIMMAX
 10
418.98590632073609
 20
434.50914899044329
  9
$ORTHOMODE
 70
     1
  9
$REGENMODE
 70
     1
  9
$FILLMODE
 70
     1
  9
$QTEXTMODE
 70
     0
  9
$MIRRTEXT
 70
     0
  9
$DRAGMODE
 70
     2
  9
$LTSCALE
 40
0.25
  9
$OSMODE
 70
  3071
  9
$ATTMODE
 70
     1
  9
$TEXTSIZE
 40
0.2
  9
$TRACEWID
 40
0.05
  9
$TEXTSTYLE
  7
STANDARD
  9
$CLAYER
  8
2
  9
$CELTYPE
  6
BYLAYER
  9
$CECOLOR
 62
   256
  9
$DIMSCALE
 40
1.0
  9
$DIMASZ
 40
1.0
  9
$DIMEXO
 40
0.0
  9
$DIMDLI
 40
0.5
  9
$DIMRND
 40
0.0
  9
$DIMDLE
 40
0.0
  9
$DIMEXE
 40
0.0
  9
$DIMTP
 40
0.0
  9
$DIMTM
 40
0.0
  9
$DIMTXT
 40
0.18
  9
$DIMCEN
 40
0.0
  9
$DIMTSZ
 40
0.0
  9
$DIMTOL
 70
     0
  9
$DIMLIM
 70
     0
  9
$DIMTIH
 70
     1
  9
$DIMTOH
 70
     1
  9
$DIMSE1
 70
     0
  9
$DIMSE2
 70
     0
  9
$DIMTAD
 70
     0
  9
$DIMZIN
 70
     0
  9
$DIMBLK
  1

  9
$DIMASO
 70
     0
  9
$DIMSHO
 70
     0
  9
$DIMPOST
  1

  9
$DIMAPOST
  1

  9
$DIMALT
 70
     0
  9
$DIMALTD
 70
     0
  9
$DIMALTF
 40
25.399999999999999
  9
$DIMLFAC
 40
1.0
  9
$DIMTOFL
 70
     0
  9
$DIMTVP
 40
0.0
  9
$DIMTIX
 70
     0
  9
$DIMSOXD
 70
     0
  9
$DIMSAH
 70
     0
  9
$DIMBLK1
  1

  9
$DIMBLK2
  1

  9
$DIMSTYLE
  2
STANDARD
  9
$DIMCLRD
 70
     0
  9
$DIMCLRE
 70
     0
  9
$DIMCLRT
 70
     0
  9
$DIMTFAC
 40
1.0
  9
$DIMGAP
 40
0.09
  9
$LUNITS
 70
     2
  9
$LUPREC
 70
     2
  9
$SKETCHINC
 40
0.0
  9
$FILLETRAD
 40
0.0
  9
$AUNITS
 70
     1
  9
$AUPREC
 70
     2
  9
$MENU
  1
ACAD
  9
$ELEVATION
 40
0.0
  9
$PELEVATION
 40
0.0
  9
$THICKNESS
 40
0.0
  9
$LIMCHECK
 70
     1
  9
$BLIPMODE
 70
     0
  9
$CHAMFERA
 40
0.0
  9
$CHAMFERB
 40
0.0
  9
$SKPOLY
 70
     0
  9
$TDCREATE
 40
2305814.4171760529
  9
$TDUPDATE
 40
2455834.4848245722
  9
$TDINDWG
 40
0.1159447338
  9
$TDUSRTIMER
 40
0.115943287
  9
$USRTIMER
 70
     1
  9
$ANGBASE
 50
0.0
  9
$ANGDIR
 70
     0
  9
$PDMODE
 70
     0
  9
$PDSIZE
 40
0.0
  9
$PLINEWID
 40
0.0
  9
$COORDS
 70
     2
  9
$SPLFRAME
 70
     0
  9
$SPLINETYPE
 70
     6
  9
$SPLINESEGS
 70
     8
  9
$ATTDIA
 70
     0
  9
$ATTREQ
 70
     1
  9
$HANDLING
 70
     1
  9
$HANDSEED
  5
EC4
  9
$SURFTAB1
 70
     6
  9
$SURFTAB2
 70
     6
  9
$SURFTYPE
 70
     6
  9
$SURFU
 70
     6
  9
$SURFV
 70
     6
  9
$UCSNAME
  2

  9
$UCSORG
 10
0.0
 20
0.0
 30
0.0
  9
$UCSXDIR
 10
1.0
 20
0.0
 30
0.0
  9
$UCSYDIR
 10
0.0
 20
1.0
 30
0.0
  9
$PUCSNAME
  2

  9
$PUCSORG
 10
0.0
 20
0.0
 30
0.0
  9
$PUCSXDIR
 10
1.0
 20
0.0
 30
0.0
  9
$PUCSYDIR
 10
0.0
 20
1.0
 30
0.0
  9
$USERI1
 70
     0
  9
$USERI2
 70
     0
  9
$USERI3
 70
     0
  9
$USERI4
 70
     0
  9
$USERI5
 70
     0
  9
$USERR1
 40
0.0
  9
$USERR2
 40
0.0
  9
$USERR3
 40
0.0
  9
$USERR4
 40
0.0
  9
$USERR5
 40
0.0
  9
$WORLDVIEW
 70
     1
  9
$SHADEDGE
 70
     3
  9
$SHADEDIF
 70
    70
  9
$TILEMODE
 70
     1
  9
$MAXACTVP
 70
    64
  9
$PLIMCHECK
 70
     0
  9
$PEXTMIN
 10
0.0
 20
0.0
 30
0.0
  9
$PEXTMAX
 10
297.0
 20
210.0
 30
0.0
  9
$PLIMMIN
 10
0.0
 20
0.0
  9
$PLIMMAX
 10
12.0
 20
9.0
  9
$UNITMODE
 70
     0
  9
$VISRETAIN
 70
     1
  9
$PLINEGEN
 70
     0
  9
$PSLTSCALE
 70
     1
  0
ENDSEC
  0
SECTION
  2
TABLES
  0
TABLE
  2
VPORT
 70
    13
  0
VPORT
  2
*ACTIVE
 70
     0
 10
0.0
 20
0.0
 11
1.0
 21
1.0
 12
153.43838717010121
 22
234.1021804776241
 13
0.0
 23
0.0
 14
1.0
 24
1.0
 15
0.0
 25
0.0
 16
0.0
 26
0.0
 36
1.0
 17
0.0
 27
0.0
 37
0.0
 40
109.1441414561164
 41
1.7992424242424241
 42
50.0
 43
0.0
 44
0.0
 50
0.0
 51
0.0
 71
     0
 72
   100
 73
     1
 74
     1
 75
     0
 76
     0
 77
     0
 78
     0
  0
ENDTAB
  0
TABLE
  2
LTYPE
 70
     5
  0
LTYPE
  2
CONTINUOUS
 70
     0
  3
Solid line
 72
    65
 73
     0
 40
0.0
  0
LTYPE
  2
HIDDEN
 70
     0
  3
------------------------
 72
    65
 73
     2
 40
12.6
 49
8.4000000000000004
 49
-4.2000000000000002
  0
LTYPE
  2
DOT
 70
     0
  3
････････････････････････
 72
    65
 73
     2
 40
8.0
 49
6.0
 49
-2.0
  0
LTYPE
  2
DASHDOT
 70
     0
  3
--･--･--･--･--･--･--･--
 72
    65
 73
     4
 40
50.5
 49
30.0
 49
-9.0
 49
2.5
 49
-9.0
  0
LTYPE
  2
DIVIDE
 70
     0
  3
--･･--･･--･･--･･--･･--
 72
    65
 73
     6
 40
58.0
 49
30.0
 49
-9.0
 49
2.5
 49
-5.0
 49
2.5
 49
-9.0
  0
ENDTAB
  0
TABLE
  2
LAYER
 70
     5
  0
LAYER
  2
0
 70
     0
 62
     7
  6
CONTINUOUS
  0
LAYER
  2
1
 70
     0
 62
     7
  6
CONTINUOUS
  0
LAYER
  2
2
 70
     0
 62
   134
  6
CONTINUOUS
  0
LAYER
  2
3
 70
     0
 62
   214
  6
CONTINUOUS
  0
LAYER
  2
DEFPOINTS
 70
     0
 62
     7
  6
CONTINUOUS
  0
ENDTAB
  0
TABLE
  2
STYLE
 70
     2
  0
STYLE
  2
STANDARD
 70
     0
 40
0.0
 41
1.0
 50
0.0
 71
     0
 42
0.2
  3
TXT
  4

  0
STYLE
  2
KANJI
 70
     0
 40
0.0
 41
1.0
 50
0.0
 71
     0
 42
0.2
  3
TXT
  4
BIGFONT
  0
ENDTAB
  0
TABLE
  2
VIEW
 70
     0
  0
ENDTAB
  0
TABLE
  2
UCS
 70
     0
  0
ENDTAB
  0
TABLE
  2
APPID
 70
     1
  0
APPID
  2
ACAD
 70
     0
  0
ENDTAB
  0
TABLE
  2
DIMSTYLE
 70
     1
  0
DIMSTYLE
  2
STANDARD
 70
     0
  3

  4

  5

  6

  7

 40
1.0
 41
0.18
 42
0.0625
 43
0.38
 44
0.18
 45
0.0
 46
0.0
 47
0.0
 48
0.0
140
0.18
141
0.09
142
0.0
143
25.399999999999999
144
1.0
145
0.0
146
1.0
147
0.09
 71
     0
 72
     0
 73
     1
 74
     1
 75
     0
 76
     0
 77
     0
 78
     0
170
     0
171
     2
172
     0
173
     0
174
     0
175
     0
176
     0
177
     0
178
     0
  0
ENDTAB
  0
ENDSEC
  0
SECTION
  2
BLOCKS
  0
BLOCK
  8
0
  2
$MODEL_SPACE
 70
     0
 10
0.0
 20
0.0
 30
0.0
  3
$MODEL_SPACE
  1

  0
ENDBLK
  5
748
  8
0
  0
BLOCK
 67
     1
  8
0
  2
$PAPER_SPACE
 70
     0
 10
0.0
 20
0.0
 30
0.0
  3
$PAPER_SPACE
  1

  0
ENDBLK
  5
744
 67
     1
  8
0
  0
BLOCK
  8
3
  6
CONTINUOUS
 62
   214
  2
*D2
 70
     1
 10
0.0
 20
0.0
 30
0.0
  3
*D2
  1

  0
LINE
  5
31
  8
3
  6
CONTINUOUS
 62
   214
 10
120.0
 20
380.0
 30
0.0
 11
180.0
 21
380.0
 31
0.0
  0
LINE
  5
32
  8
3
  6
CONTINUOUS
 62
   214
 10
120.0
 20
382.0
 30
0.0
 11
120.0
 21
222.0
 31
0.0
  0
LINE
  5
33
  8
3
  6
CONTINUOUS
 62
   214
 10
180.0
 20
382.0
 30
0.0
 11
180.0
 21
222.0
 31
0.0
  0
LINE
  5
34
  8
3
  6
CONTINUOUS
 62
   214
 10
120.0
 20
380.0
 30
0.0
 11
123.863703
 21
381.03527600000001
 31
0.0
  0
LINE
  5
35
  8
3
  6
CONTINUOUS
 62
   214
 10
120.0
 20
380.0
 30
0.0
 11
123.863703
 21
378.96472400000022
 31
0.0
  0
LINE
  5
36
  8
3
  6
CONTINUOUS
 62
   214
 10
123.863703
 20
381.03527600000001
 30
0.0
 11
123.863703
 21
378.96472400000022
 31
0.0
  0
LINE
  5
37
  8
3
  6
CONTINUOUS
 62
   214
 10
120.965926
 20
380.0
 30
0.0
 11
122.897777
 21
380.51763799999998
 31
0.0
  0
LINE
  5
38
  8
3
  6
CONTINUOUS
 62
   214
 10
120.965926
 20
380.0
 30
0.0
 11
122.897777
 21
379.48236200000002
 31
0.0
  0
LINE
  5
39
  8
3
  6
CONTINUOUS
 62
   214
 10
122.897777
 20
380.51763799999998
 30
0.0
 11
122.897777
 21
379.48236200000002
 31
0.0
  0
LINE
  5
3A
  8
3
  6
CONTINUOUS
 62
   214
 10
180.0
 20
380.0
 30
0.0
 11
176.13629700000001
 21
378.96472400000022
 31
0.0
  0
LINE
  5
3B
  8
3
  6
CONTINUOUS
 62
   214
 10
180.0
 20
380.0
 30
0.0
 11
176.13629700000001
 21
381.03527600000001
 31
0.0
  0
LINE
  5
3C
  8
3
  6
CONTINUOUS
 62
   214
 10
176.13629700000001
 20
378.96472400000022
 30
0.0
 11
176.13629700000001
 21
381.03527600000001
 31
0.0
  0
LINE
  5
3D
  8
3
  6
CONTINUOUS
 62
   214
 10
179.034074
 20
380.0
 30
0.0
 11
177.10222300000001
 21
379.48236200000002
 31
0.0
  0
LINE
  5
3E
  8
3
  6
CONTINUOUS
 62
   214
 10
179.034074
 20
380.0
 30
0.0
 11
177.10222300000001
 21
380.51763799999998
 31
0.0
  0
LINE
  5
3F
  8
3
  6
CONTINUOUS
 62
   214
 10
177.10222300000001
 20
379.48236200000002
 30
0.0
 11
177.10222300000001
 21
380.51763799999998
 31
0.0
  0
TEXT
  5
40
  8
3
  6
CONTINUOUS
 62
   214
 10
148.0
 20
380.0
 30
0.0
 40
4.0
  1
60
 41
0.5
 51
30.0
  7
KANJI
  0
ENDBLK
  5
41
  8
0
  0
BLOCK
  8
3
  6
CONTINUOUS
 62
   214
  2
*D3
 70
     1
 10
0.0
 20
0.0
 30
0.0
  3
*D3
  1

  0
LINE
  5
44
  8
3
  6
CONTINUOUS
 62
   214
 10
110.0
 20
385.0
 30
0.0
 11
190.0
 21
385.0
 31
0.0
  0
LINE
  5
45
  8
3
  6
CONTINUOUS
 62
   214
 10
110.0
 20
387.0
 30
0.0
 11
110.0
 21
237.0
 31
0.0
  0
LINE
  5
46
  8
3
  6
CONTINUOUS
 62
   214
 10
190.0
 20
387.0
 30
0.0
 11
190.0
 21
237.0
 31
0.0
  0
LINE
  5
47
  8
3
  6
CONTINUOUS
 62
   214
 10
110.0
 20
385.0
 30
0.0
 11
113.863703
 21
386.03527599999978
 31
0.0
  0
LINE
  5
48
  8
3
  6
CONTINUOUS
 62
   214
 10
110.0
 20
385.0
 30
0.0
 11
113.863703
 21
383.9647240000001
 31
0.0
  0
LINE
  5
49
  8
3
  6
CONTINUOUS
 62
   214
 10
113.863703
 20
386.03527599999978
 30
0.0
 11
113.863703
 21
383.9647240000001
 31
0.0
  0
LINE
  5
4A
  8
3
  6
CONTINUOUS
 62
   214
 10
110.965926
 20
385.0
 30
0.0
 11
112.897777
 21
385.51763799999998
 31
0.0
  0
LINE
  5
4B
  8
3
  6
CONTINUOUS
 62
   214
 10
110.965926
 20
385.0
 30
0.0
 11
112.897777
 21
384.48236200000002
 31
0.0
  0
LINE
  5
4C
  8
3
  6
CONTINUOUS
 62
   214
 10
112.897777
 20
385.51763799999998
 30
0.0
 11
112.897777
 21
384.48236200000002
 31
0.0
  0
LINE
  5
4D
  8
3
  6
CONTINUOUS
 62
   214
 10
190.0
 20
385.0
 30
0.0
 11
186.13629700000001
 21
383.9647240000001
 31
0.0
  0
LINE
  5
4E
  8
3
  6
CONTINUOUS
 62
   214
 10
190.0
 20
385.0
 30
0.0
 11
186.13629700000001
 21
386.03527599999978
 31
0.0
  0
LINE
  5
4F
  8
3
  6
CONTINUOUS
 62
   214
 10
186.13629700000001
 20
383.9647240000001
 30
0.0
 11
186.13629700000001
 21
386.03527599999978
 31
0.0
  0
LINE
  5
50
  8
3
  6
CONTINUOUS
 62
   214
 10
189.034074
 20
385.0
 30
0.0
 11
187.10222300000001
 21
384.48236200000002
 31
0.0
  0
LINE
  5
51
  8
3
  6
CONTINUOUS
 62
   214
 10
189.034074
 20
385.0
 30
0.0
 11
187.10222300000001
 21
385.51763799999998
 31
0.0
  0
LINE
  5
52
  8
3
  6
CONTINUOUS
 62
   214
 10
187.10222300000001
 20
384.48236200000002
 30
0.0
 11
187.10222300000001
 21
385.51763799999998
 31
0.0
  0
TEXT
  5
53
  8
3
  6
CONTINUOUS
 62
   214
 10
148.0
 20
385.0
 30
0.0
 40
4.0
  1
80
 41
0.5
 51
30.0
  7
KANJI
  0
ENDBLK
  5
54
  8
0
  0
BLOCK
  8
3
  6
CONTINUOUS
 62
   214
  2
*D4
 70
     1
 10
0.0
 20
0.0
 30
0.0
  3
*D4
  1

  0
LINE
  5
57
  8
3
  6
CONTINUOUS
 62
   214
 10
90.400000000000006
 20
400.0
 30
0.0
 11
209.59999999999999
 21
400.0
 31
0.0
  0
LINE
  5
58
  8
3
  6
CONTINUOUS
 62
   214
 10
90.400000000000006
 20
402.0
 30
0.0
 11
90.400000000000006
 21
366.0
 31
0.0
  0
LINE
  5
59
  8
3
  6
CONTINUOUS
 62
   214
 10
209.59999999999999
 20
402.0
 30
0.0
 11
209.59999999999999
 21
366.0
 31
0.0
  0
LINE
  5
5A
  8
3
  6
CONTINUOUS
 62
   214
 10
90.400000000000006
 20
400.0
 30
0.0
 11
94.263703000000007
 21
401.03527599999978
 31
0.0
  0
LINE
  5
5B
  8
3
  6
CONTINUOUS
 62
   214
 10
90.400000000000006
 20
400.0
 30
0.0
 11
94.263703000000007
 21
398.96472399999999
 31
0.0
  0
LINE
  5
5C
  8
3
  6
CONTINUOUS
 62
   214
 10
94.263703000000007
 20
401.03527599999978
 30
0.0
 11
94.263703000000007
 21
398.96472399999999
 31
0.0
  0
LINE
  5
5D
  8
3
  6
CONTINUOUS
 62
   214
 10
91.365926000000002
 20
400.0
 30
0.0
 11
93.297776999999996
 21
400.51763799999992
 31
0.0
  0
LINE
  5
5E
  8
3
  6
CONTINUOUS
 62
   214
 10
91.365926000000002
 20
400.0
 30
0.0
 11
93.297776999999996
 21
399.48236200000002
 31
0.0
  0
LINE
  5
5F
  8
3
  6
CONTINUOUS
 62
   214
 10
93.297776999999996
 20
400.51763799999992
 30
0.0
 11
93.297776999999996
 21
399.48236200000002
 31
0.0
  0
LINE
  5
60
  8
3
  6
CONTINUOUS
 62
   214
 10
209.59999999999999
 20
400.0
 30
0.0
 11
205.73629700000001
 21
398.96472399999999
 31
0.0
  0
LINE
  5
61
  8
3
  6
CONTINUOUS
 62
   214
 10
209.59999999999999
 20
400.0
 30
0.0
 11
205.73629700000001
 21
401.03527599999978
 31
0.0
  0
LINE
  5
62
  8
3
  6
CONTINUOUS
 62
   214
 10
205.73629700000001
 20
398.96472399999999
 30
0.0
 11
205.73629700000001
 21
401.03527599999978
 31
0.0
  0
LINE
  5
63
  8
3
  6
CONTINUOUS
 62
   214
 10
208.634074
 20
400.0
 30
0.0
 11
206.702223
 21
399.48236200000002
 31
0.0
  0
LINE
  5
64
  8
3
  6
CONTINUOUS
 62
   214
 10
208.634074
 20
400.0
 30
0.0
 11
206.702223
 21
400.51763799999992
 31
0.0
  0
LINE
  5
65
  8
3
  6
CONTINUOUS
 62
   214
 10
206.702223
 20
399.48236200000002
 30
0.0
 11
206.702223
 21
400.51763799999992
 31
0.0
  0
TEXT
  5
66
  8
3
  6
CONTINUOUS
 62
   214
 10
145.0
 20
400.0
 30
0.0
 40
4.0
  1
119.2
 41
0.543478
 51
30.0
  7
KANJI
  0
ENDBLK
  5
67
  8
0
  0
BLOCK
  8
3
  6
CONTINUOUS
 62
   214
  2
*D5
 70
     1
 10
0.0
 20
0.0
 30
0.0
  3
*D5
  1

  0
LINE
  5
6A
  8
3
  6
CONTINUOUS
 62
   214
 10
95.400000000000006
 20
395.0
 30
0.0
 11
204.59999999999999
 21
395.0
 31
0.0
  0
LINE
  5
6B
  8
3
  6
CONTINUOUS
 62
   214
 10
95.400000000000006
 20
397.0
 30
0.0
 11
95.400000000000006
 21
232.0
 31
0.0
  0
LINE
  5
6C
  8
3
  6
CONTINUOUS
 62
   214
 10
204.59999999999999
 20
397.0
 30
0.0
 11
204.59999999999999
 21
232.0
 31
0.0
  0
LINE
  5
6D
  8
3
  6
CONTINUOUS
 62
   214
 10
95.400000000000006
 20
395.0
 30
0.0
 11
99.263703000000021
 21
396.03527600000001
 31
0.0
  0
LINE
  5
6E
  8
3
  6
CONTINUOUS
 62
   214
 10
95.400000000000006
 20
395.0
 30
0.0
 11
99.263703000000021
 21
393.9647240000001
 31
0.0
  0
LINE
  5
6F
  8
3
  6
CONTINUOUS
 62
   214
 10
99.263703000000021
 20
396.03527600000001
 30
0.0
 11
99.263703000000021
 21
393.9647240000001
 31
0.0
  0
LINE
  5
70
  8
3
  6
CONTINUOUS
 62
   214
 10
96.365926000000002
 20
395.0
 30
0.0
 11
98.297777000000011
 21
395.51763799999998
 31
0.0
  0
LINE
  5
71
  8
3
  6
CONTINUOUS
 62
   214
 10
96.365926000000002
 20
395.0
 30
0.0
 11
98.297777000000011
 21
394.48236200000002
 31
0.0
  0
LINE
  5
72
  8
3
  6
CONTINUOUS
 62
   214
 10
98.297777000000011
 20
395.51763799999998
 30
0.0
 11
98.297777000000011
 21
394.48236200000002
 31
0.0
  0
LINE
  5
73
  8
3
  6
CONTINUOUS
 62
   214
 10
204.59999999999999
 20
395.0
 30
0.0
 11
200.73629700000001
 21
393.9647240000001
 31
0.0
  0
LINE
  5
74
  8
3
  6
CONTINUOUS
 62
   214
 10
204.59999999999999
 20
395.0
 30
0.0
 11
200.73629700000001
 21
396.03527600000001
 31
0.0
  0
LINE
  5
75
  8
3
  6
CONTINUOUS
 62
   214
 10
200.73629700000001
 20
393.9647240000001
 30
0.0
 11
200.73629700000001
 21
396.03527600000001
 31
0.0
  0
LINE
  5
76
  8
3
  6
CONTINUOUS
 62
   214
 10
203.634074
 20
395.0
 30
0.0
 11
201.702223
 21
394.48236200000002
 31
0.0
  0
LINE
  5
77
  8
3
  6
CONTINUOUS
 62
   214
 10
203.634074
 20
395.0
 30
0.0
 11
201.702223
 21
395.51763799999998
 31
0.0
  0
LINE
  5
78
  8
3
  6
CONTINUOUS
 62
   214
 10
201.702223
 20
394.48236200000002
 30
0.0
 11
201.702223
 21
395.51763799999998
 31
0.0
  0
TEXT
  5
79
  8
3
  6
CONTINUOUS
 62
   214
 10
145.0
 20
395.0
 30
0.0
 40
4.0
  1
109.2
 41
0.543478
 51
30.0
  7
KANJI
  0
ENDBLK
  5
7A
  8
0
  0
BLOCK
  8
3
  6
CONTINUOUS
 62
   214
  2
*D6
 70
     1
 10
0.0
 20
0.0
 30
0.0
  3
*D6
  1

  0
LINE
  5
7D
  8
3
  6
CONTINUOUS
 62
   214
 10
102.0
 20
390.0
 30
0.0
 11
198.0
 21
390.0
 31
0.0
  0
LINE
  5
7E
  8
3
  6
CONTINUOUS
 62
   214
 10
102.0
 20
392.0
 30
0.0
 11
102.0
 21
366.0
 31
0.0
  0
LINE
  5
7F
  8
3
  6
CONTINUOUS
 62
   214
 10
198.0
 20
392.0
 30
0.0
 11
198.0
 21
366.0
 31
0.0
  0
LINE
  5
80
  8
3
  6
CONTINUOUS
 62
   214
 10
102.0
 20
390.0
 30
0.0
 11
105.863703
 21
391.03527599999978
 31
0.0
  0
LINE
  5
81
  8
3
  6
CONTINUOUS
 62
   214
 10
102.0
 20
390.0
 30
0.0
 11
105.863703
 21
388.96472399999999
 31
0.0
  0
LINE
  5
82
  8
3
  6
CONTINUOUS
 62
   214
 10
105.863703
 20
391.03527599999978
 30
0.0
 11
105.863703
 21
388.96472399999999
 31
0.0
  0
LINE
  5
83
  8
3
  6
CONTINUOUS
 62
   214
 10
102.965926
 20
390.0
 30
0.0
 11
104.897777
 21
390.51763799999998
 31
0.0
  0
LINE
  5
84
  8
3
  6
CONTINUOUS
 62
   214
 10
102.965926
 20
390.0
 30
0.0
 11
104.897777
 21
389.48236200000002
 31
0.0
  0
LINE
  5
85
  8
3
  6
CONTINUOUS
 62
   214
 10
104.897777
 20
390.51763799999998
 30
0.0
 11
104.897777
 21
389.48236200000002
 31
0.0
  0
LINE
  5
86
  8
3
  6
CONTINUOUS
 62
   214
 10
198.0
 20
390.0
 30
0.0
 11
194.13629700000001
 21
388.96472399999999
 31
0.0
  0
LINE
  5
87
  8
3
  6
CONTINUOUS
 62
   214
 10
198.0
 20
390.0
 30
0.0
 11
194.13629700000001
 21
391.03527599999978
 31
0.0
  0
LINE
  5
88
  8
3
  6
CONTINUOUS
 62
   214
 10
194.13629700000001
 20
388.96472399999999
 30
0.0
 11
194.13629700000001
 21
391.03527599999978
 31
0.0
  0
LINE
  5
89
  8
3
  6
CONTINUOUS
 62
   214
 10
197.034074
 20
390.0
 30
0.0
 11
195.10222300000001
 21
389.48236200000002
 31
0.0
  0
LINE
  5
8A
  8
3
  6
CONTINUOUS
 62
   214
 10
197.034074
 20
390.0
 30
0.0
 11
195.10222300000001
 21
390.51763799999998
 31
0.0
  0
LINE
  5
8B
  8
3
  6
CONTINUOUS
 62
   214
 10
195.10222300000001
 20
389.48236200000002
 30
0.0
 11
195.10222300000001
 21
390.51763799999998
 31
0.0
  0
TEXT
  5
8C
  8
3
  6
CONTINUOUS
 62
   214
 10
148.0
 20
390.0
 30
0.0
 40
4.0
  1
96
 41
0.5
 51
30.0
  7
KANJI
  0
ENDBLK
  5
8D
  8
0
  0
BLOCK
  8
3
  6
CONTINUOUS
 62
   214
  2
*D7
 70
     1
 10
0.0
 20
0.0
 30
0.0
  3
*D7
  1

  0
LINE
  5
90
  8
3
  6
CONTINUOUS
 62
   214
 10
80.0
 20
220.0
 30
0.0
 11
80.0
 21
235.0
 31
0.0
  0
LINE
  5
91
  8
3
  6
CONTINUOUS
 62
   214
 10
78.0
 20
220.0
 30
0.0
 11
88.400000000000006
 21
220.0
 31
0.0
  0
LINE
  5
92
  8
3
  6
CONTINUOUS
 62
   214
 10
78.0
 20
235.0
 30
0.0
 11
98.400000000000006
 21
235.0
 31
0.0
  0
LINE
  5
93
  8
3
  6
CONTINUOUS
 62
   214
 10
80.0
 20
220.0
 30
0.0
 11
78.964724000000004
 21
223.86370299999999
 31
0.0
  0
LINE
  5
94
  8
3
  6
CONTINUOUS
 62
   214
 10
80.0
 20
220.0
 30
0.0
 11
81.035275999999968
 21
223.86370299999999
 31
0.0
  0
LINE
  5
95
  8
3
  6
CONTINUOUS
 62
   214
 10
78.964724000000004
 20
223.86370299999999
 30
0.0
 11
81.035275999999968
 21
223.86370299999999
 31
0.0
  0
LINE
  5
96
  8
3
  6
CONTINUOUS
 62
   214
 10
80.0
 20
220.965926
 30
0.0
 11
79.482361999999981
 21
222.89777699999999
 31
0.0
  0
LINE
  5
97
  8
3
  6
CONTINUOUS
 62
   214
 10
80.0
 20
220.965926
 30
0.0
 11
80.517638000000005
 21
222.89777699999999
 31
0.0
  0
LINE
  5
98
  8
3
  6
CONTINUOUS
 62
   214
 10
79.482361999999981
 20
222.89777699999999
 30
0.0
 11
80.517638000000005
 21
222.89777699999999
 31
0.0
  0
LINE
  5
99
  8
3
  6
CONTINUOUS
 62
   214
 10
80.0
 20
235.0
 30
0.0
 11
81.035275999999968
 21
231.13629700000001
 31
0.0
  0
LINE
  5
9A
  8
3
  6
CONTINUOUS
 62
   214
 10
80.0
 20
235.0
 30
0.0
 11
78.964724000000004
 21
231.13629700000001
 31
0.0
  0
LINE
  5
9B
  8
3
  6
CONTINUOUS
 62
   214
 10
81.035275999999968
 20
231.13629700000001
 30
0.0
 11
78.964724000000004
 21
231.13629700000001
 31
0.0
  0
LINE
  5
9C
  8
3
  6
CONTINUOUS
 62
   214
 10
80.0
 20
234.034074
 30
0.0
 11
80.517638000000005
 21
232.10222300000001
 31
0.0
  0
LINE
  5
9D
  8
3
  6
CONTINUOUS
 62
   214
 10
80.0
 20
234.034074
 30
0.0
 11
79.482361999999981
 21
232.10222300000001
 31
0.0
  0
LINE
  5
9E
  8
3
  6
CONTINUOUS
 62
   214
 10
80.517638000000005
 20
232.10222300000001
 30
0.0
 11
79.482361999999981
 21
232.10222300000001
 31
0.0
  0
TEXT
  5
9F
  8
3
  6
CONTINUOUS
 62
   214
 10
80.0
 20
225.5
 30
0.0
 40
4.0
  1
15
 50
90.0
 41
0.5
 51
30.0
  7
KANJI
  0
ENDBLK
  5
A0
  8
0
  0
BLOCK
  8
3
  6
CONTINUOUS
 62
   214
  2
*D8
 70
     1
 10
0.0
 20
0.0
 30
0.0
  3
*D8
  1

  0
LINE
  5
A3
  8
3
  6
CONTINUOUS
 62
   214
 10
80.0
 20
349.0
 30
0.0
 11
80.0
 21
235.0
 31
0.0
  0
LINE
  5
A4
  8
3
  6
CONTINUOUS
 62
   214
 10
78.0
 20
349.0
 30
0.0
 11
98.400000000000006
 21
349.0
 31
0.0
  0
LINE
  5
A5
  8
3
  6
CONTINUOUS
 62
   214
 10
80.0
 20
349.0
 30
0.0
 11
81.035275999999968
 21
345.13629700000001
 31
0.0
  0
LINE
  5
A6
  8
3
  6
CONTINUOUS
 62
   214
 10
80.0
 20
349.0
 30
0.0
 11
78.964724000000004
 21
345.13629700000001
 31
0.0
  0
LINE
  5
A7
  8
3
  6
CONTINUOUS
 62
   214
 10
81.035275999999968
 20
345.13629700000001
 30
0.0
 11
78.964724000000004
 21
345.13629700000001
 31
0.0
  0
LINE
  5
A8
  8
3
  6
CONTINUOUS
 62
   214
 10
80.0
 20
348.03407399999998
 30
0.0
 11
80.517638000000005
 21
346.10222299999998
 31
0.0
  0
LINE
  5
A9
  8
3
  6
CONTINUOUS
 62
   214
 10
80.0
 20
348.03407399999998
 30
0.0
 11
79.482361999999981
 21
346.10222299999998
 31
0.0
  0
LINE
  5
AA
  8
3
  6
CONTINUOUS
 62
   214
 10
80.517638000000005
 20
346.10222299999998
 30
0.0
 11
79.482361999999981
 21
346.10222299999998
 31
0.0
  0
LINE
  5
AB
  8
3
  6
CONTINUOUS
 62
   214
 10
80.0
 20
235.0
 30
0.0
 11
78.964724000000004
 21
238.86370299999999
 31
0.0
  0
LINE
  5
AC
  8
3
  6
CONTINUOUS
 62
   214
 10
80.0
 20
235.0
 30
0.0
 11
81.035275999999968
 21
238.86370299999999
 31
0.0
  0
LINE
  5
AD
  8
3
  6
CONTINUOUS
 62
   214
 10
78.964724000000004
 20
238.86370299999999
 30
0.0
 11
81.035275999999968
 21
238.86370299999999
 31
0.0
  0
LINE
  5
AE
  8
3
  6
CONTINUOUS
 62
   214
 10
80.0
 20
235.965926
 30
0.0
 11
79.482361999999981
 21
237.89777699999999
 31
0.0
  0
LINE
  5
AF
  8
3
  6
CONTINUOUS
 62
   214
 10
80.0
 20
235.965926
 30
0.0
 11
80.517638000000005
 21
237.89777699999999
 31
0.0
  0
LINE
  5
B0
  8
3
  6
CONTINUOUS
 62
   214
 10
79.482361999999981
 20
237.89777699999999
 30
0.0
 11
80.517638000000005
 21
237.89777699999999
 31
0.0
  0
TEXT
  5
B1
  8
3
  6
CONTINUOUS
 62
   214
 10
80.0
 20
289.0
 30
0.0
 40
4.0
  1
114
 50
90.0
 41
0.5
 51
30.0
  7
KANJI
  0
ENDBLK
  5
B2
  8
0
  0
BLOCK
  8
3
  6
CONTINUOUS
 62
   214
  2
*D9
 70
     1
 10
0.0
 20
0.0
 30
0.0
  3
*D9
  1

  0
LINE
  5
B5
  8
3
  6
CONTINUOUS
 62
   214
 10
75.0
 20
220.0
 30
0.0
 11
75.0
 21
364.0
 31
0.0
  0
LINE
  5
B6
  8
3
  6
CONTINUOUS
 62
   214
 10
73.0
 20
220.0
 30
0.0
 11
88.400000000000006
 21
220.0
 31
0.0
  0
LINE
  5
B7
  8
3
  6
CONTINUOUS
 62
   214
 10
73.0
 20
364.0
 30
0.0
 11
88.400000000000006
 21
364.0
 31
0.0
  0
LINE
  5
B8
  8
3
  6
CONTINUOUS
 62
   214
 10
75.0
 20
220.0
 30
0.0
 11
73.964724000000004
 21
223.86370299999999
 31
0.0
  0
LINE
  5
B9
  8
3
  6
CONTINUOUS
 62
   214
 10
75.0
 20
220.0
 30
0.0
 11
76.035275999999982
 21
223.86370299999999
 31
0.0
  0
LINE
  5
BA
  8
3
  6
CONTINUOUS
 62
   214
 10
73.964724000000004
 20
223.86370299999999
 30
0.0
 11
76.035275999999982
 21
223.86370299999999
 31
0.0
  0
LINE
  5
BB
  8
3
  6
CONTINUOUS
 62
   214
 10
75.0
 20
220.965926
 30
0.0
 11
74.482361999999981
 21
222.89777699999999
 31
0.0
  0
LINE
  5
BC
  8
3
  6
CONTINUOUS
 62
   214
 10
75.0
 20
220.965926
 30
0.0
 11
75.517638000000005
 21
222.89777699999999
 31
0.0
  0
LINE
  5
BD
  8
3
  6
CONTINUOUS
 62
   214
 10
74.482361999999981
 20
222.89777699999999
 30
0.0
 11
75.517638000000005
 21
222.89777699999999
 31
0.0
  0
LINE
  5
BE
  8
3
  6
CONTINUOUS
 62
   214
 10
75.0
 20
364.0
 30
0.0
 11
76.035275999999982
 21
360.13629700000001
 31
0.0
  0
LINE
  5
BF
  8
3
  6
CONTINUOUS
 62
   214
 10
75.0
 20
364.0
 30
0.0
 11
73.964724000000004
 21
360.13629700000001
 31
0.0
  0
LINE
  5
C0
  8
3
  6
CONTINUOUS
 62
   214
 10
76.035275999999982
 20
360.13629700000001
 30
0.0
 11
73.964724000000004
 21
360.13629700000001
 31
0.0
  0
LINE
  5
C1
  8
3
  6
CONTINUOUS
 62
   214
 10
75.0
 20
363.03407399999998
 30
0.0
 11
75.517638000000005
 21
361.10222299999998
 31
0.0
  0
LINE
  5
C2
  8
3
  6
CONTINUOUS
 62
   214
 10
75.0
 20
363.03407399999998
 30
0.0
 11
74.482361999999981
 21
361.10222299999998
 31
0.0
  0
LINE
  5
C3
  8
3
  6
CONTINUOUS
 62
   214
 10
75.517638000000005
 20
361.10222299999998
 30
0.0
 11
74.482361999999981
 21
361.10222299999998
 31
0.0
  0
TEXT
  5
C4
  8
3
  6
CONTINUOUS
 62
   214
 10
75.0
 20
289.0
 30
0.0
 40
4.0
  1
144
 50
90.0
 41
0.5
 51
30.0
  7
KANJI
  0
ENDBLK
  5
C5
  8
0
  0
BLOCK
  8
3
  6
CONTINUOUS
 62
   214
  2
*D10
 70
     1
 10
0.0
 20
0.0
 30
0.0
  3
*D10
  1

  0
LINE
  5
C8
  8
3
  6
CONTINUOUS
 62
   214
 10
220.0
 20
245.5
 30
0.0
 11
220.0
 21
276.5
 31
0.0
  0
LINE
  5
C9
  8
3
  6
CONTINUOUS
 62
   214
 10
222.0
 20
245.5
 30
0.0
 11
192.0
 21
245.5
 31
0.0
  0
LINE
  5
CA
  8
3
  6
CONTINUOUS
 62
   214
 10
222.0
 20
276.5
 30
0.0
 11
182.0
 21
276.5
 31
0.0
  0
LINE
  5
CB
  8
3
  6
CONTINUOUS
 62
   214
 10
220.0
 20
245.5
 30
0.0
 11
218.96472399999999
 21
249.36370299999999
 31
0.0
  0
LINE
  5
CC
  8
3
  6
CONTINUOUS
 62
   214
 10
220.0
 20
245.5
 30
0.0
 11
221.03527600000001
 21
249.36370299999999
 31
0.0
  0
LINE
  5
CD
  8
3
  6
CONTINUOUS
 62
   214
 10
218.96472399999999
 20
249.36370299999999
 30
0.0
 11
221.03527600000001
 21
249.36370299999999
 31
0.0
  0
LINE
  5
CE
  8
3
  6
CONTINUOUS
 62
   214
 10
220.0
 20
246.465926
 30
0.0
 11
219.48236199999999
 21
248.39777699999999
 31
0.0
  0
LINE
  5
CF
  8
3
  6
CONTINUOUS
 62
   214
 10
220.0
 20
246.465926
 30
0.0
 11
220.51763800000001
 21
248.39777699999999
 31
0.0
  0
LINE
  5
D0
  8
3
  6
CONTINUOUS
 62
   214
 10
219.48236199999999
 20
248.39777699999999
 30
0.0
 11
220.51763800000001
 21
248.39777699999999
 31
0.0
  0
LINE
  5
D1
  8
3
  6
CONTINUOUS
 62
   214
 10
220.0
 20
276.5
 30
0.0
 11
221.03527600000001
 21
272.63629700000001
 31
0.0
  0
LINE
  5
D2
  8
3
  6
CONTINUOUS
 62
   214
 10
220.0
 20
276.5
 30
0.0
 11
218.96472399999999
 21
272.63629700000001
 31
0.0
  0
LINE
  5
D3
  8
3
  6
CONTINUOUS
 62
   214
 10
221.03527600000001
 20
272.63629700000001
 30
0.0
 11
218.96472399999999
 21
272.63629700000001
 31
0.0
  0
LINE
  5
D4
  8
3
  6
CONTINUOUS
 62
   214
 10
220.0
 20
275.53407399999998
 30
0.0
 11
220.51763800000001
 21
273.60222299999998
 31
0.0
  0
LINE
  5
D5
  8
3
  6
CONTINUOUS
 62
   214
 10
220.0
 20
275.53407399999998
 30
0.0
 11
219.48236199999999
 21
273.60222299999998
 31
0.0
  0
LINE
  5
D6
  8
3
  6
CONTINUOUS
 62
   214
 10
220.51763800000001
 20
273.60222299999998
 30
0.0
 11
219.48236199999999
 21
273.60222299999998
 31
0.0
  0
TEXT
  5
D7
  8
3
  6
CONTINUOUS
 62
   214
 10
220.0
 20
259.0
 30
0.0
 40
4.0
  1
31
 50
90.0
 41
0.5
 51
30.0
  7
KANJI
  0
ENDBLK
  5
D8
  8
0
  0
BLOCK
  8
3
  6
CONTINUOUS
 62
   214
  2
*D11
 70
     1
 10
0.0
 20
0.0
 30
0.0
  3
*D11
  1

  0
LINE
  5
DB
  8
3
  6
CONTINUOUS
 62
   214
 10
220.0
 20
276.5
 30
0.0
 11
220.0
 21
307.5
 31
0.0
  0
LINE
  5
DC
  8
3
  6
CONTINUOUS
 62
   214
 10
222.0
 20
307.5
 30
0.0
 11
182.0
 21
307.5
 31
0.0
  0
LINE
  5
DD
  8
3
  6
CONTINUOUS
 62
   214
 10
220.0
 20
276.5
 30
0.0
 11
218.96472399999999
 21
280.36370299999999
 31
0.0
  0
LINE
  5
DE
  8
3
  6
CONTINUOUS
 62
   214
 10
220.0
 20
276.5
 30
0.0
 11
221.03527600000001
 21
280.36370299999999
 31
0.0
  0
LINE
  5
DF
  8
3
  6
CONTINUOUS
 62
   214
 10
218.96472399999999
 20
280.36370299999999
 30
0.0
 11
221.03527600000001
 21
280.36370299999999
 31
0.0
  0
LINE
  5
E0
  8
3
  6
CONTINUOUS
 62
   214
 10
220.0
 20
277.46592599999991
 30
0.0
 11
219.48236199999999
 21
279.39777700000002
 31
0.0
  0
LINE
  5
E1
  8
3
  6
CONTINUOUS
 62
   214
 10
220.0
 20
277.46592599999991
 30
0.0
 11
220.51763800000001
 21
279.39777700000002
 31
0.0
  0
LINE
  5
E2
  8
3
  6
CONTINUOUS
 62
   214
 10
219.48236199999999
 20
279.39777700000002
 30
0.0
 11
220.51763800000001
 21
279.39777700000002
 31
0.0
  0
LINE
  5
E3
  8
3
  6
CONTINUOUS
 62
   214
 10
220.0
 20
307.5
 30
0.0
 11
221.03527600000001
 21
303.63629700000001
 31
0.0
  0
LINE
  5
E4
  8
3
  6
CONTINUOUS
 62
   214
 10
220.0
 20
307.5
 30
0.0
 11
218.96472399999999
 21
303.63629700000001
 31
0.0
  0
LINE
  5
E5
  8
3
  6
CONTINUOUS
 62
   214
 10
221.03527600000001
 20
303.63629700000001
 30
0.0
 11
218.96472399999999
 21
303.63629700000001
 31
0.0
  0
LINE
  5
E6
  8
3
  6
CONTINUOUS
 62
   214
 10
220.0
 20
306.53407399999998
 30
0.0
 11
220.51763800000001
 21
304.60222299999998
 31
0.0
  0
LINE
  5
E7
  8
3
  6
CONTINUOUS
 62
   214
 10
220.0
 20
306.53407399999998
 30
0.0
 11
219.48236199999999
 21
304.60222299999998
 31
0.0
  0
LINE
  5
E8
  8
3
  6
CONTINUOUS
 62
   214
 10
220.51763800000001
 20
304.60222299999998
 30
0.0
 11
219.48236199999999
 21
304.60222299999998
 31
0.0
  0
TEXT
  5
E9
  8
3
  6
CONTINUOUS
 62
   214
 10
220.0
 20
290.0
 30
0.0
 40
4.0
  1
31
 50
90.0
 41
0.5
 51
30.0
  7
KANJI
  0
ENDBLK
  5
EA
  8
0
  0
BLOCK
  8
3
  6
CONTINUOUS
 62
   214
  2
*D12
 70
     1
 10
0.0
 20
0.0
 30
0.0
  3
*D12
  1

  0
LINE
  5
ED
  8
3
  6
CONTINUOUS
 62
   214
 10
220.0
 20
307.5
 30
0.0
 11
220.0
 21
338.5
 31
0.0
  0
LINE
  5
EE
  8
3
  6
CONTINUOUS
 62
   214
 10
222.0
 20
338.5
 30
0.0
 11
182.0
 21
338.5
 31
0.0
  0
LINE
  5
EF
  8
3
  6
CONTINUOUS
 62
   214
 10
220.0
 20
307.5
 30
0.0
 11
218.96472399999999
 21
311.36370299999999
 31
0.0
  0
LINE
  5
F0
  8
3
  6
CONTINUOUS
 62
   214
 10
220.0
 20
307.5
 30
0.0
 11
221.03527600000001
 21
311.36370299999999
 31
0.0
  0
LINE
  5
F1
  8
3
  6
CONTINUOUS
 62
   214
 10
218.96472399999999
 20
311.36370299999999
 30
0.0
 11
221.03527600000001
 21
311.36370299999999
 31
0.0
  0
LINE
  5
F2
  8
3
  6
CONTINUOUS
 62
   214
 10
220.0
 20
308.46592600000002
 30
0.0
 11
219.48236199999999
 21
310.39777700000002
 31
0.0
  0
LINE
  5
F3
  8
3
  6
CONTINUOUS
 62
   214
 10
220.0
 20
308.46592600000002
 30
0.0
 11
220.51763800000001
 21
310.39777700000002
 31
0.0
  0
LINE
  5
F4
  8
3
  6
CONTINUOUS
 62
   214
 10
219.48236199999999
 20
310.39777700000002
 30
0.0
 11
220.51763800000001
 21
310.39777700000002
 31
0.0
  0
LINE
  5
F5
  8
3
  6
CONTINUOUS
 62
   214
 10
220.0
 20
338.5
 30
0.0
 11
221.03527600000001
 21
334.63629700000001
 31
0.0
  0
LINE
  5
F6
  8
3
  6
CONTINUOUS
 62
   214
 10
220.0
 20
338.5
 30
0.0
 11
218.96472399999999
 21
334.63629700000001
 31
0.0
  0
LINE
  5
F7
  8
3
  6
CONTINUOUS
 62
   214
 10
221.03527600000001
 20
334.63629700000001
 30
0.0
 11
218.96472399999999
 21
334.63629700000001
 31
0.0
  0
LINE
  5
F8
  8
3
  6
CONTINUOUS
 62
   214
 10
220.0
 20
337.53407399999998
 30
0.0
 11
220.51763800000001
 21
335.60222299999998
 31
0.0
  0
LINE
  5
F9
  8
3
  6
CONTINUOUS
 62
   214
 10
220.0
 20
337.53407399999998
 30
0.0
 11
219.48236199999999
 21
335.60222299999998
 31
0.0
  0
LINE
  5
FA
  8
3
  6
CONTINUOUS
 62
   214
 10
220.51763800000001
 20
335.60222299999998
 30
0.0
 11
219.48236199999999
 21
335.60222299999998
 31
0.0
  0
TEXT
  5
FB
  8
3
  6
CONTINUOUS
 62
   214
 10
220.0
 20
321.0
 30
0.0
 40
4.0
  1
31
 50
90.0
 41
0.5
 51
30.0
  7
KANJI
  0
ENDBLK
  5
FC
  8
0
  0
BLOCK
  8
3
  6
CONTINUOUS
 62
   214
  2
*D13
 70
     1
 10
0.0
 20
0.0
 30
0.0
  3
*D13
  1

  0
LINE
  5
FF
  8
3
  6
CONTINUOUS
 62
   214
 10
230.0
 20
220.0
 30
0.0
 11
230.0
 21
245.5
 31
0.0
  0
LINE
  5
100
  8
3
  6
CONTINUOUS
 62
   214
 10
232.0
 20
220.0
 30
0.0
 11
211.59999999999999
 21
220.0
 31
0.0
  0
LINE
  5
101
  8
3
  6
CONTINUOUS
 62
   214
 10
232.0
 20
245.5
 30
0.0
 11
182.0
 21
245.5
 31
0.0
  0
LINE
  5
102
  8
3
  6
CONTINUOUS
 62
   214
 10
230.0
 20
220.0
 30
0.0
 11
228.96472399999999
 21
223.86370299999999
 31
0.0
  0
LINE
  5
103
  8
3
  6
CONTINUOUS
 62
   214
 10
230.0
 20
220.0
 30
0.0
 11
231.03527600000001
 21
223.86370299999999
 31
0.0
  0
LINE
  5
104
  8
3
  6
CONTINUOUS
 62
   214
 10
228.96472399999999
 20
223.86370299999999
 30
0.0
 11
231.03527600000001
 21
223.86370299999999
 31
0.0
  0
LINE
  5
105
  8
3
  6
CONTINUOUS
 62
   214
 10
230.0
 20
220.965926
 30
0.0
 11
229.48236199999999
 21
222.89777699999999
 31
0.0
  0
LINE
  5
106
  8
3
  6
CONTINUOUS
 62
   214
 10
230.0
 20
220.965926
 30
0.0
 11
230.51763800000001
 21
222.89777699999999
 31
0.0
  0
LINE
  5
107
  8
3
  6
CONTINUOUS
 62
   214
 10
229.48236199999999
 20
222.89777699999999
 30
0.0
 11
230.51763800000001
 21
222.89777699999999
 31
0.0
  0
LINE
  5
108
  8
3
  6
CONTINUOUS
 62
   214
 10
230.0
 20
245.5
 30
0.0
 11
231.03527600000001
 21
241.63629700000001
 31
0.0
  0
LINE
  5
109
  8
3
  6
CONTINUOUS
 62
   214
 10
230.0
 20
245.5
 30
0.0
 11
228.96472399999999
 21
241.63629700000001
 31
0.0
  0
LINE
  5
10A
  8
3
  6
CONTINUOUS
 62
   214
 10
231.03527600000001
 20
241.63629700000001
 30
0.0
 11
228.96472399999999
 21
241.63629700000001
 31
0.0
  0
LINE
  5
10B
  8
3
  6
CONTINUOUS
 62
   214
 10
230.0
 20
244.534074
 30
0.0
 11
230.51763800000001
 21
242.60222300000001
 31
0.0
  0
LINE
  5
10C
  8
3
  6
CONTINUOUS
 62
   214
 10
230.0
 20
244.534074
 30
0.0
 11
229.48236199999999
 21
242.60222300000001
 31
0.0
  0
LINE
  5
10D
  8
3
  6
CONTINUOUS
 62
   214
 10
230.51763800000001
 20
242.60222300000001
 30
0.0
 11
229.48236199999999
 21
242.60222300000001
 31
0.0
  0
TEXT
  5
10E
  8
3
  6
CONTINUOUS
 62
   214
 10
230.0
 20
228.75
 30
0.0
 40
4.0
  1
25.5
 50
90.0
 41
0.5555560000000001
 51
30.0
  7
KANJI
  0
ENDBLK
  5
10F
  8
0
  0
BLOCK
  8
3
  6
CONTINUOUS
 62
   214
  2
*D14
 70
     1
 10
0.0
 20
0.0
 30
0.0
  3
*D14
  1

  0
LINE
  5
112
  8
3
  6
CONTINUOUS
 62
   214
 10
220.0
 20
212.0
 30
0.0
 11
220.0
 21
233.0
 31
0.0
  0
LINE
  5
113
  8
3
  6
CONTINUOUS
 62
   214
 10
222.0
 20
220.0
 30
0.0
 11
211.59999999999999
 21
220.0
 31
0.0
  0
LINE
  5
114
  8
3
  6
CONTINUOUS
 62
   214
 10
222.0
 20
225.0
 30
0.0
 11
175.0
 21
225.0
 31
0.0
  0
LINE
  5
115
  8
3
  6
CONTINUOUS
 62
   214
 10
220.0
 20
220.0
 30
0.0
 11
221.03527600000001
 21
216.13629700000001
 31
0.0
  0
LINE
  5
116
  8
3
  6
CONTINUOUS
 62
   214
 10
220.0
 20
220.0
 30
0.0
 11
218.96472399999999
 21
216.13629700000001
 31
0.0
  0
LINE
  5
117
  8
3
  6
CONTINUOUS
 62
   214
 10
221.03527600000001
 20
216.13629700000001
 30
0.0
 11
218.96472399999999
 21
216.13629700000001
 31
0.0
  0
LINE
  5
118
  8
3
  6
CONTINUOUS
 62
   214
 10
220.0
 20
219.034074
 30
0.0
 11
220.51763800000001
 21
217.10222300000001
 31
0.0
  0
LINE
  5
119
  8
3
  6
CONTINUOUS
 62
   214
 10
220.0
 20
219.034074
 30
0.0
 11
219.48236199999999
 21
217.10222300000001
 31
0.0
  0
LINE
  5
11A
  8
3
  6
CONTINUOUS
 62
   214
 10
220.51763800000001
 20
217.10222300000001
 30
0.0
 11
219.48236199999999
 21
217.10222300000001
 31
0.0
  0
LINE
  5
11B
  8
3
  6
CONTINUOUS
 62
   214
 10
220.0
 20
225.0
 30
0.0
 11
218.96472399999999
 21
228.86370299999999
 31
0.0
  0
LINE
  5
11C
  8
3
  6
CONTINUOUS
 62
   214
 10
220.0
 20
225.0
 30
0.0
 11
221.03527600000001
 21
228.86370299999999
 31
0.0
  0
LINE
  5
11D
  8
3
  6
CONTINUOUS
 62
   214
 10
218.96472399999999
 20
228.86370299999999
 30
0.0
 11
221.03527600000001
 21
228.86370299999999
 31
0.0
  0
LINE
  5
11E
  8
3
  6
CONTINUOUS
 62
   214
 10
220.0
 20
225.965926
 30
0.0
 11
219.48236199999999
 21
227.89777699999999
 31
0.0
  0
LINE
  5
11F
  8
3
  6
CONTINUOUS
 62
   214
 10
220.0
 20
225.965926
 30
0.0
 11
220.51763800000001
 21
227.89777699999999
 31
0.0
  0
LINE
  5
120
  8
3
  6
CONTINUOUS
 62
   214
 10
219.48236199999999
 20
227.89777699999999
 30
0.0
 11
220.51763800000001
 21
227.89777699999999
 31
0.0
  0
TEXT
  5
121
  8
3
  6
CONTINUOUS
 62
   214
 10
220.0
 20
221.5
 30
0.0
 40
4.0
  1
5
 50
90.0
 41
0.5
 51
30.0
  7
KANJI
  0
ENDBLK
  5
122
  8
0
  0
BLOCK
  8
3
  6
CONTINUOUS
 62
   214
  2
*D15
 70
     1
 10
0.0
 20
0.0
 30
0.0
  3
*D15
  1

  0
LINE
  5
125
  8
3
  6
CONTINUOUS
 62
   214
 10
220.0
 20
372.0
 30
0.0
 11
220.0
 21
351.0
 31
0.0
  0
LINE
  5
126
  8
3
  6
CONTINUOUS
 62
   214
 10
222.0
 20
364.0
 30
0.0
 11
211.59999999999999
 21
364.0
 31
0.0
  0
LINE
  5
127
  8
3
  6
CONTINUOUS
 62
   214
 10
222.0
 20
359.0
 30
0.0
 11
175.0
 21
359.0
 31
0.0
  0
LINE
  5
128
  8
3
  6
CONTINUOUS
 62
   214
 10
220.0
 20
364.0
 30
0.0
 11
218.96472399999999
 21
367.86370299999999
 31
0.0
  0
LINE
  5
129
  8
3
  6
CONTINUOUS
 62
   214
 10
220.0
 20
364.0
 30
0.0
 11
221.03527600000001
 21
367.86370299999999
 31
0.0
  0
LINE
  5
12A
  8
3
  6
CONTINUOUS
 62
   214
 10
218.96472399999999
 20
367.86370299999999
 30
0.0
 11
221.03527600000001
 21
367.86370299999999
 31
0.0
  0
LINE
  5
12B
  8
3
  6
CONTINUOUS
 62
   214
 10
220.0
 20
364.96592600000002
 30
0.0
 11
219.48236199999999
 21
366.89777700000002
 31
0.0
  0
LINE
  5
12C
  8
3
  6
CONTINUOUS
 62
   214
 10
220.0
 20
364.96592600000002
 30
0.0
 11
220.51763800000001
 21
366.89777700000002
 31
0.0
  0
LINE
  5
12D
  8
3
  6
CONTINUOUS
 62
   214
 10
219.48236199999999
 20
366.89777700000002
 30
0.0
 11
220.51763800000001
 21
366.89777700000002
 31
0.0
  0
LINE
  5
12E
  8
3
  6
CONTINUOUS
 62
   214
 10
220.0
 20
359.0
 30
0.0
 11
221.03527600000001
 21
355.13629700000001
 31
0.0
  0
LINE
  5
12F
  8
3
  6
CONTINUOUS
 62
   214
 10
220.0
 20
359.0
 30
0.0
 11
218.96472399999999
 21
355.13629700000001
 31
0.0
  0
LINE
  5
130
  8
3
  6
CONTINUOUS
 62
   214
 10
221.03527600000001
 20
355.13629700000001
 30
0.0
 11
218.96472399999999
 21
355.13629700000001
 31
0.0
  0
LINE
  5
131
  8
3
  6
CONTINUOUS
 62
   214
 10
220.0
 20
358.03407399999998
 30
0.0
 11
220.51763800000001
 21
356.10222299999998
 31
0.0
  0
LINE
  5
132
  8
3
  6
CONTINUOUS
 62
   214
 10
220.0
 20
358.03407399999998
 30
0.0
 11
219.48236199999999
 21
356.10222299999998
 31
0.0
  0
LINE
  5
133
  8
3
  6
CONTINUOUS
 62
   214
 10
220.51763800000001
 20
356.10222299999998
 30
0.0
 11
219.48236199999999
 21
356.10222299999998
 31
0.0
  0
TEXT
  5
134
  8
3
  6
CONTINUOUS
 62
   214
 10
220.0
 20
360.5
 30
0.0
 40
4.0
  1
5
 50
90.0
 41
0.5
 51
30.0
  7
KANJI
  0
ENDBLK
  5
135
  8
0
  0
BLOCK
  8
3
  6
CONTINUOUS
 62
   214
  2
*D16
 70
     1
 10
0.0
 20
0.0
 30
0.0
  3
*D16
  1

  0
LINE
  5
138
  8
3
  6
CONTINUOUS
 62
   214
 10
215.30787699999999
 20
359.25
 30
0.0
 11
215.30787699999999
 21
336.0
 31
0.0
  0
LINE
  5
139
  8
3
  6
CONTINUOUS
 62
   214
 10
217.30787699999999
 20
351.25
 30
0.0
 11
211.59999999999999
 21
351.25
 31
0.0
  0
LINE
  5
13A
  8
3
  6
CONTINUOUS
 62
   214
 10
217.30787699999999
 20
346.75
 30
0.0
 11
211.59999999999999
 21
346.75
 31
0.0
  0
LINE
  5
13B
  8
3
  6
CONTINUOUS
 62
   214
 10
215.30787699999999
 20
351.25
 30
0.0
 11
214.27260100000001
 21
355.11370299999999
 31
0.0
  0
LINE
  5
13C
  8
3
  6
CONTINUOUS
 62
   214
 10
215.30787699999999
 20
351.25
 30
0.0
 11
216.343153
 21
355.11370299999999
 31
0.0
  0
LINE
  5
13D
  8
3
  6
CONTINUOUS
 62
   214
 10
214.27260100000001
 20
355.11370299999999
 30
0.0
 11
216.343153
 21
355.11370299999999
 31
0.0
  0
LINE
  5
13E
  8
3
  6
CONTINUOUS
 62
   214
 10
215.30787699999999
 20
352.21592600000002
 30
0.0
 11
214.79023900000001
 21
354.14777700000002
 31
0.0
  0
LINE
  5
13F
  8
3
  6
CONTINUOUS
 62
   214
 10
215.30787699999999
 20
352.21592600000002
 30
0.0
 11
215.825515
 21
354.14777700000002
 31
0.0
  0
LINE
  5
140
  8
3
  6
CONTINUOUS
 62
   214
 10
214.79023900000001
 20
354.14777700000002
 30
0.0
 11
215.825515
 21
354.14777700000002
 31
0.0
  0
LINE
  5
141
  8
3
  6
CONTINUOUS
 62
   214
 10
215.30787699999999
 20
346.75
 30
0.0
 11
216.343153
 21
342.88629700000001
 31
0.0
  0
LINE
  5
142
  8
3
  6
CONTINUOUS
 62
   214
 10
215.30787699999999
 20
346.75
 30
0.0
 11
214.27260100000001
 21
342.88629700000001
 31
0.0
  0
LINE
  5
143
  8
3
  6
CONTINUOUS
 62
   214
 10
216.343153
 20
342.88629700000001
 30
0.0
 11
214.27260100000001
 21
342.88629700000001
 31
0.0
  0
LINE
  5
144
  8
3
  6
CONTINUOUS
 62
   214
 10
215.30787699999999
 20
345.78407399999998
 30
0.0
 11
215.825515
 21
343.85222299999998
 31
0.0
  0
LINE
  5
145
  8
3
  6
CONTINUOUS
 62
   214
 10
215.30787699999999
 20
345.78407399999998
 30
0.0
 11
214.79023900000001
 21
343.85222299999998
 31
0.0
  0
LINE
  5
146
  8
3
  6
CONTINUOUS
 62
   214
 10
215.825515
 20
343.85222299999998
 30
0.0
 11
214.79023900000001
 21
343.85222299999998
 31
0.0
  0
TEXT
  5
147
  8
3
  6
CONTINUOUS
 62
   214
 10
215.30787699999999
 20
337.0
 30
0.0
 40
4.0
  1
4.5
 50
90.0
 41
0.576923
 51
30.0
  7
KANJI
  0
ENDBLK
  5
148
  8
0
  0
BLOCK
  8
3
  6
CONTINUOUS
 62
   214
  2
*D17
 70
     1
 10
0.0
 20
0.0
 30
0.0
  3
*D17
  1

  0
LINE
  5
14B
  8
3
  6
CONTINUOUS
 62
   214
 10
220.0
 20
62.0
 30
0.0
 11
220.0
 21
185.0
 31
0.0
  0
LINE
  5
14C
  8
3
  6
CONTINUOUS
 62
   214
 10
222.0
 20
62.0
 30
0.0
 11
211.59999999999999
 21
62.0
 31
0.0
  0
LINE
  5
14D
  8
3
  6
CONTINUOUS
 62
   214
 10
222.0
 20
185.0
 30
0.0
 11
195.0
 21
185.0
 31
0.0
  0
LINE
  5
14E
  8
3
  6
CONTINUOUS
 62
   214
 10
220.0
 20
62.0
 30
0.0
 11
218.96472399999999
 21
65.863703000000001
 31
0.0
  0
LINE
  5
14F
  8
3
  6
CONTINUOUS
 62
   214
 10
220.0
 20
62.0
 30
0.0
 11
221.03527600000001
 21
65.863703000000001
 31
0.0
  0
LINE
  5
150
  8
3
  6
CONTINUOUS
 62
   214
 10
218.96472399999999
 20
65.863703000000001
 30
0.0
 11
221.03527600000001
 21
65.863703000000001
 31
0.0
  0
LINE
  5
151
  8
3
  6
CONTINUOUS
 62
   214
 10
220.0
 20
62.965926000000003
 30
0.0
 11
219.48236199999999
 21
64.897777000000005
 31
0.0
  0
LINE
  5
152
  8
3
  6
CONTINUOUS
 62
   214
 10
220.0
 20
62.965926000000003
 30
0.0
 11
220.51763800000001
 21
64.897777000000005
 31
0.0
  0
LINE
  5
153
  8
3
  6
CONTINUOUS
 62
   214
 10
219.48236199999999
 20
64.897777000000005
 30
0.0
 11
220.51763800000001
 21
64.897777000000005
 31
0.0
  0
LINE
  5
154
  8
3
  6
CONTINUOUS
 62
   214
 10
220.0
 20
185.0
 30
0.0
 11
221.03527600000001
 21
181.13629700000001
 31
0.0
  0
LINE
  5
155
  8
3
  6
CONTINUOUS
 62
   214
 10
220.0
 20
185.0
 30
0.0
 11
218.96472399999999
 21
181.13629700000001
 31
0.0
  0
LINE
  5
156
  8
3
  6
CONTINUOUS
 62
   214
 10
221.03527600000001
 20
181.13629700000001
 30
0.0
 11
218.96472399999999
 21
181.13629700000001
 31
0.0
  0
LINE
  5
157
  8
3
  6
CONTINUOUS
 62
   214
 10
220.0
 20
184.034074
 30
0.0
 11
220.51763800000001
 21
182.10222300000001
 31
0.0
  0
LINE
  5
158
  8
3
  6
CONTINUOUS
 62
   214
 10
220.0
 20
184.034074
 30
0.0
 11
219.48236199999999
 21
182.10222300000001
 31
0.0
  0
LINE
  5
159
  8
3
  6
CONTINUOUS
 62
   214
 10
220.51763800000001
 20
182.10222300000001
 30
0.0
 11
219.48236199999999
 21
182.10222300000001
 31
0.0
  0
TEXT
  5
15A
  8
3
  6
CONTINUOUS
 62
   214
 10
220.0
 20
120.5
 30
0.0
 40
4.0
  1
123
 50
90.0
 41
0.5
 51
30.0
  7
KANJI
  0
ENDBLK
  5
15B
  8
0
  0
BLOCK
  8
3
  6
CONTINUOUS
 62
   214
  2
*D18
 70
     1
 10
0.0
 20
0.0
 30
0.0
  3
*D18
  1

  0
LINE
  5
15E
  8
3
  6
CONTINUOUS
 62
   214
 10
6.0
 20
120.0
 30
0.0
 11
31.0
 21
120.0
 31
0.0
  0
LINE
  5
15F
  8
3
  6
CONTINUOUS
 62
   214
 10
6.0
 20
122.0
 30
0.0
 11
6.0
 21
102.0
 31
0.0
  0
LINE
  5
160
  8
3
  6
CONTINUOUS
 62
   214
 10
31.0
 20
122.0
 30
0.0
 11
31.0
 21
101.909279
 31
0.0
  0
LINE
  5
161
  8
3
  6
CONTINUOUS
 62
   214
 10
6.0
 20
120.0
 30
0.0
 11
9.8637029999999992
 21
121.035276
 31
0.0
  0
LINE
  5
162
  8
3
  6
CONTINUOUS
 62
   214
 10
6.0
 20
120.0
 30
0.0
 11
9.8637029999999992
 21
118.964724
 31
0.0
  0
LINE
  5
163
  8
3
  6
CONTINUOUS
 62
   214
 10
9.8637029999999992
 20
121.035276
 30
0.0
 11
9.8637029999999992
 21
118.964724
 31
0.0
  0
LINE
  5
164
  8
3
  6
CONTINUOUS
 62
   214
 10
6.9659259999999987
 20
120.0
 30
0.0
 11
8.8977769999999978
 21
120.51763800000001
 31
0.0
  0
LINE
  5
165
  8
3
  6
CONTINUOUS
 62
   214
 10
6.9659259999999987
 20
120.0
 30
0.0
 11
8.8977769999999978
 21
119.48236199999999
 31
0.0
  0
LINE
  5
166
  8
3
  6
CONTINUOUS
 62
   214
 10
8.8977769999999978
 20
120.51763800000001
 30
0.0
 11
8.8977769999999978
 21
119.48236199999999
 31
0.0
  0
LINE
  5
167
  8
3
  6
CONTINUOUS
 62
   214
 10
31.0
 20
120.0
 30
0.0
 11
27.136296999999999
 21
118.964724
 31
0.0
  0
LINE
  5
168
  8
3
  6
CONTINUOUS
 62
   214
 10
31.0
 20
120.0
 30
0.0
 11
27.136296999999999
 21
121.035276
 31
0.0
  0
LINE
  5
169
  8
3
  6
CONTINUOUS
 62
   214
 10
27.136296999999999
 20
118.964724
 30
0.0
 11
27.136296999999999
 21
121.035276
 31
0.0
  0
LINE
  5
16A
  8
3
  6
CONTINUOUS
 62
   214
 10
30.034074
 20
120.0
 30
0.0
 11
28.102222999999999
 21
119.48236199999999
 31
0.0
  0
LINE
  5
16B
  8
3
  6
CONTINUOUS
 62
   214
 10
30.034074
 20
120.0
 30
0.0
 11
28.102222999999999
 21
120.51763800000001
 31
0.0
  0
LINE
  5
16C
  8
3
  6
CONTINUOUS
 62
   214
 10
28.102222999999999
 20
119.48236199999999
 30
0.0
 11
28.102222999999999
 21
120.51763800000001
 31
0.0
  0
TEXT
  5
16D
  8
3
  6
CONTINUOUS
 62
   214
 10
16.5
 20
120.0
 30
0.0
 40
4.0
  1
25
 41
0.5
 51
30.0
  7
KANJI
  0
ENDBLK
  5
16E
  8
0
  0
BLOCK
  8
3
  6
CONTINUOUS
 62
   214
  2
*D19
 70
     1
 10
0.0
 20
0.0
 30
0.0
  3
*D19
  1

  0
LINE
  5
171
  8
3
  6
CONTINUOUS
 62
   214
 10
31.0
 20
120.0
 30
0.0
 11
60.0
 21
120.0
 31
0.0
  0
LINE
  5
172
  8
3
  6
CONTINUOUS
 62
   214
 10
31.0
 20
120.0
 30
0.0
 11
34.863703000000001
 21
121.035276
 31
0.0
  0
LINE
  5
173
  8
3
  6
CONTINUOUS
 62
   214
 10
31.0
 20
120.0
 30
0.0
 11
34.863703000000001
 21
118.964724
 31
0.0
  0
LINE
  5
174
  8
3
  6
CONTINUOUS
 62
   214
 10
34.863703000000001
 20
121.035276
 30
0.0
 11
34.863703000000001
 21
118.964724
 31
0.0
  0
LINE
  5
175
  8
3
  6
CONTINUOUS
 62
   214
 10
31.965926
 20
120.0
 30
0.0
 11
33.897777000000019
 21
120.51763800000001
 31
0.0
  0
LINE
  5
176
  8
3
  6
CONTINUOUS
 62
   214
 10
31.965926
 20
120.0
 30
0.0
 11
33.897777000000019
 21
119.48236199999999
 31
0.0
  0
LINE
  5
177
  8
3
  6
CONTINUOUS
 62
   214
 10
33.897777000000019
 20
120.51763800000001
 30
0.0
 11
33.897777000000019
 21
119.48236199999999
 31
0.0
  0
LINE
  5
178
  8
3
  6
CONTINUOUS
 62
   214
 10
60.0
 20
120.0
 30
0.0
 11
56.136296999999999
 21
118.964724
 31
0.0
  0
LINE
  5
179
  8
3
  6
CONTINUOUS
 62
   214
 10
60.0
 20
120.0
 30
0.0
 11
56.136296999999999
 21
121.035276
 31
0.0
  0
LINE
  5
17A
  8
3
  6
CONTINUOUS
 62
   214
 10
56.136296999999999
 20
118.964724
 30
0.0
 11
56.136296999999999
 21
121.035276
 31
0.0
  0
LINE
  5
17B
  8
3
  6
CONTINUOUS
 62
   214
 10
59.034073999999983
 20
120.0
 30
0.0
 11
57.102222999999981
 21
119.48236199999999
 31
0.0
  0
LINE
  5
17C
  8
3
  6
CONTINUOUS
 62
   214
 10
59.034073999999983
 20
120.0
 30
0.0
 11
57.102222999999981
 21
120.51763800000001
 31
0.0
  0
LINE
  5
17D
  8
3
  6
CONTINUOUS
 62
   214
 10
57.102222999999981
 20
119.48236199999999
 30
0.0
 11
57.102222999999981
 21
120.51763800000001
 31
0.0
  0
TEXT
  5
17E
  8
3
  6
CONTINUOUS
 62
   214
 10
43.5
 20
120.0
 30
0.0
 40
4.0
  1
29
 41
0.5
 51
30.0
  7
KANJI
  0
ENDBLK
  5
17F
  8
0
  0
BLOCK
  8
3
  6
CONTINUOUS
 62
   214
  2
*D20
 70
     1
 10
0.0
 20
0.0
 30
0.0
  3
*D20
  1

  0
LINE
  5
182
  8
3
  6
CONTINUOUS
 62
   214
 10
75.0
 20
62.0
 30
0.0
 11
75.0
 21
108.0
 31
0.0
  0
LINE
  5
183
  8
3
  6
CONTINUOUS
 62
   214
 10
77.0
 20
62.0
 30
0.0
 11
62.0
 21
62.0
 31
0.0
  0
LINE
  5
184
  8
3
  6
CONTINUOUS
 62
   214
 10
77.0
 20
108.0
 30
0.0
 11
-3.0
 21
108.0
 31
0.0
  0
LINE
  5
185
  8
3
  6
CONTINUOUS
 62
   214
 10
75.0
 20
62.0
 30
0.0
 11
73.964724000000004
 21
65.863703000000001
 31
0.0
  0
LINE
  5
186
  8
3
  6
CONTINUOUS
 62
   214
 10
75.0
 20
62.0
 30
0.0
 11
76.035275999999982
 21
65.863703000000001
 31
0.0
  0
LINE
  5
187
  8
3
  6
CONTINUOUS
 62
   214
 10
73.964724000000004
 20
65.863703000000001
 30
0.0
 11
76.035275999999982
 21
65.863703000000001
 31
0.0
  0
LINE
  5
188
  8
3
  6
CONTINUOUS
 62
   214
 10
75.0
 20
62.965926000000003
 30
0.0
 11
74.482361999999981
 21
64.897777000000005
 31
0.0
  0
LINE
  5
189
  8
3
  6
CONTINUOUS
 62
   214
 10
75.0
 20
62.965926000000003
 30
0.0
 11
75.517638000000005
 21
64.897777000000005
 31
0.0
  0
LINE
  5
18A
  8
3
  6
CONTINUOUS
 62
   214
 10
74.482361999999981
 20
64.897777000000005
 30
0.0
 11
75.517638000000005
 21
64.897777000000005
 31
0.0
  0
LINE
  5
18B
  8
3
  6
CONTINUOUS
 62
   214
 10
75.0
 20
108.0
 30
0.0
 11
76.035275999999982
 21
104.136297
 31
0.0
  0
LINE
  5
18C
  8
3
  6
CONTINUOUS
 62
   214
 10
75.0
 20
108.0
 30
0.0
 11
73.964724000000004
 21
104.136297
 31
0.0
  0
LINE
  5
18D
  8
3
  6
CONTINUOUS
 62
   214
 10
76.035275999999982
 20
104.136297
 30
0.0
 11
73.964724000000004
 21
104.136297
 31
0.0
  0
LINE
  5
18E
  8
3
  6
CONTINUOUS
 62
   214
 10
75.0
 20
107.034074
 30
0.0
 11
75.517638000000005
 21
105.102223
 31
0.0
  0
LINE
  5
18F
  8
3
  6
CONTINUOUS
 62
   214
 10
75.0
 20
107.034074
 30
0.0
 11
74.482361999999981
 21
105.102223
 31
0.0
  0
LINE
  5
190
  8
3
  6
CONTINUOUS
 62
   214
 10
75.517638000000005
 20
105.102223
 30
0.0
 11
74.482361999999981
 21
105.102223
 31
0.0
  0
TEXT
  5
191
  8
3
  6
CONTINUOUS
 62
   214
 10
75.0
 20
83.0
 30
0.0
 40
4.0
  1
46
 50
90.0
 41
0.5
 51
30.0
  7
KANJI
  0
ENDBLK
  5
192
  8
0
  0
BLOCK
  8
3
  6
CONTINUOUS
 62
   214
  2
*D21
 70
     1
 10
0.0
 20
0.0
 30
0.0
  3
*D21
  1

  0
LINE
  5
195
  8
3
  6
CONTINUOUS
 62
   214
 10
80.0
 20
62.0
 30
0.0
 11
80.0
 21
186.59999999999999
 31
0.0
  0
LINE
  5
196
  8
3
  6
CONTINUOUS
 62
   214
 10
82.0
 20
62.0
 30
0.0
 11
62.0
 21
62.0
 31
0.0
  0
LINE
  5
197
  8
3
  6
CONTINUOUS
 62
   214
 10
82.0
 20
186.59999999999999
 30
0.0
 11
62.0
 21
186.59999999999999
 31
0.0
  0
LINE
  5
198
  8
3
  6
CONTINUOUS
 62
   214
 10
80.0
 20
62.0
 30
0.0
 11
78.964724000000004
 21
65.863703000000001
 31
0.0
  0
LINE
  5
199
  8
3
  6
CONTINUOUS
 62
   214
 10
80.0
 20
62.0
 30
0.0
 11
81.035275999999968
 21
65.863703000000001
 31
0.0
  0
LINE
  5
19A
  8
3
  6
CONTINUOUS
 62
   214
 10
78.964724000000004
 20
65.863703000000001
 30
0.0
 11
81.035275999999968
 21
65.863703000000001
 31
0.0
  0
LINE
  5
19B
  8
3
  6
CONTINUOUS
 62
   214
 10
80.0
 20
62.965926000000003
 30
0.0
 11
79.482361999999981
 21
64.897777000000005
 31
0.0
  0
LINE
  5
19C
  8
3
  6
CONTINUOUS
 62
   214
 10
80.0
 20
62.965926000000003
 30
0.0
 11
80.517638000000005
 21
64.897777000000005
 31
0.0
  0
LINE
  5
19D
  8
3
  6
CONTINUOUS
 62
   214
 10
79.482361999999981
 20
64.897777000000005
 30
0.0
 11
80.517638000000005
 21
64.897777000000005
 31
0.0
  0
LINE
  5
19E
  8
3
  6
CONTINUOUS
 62
   214
 10
80.0
 20
186.59999999999999
 30
0.0
 11
81.035275999999968
 21
182.73629700000001
 31
0.0
  0
LINE
  5
19F
  8
3
  6
CONTINUOUS
 62
   214
 10
80.0
 20
186.59999999999999
 30
0.0
 11
78.964724000000004
 21
182.73629700000001
 31
0.0
  0
LINE
  5
1A0
  8
3
  6
CONTINUOUS
 62
   214
 10
81.035275999999968
 20
182.73629700000001
 30
0.0
 11
78.964724000000004
 21
182.73629700000001
 31
0.0
  0
LINE
  5
1A1
  8
3
  6
CONTINUOUS
 62
   214
 10
80.0
 20
185.634074
 30
0.0
 11
80.517638000000005
 21
183.702223
 31
0.0
  0
LINE
  5
1A2
  8
3
  6
CONTINUOUS
 62
   214
 10
80.0
 20
185.634074
 30
0.0
 11
79.482361999999981
 21
183.702223
 31
0.0
  0
LINE
  5
1A3
  8
3
  6
CONTINUOUS
 62
   214
 10
80.517638000000005
 20
183.702223
 30
0.0
 11
79.482361999999981
 21
183.702223
 31
0.0
  0
TEXT
  5
1A4
  8
3
  6
CONTINUOUS
 62
   214
 10
80.0
 20
117.3
 30
0.0
 40
4.0
  1
(124.6)
 50
90.0
 41
0.530303
 51
30.0
  7
KANJI
  0
ENDBLK
  5
1A5
  8
0
  0
BLOCK
  8
3
  6
CONTINUOUS
 62
   214
  2
*D22
 70
     1
 10
0.0
 20
0.0
 30
0.0
  3
*D22
  1

  0
LINE
  5
1A8
  8
3
  6
CONTINUOUS
 62
   214
 10
-57.100000000000001
 20
115.0
 30
0.0
 11
-26.899999999999999
 21
115.0
 31
0.0
  0
LINE
  5
1A9
  8
3
  6
CONTINUOUS
 62
   214
 10
-57.100000000000001
 20
117.0
 30
0.0
 11
-57.100000000000001
 21
108.5
 31
0.0
  0
LINE
  5
1AA
  8
3
  6
CONTINUOUS
 62
   214
 10
-26.899999999999999
 20
117.0
 30
0.0
 11
-26.899999999999999
 21
108.5
 31
0.0
  0
LINE
  5
1AB
  8
3
  6
CONTINUOUS
 62
   214
 10
-57.100000000000001
 20
115.0
 30
0.0
 11
-53.236297
 21
116.035276
 31
0.0
  0
LINE
  5
1AC
  8
3
  6
CONTINUOUS
 62
   214
 10
-57.100000000000001
 20
115.0
 30
0.0
 11
-53.236297
 21
113.964724
 31
0.0
  0
LINE
  5
1AD
  8
3
  6
CONTINUOUS
 62
   214
 10
-53.236297
 20
116.035276
 30
0.0
 11
-53.236297
 21
113.964724
 31
0.0
  0
LINE
  5
1AE
  8
3
  6
CONTINUOUS
 62
   214
 10
-56.134073999999991
 20
115.0
 30
0.0
 11
-54.202222999999982
 21
115.51763800000001
 31
0.0
  0
LINE
  5
1AF
  8
3
  6
CONTINUOUS
 62
   214
 10
-56.134073999999991
 20
115.0
 30
0.0
 11
-54.202222999999982
 21
114.48236199999999
 31
0.0
  0
LINE
  5
1B0
  8
3
  6
CONTINUOUS
 62
   214
 10
-54.202222999999982
 20
115.51763800000001
 30
0.0
 11
-54.202222999999982
 21
114.48236199999999
 31
0.0
  0
LINE
  5
1B1
  8
3
  6
CONTINUOUS
 62
   214
 10
-26.899999999999999
 20
115.0
 30
0.0
 11
-30.76370300000001
 21
113.964724
 31
0.0
  0
LINE
  5
1B2
  8
3
  6
CONTINUOUS
 62
   214
 10
-26.899999999999999
 20
115.0
 30
0.0
 11
-30.76370300000001
 21
116.035276
 31
0.0
  0
LINE
  5
1B3
  8
3
  6
CONTINUOUS
 62
   214
 10
-30.76370300000001
 20
113.964724
 30
0.0
 11
-30.76370300000001
 21
116.035276
 31
0.0
  0
LINE
  5
1B4
  8
3
  6
CONTINUOUS
 62
   214
 10
-27.865926000000002
 20
115.0
 30
0.0
 11
-29.797777000000011
 21
114.48236199999999
 31
0.0
  0
LINE
  5
1B5
  8
3
  6
CONTINUOUS
 62
   214
 10
-27.865926000000002
 20
115.0
 30
0.0
 11
-29.797777000000011
 21
115.51763800000001
 31
0.0
  0
LINE
  5
1B6
  8
3
  6
CONTINUOUS
 62
   214
 10
-29.797777000000011
 20
114.48236199999999
 30
0.0
 11
-29.797777000000011
 21
115.51763800000001
 31
0.0
  0
TEXT
  5
1B7
  8
3
  6
CONTINUOUS
 62
   214
 10
-46.0
 20
115.0
 30
0.0
 40
4.0
  1
30.2
 41
0.5555560000000001
 51
30.0
  7
KANJI
  0
ENDBLK
  5
1B8
  8
0
  0
BLOCK
  8
3
  6
CONTINUOUS
 62
   214
  2
*D23
 70
     1
 10
0.0
 20
0.0
 30
0.0
  3
*D23
  1

  0
LINE
  5
1BB
  8
3
  6
CONTINUOUS
 62
   214
 10
-60.0
 20
120.0
 30
0.0
 11
-24.0
 21
120.0
 31
0.0
  0
LINE
  5
1BC
  8
3
  6
CONTINUOUS
 62
   214
 10
-60.0
 20
122.0
 30
0.0
 11
-60.0
 21
87.044612999999998
 31
0.0
  0
LINE
  5
1BD
  8
3
  6
CONTINUOUS
 62
   214
 10
-24.0
 20
122.0
 30
0.0
 11
-24.0
 21
87.113510999999988
 31
0.0
  0
LINE
  5
1BE
  8
3
  6
CONTINUOUS
 62
   214
 10
-60.0
 20
120.0
 30
0.0
 11
-56.136296999999999
 21
121.035276
 31
0.0
  0
LINE
  5
1BF
  8
3
  6
CONTINUOUS
 62
   214
 10
-60.0
 20
120.0
 30
0.0
 11
-56.136296999999999
 21
118.964724
 31
0.0
  0
LINE
  5
1C0
  8
3
  6
CONTINUOUS
 62
   214
 10
-56.136296999999999
 20
121.035276
 30
0.0
 11
-56.136296999999999
 21
118.964724
 31
0.0
  0
LINE
  5
1C1
  8
3
  6
CONTINUOUS
 62
   214
 10
-59.034073999999983
 20
120.0
 30
0.0
 11
-57.102222999999981
 21
120.51763800000001
 31
0.0
  0
LINE
  5
1C2
  8
3
  6
CONTINUOUS
 62
   214
 10
-59.034073999999983
 20
120.0
 30
0.0
 11
-57.102222999999981
 21
119.48236199999999
 31
0.0
  0
LINE
  5
1C3
  8
3
  6
CONTINUOUS
 62
   214
 10
-57.102222999999981
 20
120.51763800000001
 30
0.0
 11
-57.102222999999981
 21
119.48236199999999
 31
0.0
  0
LINE
  5
1C4
  8
3
  6
CONTINUOUS
 62
   214
 10
-24.0
 20
120.0
 30
0.0
 11
-27.863703000000012
 21
118.964724
 31
0.0
  0
LINE
  5
1C5
  8
3
  6
CONTINUOUS
 62
   214
 10
-24.0
 20
120.0
 30
0.0
 11
-27.863703000000012
 21
121.035276
 31
0.0
  0
LINE
  5
1C6
  8
3
  6
CONTINUOUS
 62
   214
 10
-27.863703000000012
 20
118.964724
 30
0.0
 11
-27.863703000000012
 21
121.035276
 31
0.0
  0
LINE
  5
1C7
  8
3
  6
CONTINUOUS
 62
   214
 10
-24.965926
 20
120.0
 30
0.0
 11
-26.897777000000001
 21
119.48236199999999
 31
0.0
  0
LINE
  5
1C8
  8
3
  6
CONTINUOUS
 62
   214
 10
-24.965926
 20
120.0
 30
0.0
 11
-26.897777000000001
 21
120.51763800000001
 31
0.0
  0
LINE
  5
1C9
  8
3
  6
CONTINUOUS
 62
   214
 10
-26.897777000000001
 20
119.48236199999999
 30
0.0
 11
-26.897777000000001
 21
120.51763800000001
 31
0.0
  0
TEXT
  5
1CA
  8
3
  6
CONTINUOUS
 62
   214
 10
-44.0
 20
120.0
 30
0.0
 40
4.0
  1
36
 41
0.5
 51
30.0
  7
KANJI
  0
ENDBLK
  5
1CB
  8
0
  0
BLOCK
  8
3
  6
CONTINUOUS
 62
   214
  2
*D24
 70
     1
 10
0.0
 20
0.0
 30
0.0
  3
*D24
  1

  0
LINE
  5
1CE
  8
3
  6
CONTINUOUS
 62
   214
 10
70.25
 20
62.0
 30
0.0
 11
70.25
 21
90.0
 31
0.0
  0
LINE
  5
1CF
  8
3
  6
CONTINUOUS
 62
   214
 10
72.25
 20
62.0
 30
0.0
 11
62.25
 21
62.0
 31
0.0
  0
LINE
  5
1D0
  8
3
  6
CONTINUOUS
 62
   214
 10
72.25
 20
90.0
 30
0.0
 11
-12.75
 21
90.0
 31
0.0
  0
LINE
  5
1D1
  8
3
  6
CONTINUOUS
 62
   214
 10
70.25
 20
62.0
 30
0.0
 11
69.214724000000004
 21
65.863703000000001
 31
0.0
  0
LINE
  5
1D2
  8
3
  6
CONTINUOUS
 62
   214
 10
70.25
 20
62.0
 30
0.0
 11
71.285275999999996
 21
65.863703000000001
 31
0.0
  0
LINE
  5
1D3
  8
3
  6
CONTINUOUS
 62
   214
 10
69.214724000000004
 20
65.863703000000001
 30
0.0
 11
71.285275999999996
 21
65.863703000000001
 31
0.0
  0
LINE
  5
1D4
  8
3
  6
CONTINUOUS
 62
   214
 10
70.25
 20
62.965926000000003
 30
0.0
 11
69.732361999999995
 21
64.897777000000005
 31
0.0
  0
LINE
  5
1D5
  8
3
  6
CONTINUOUS
 62
   214
 10
70.25
 20
62.965926000000003
 30
0.0
 11
70.767638000000005
 21
64.897777000000005
 31
0.0
  0
LINE
  5
1D6
  8
3
  6
CONTINUOUS
 62
   214
 10
69.732361999999995
 20
64.897777000000005
 30
0.0
 11
70.767638000000005
 21
64.897777000000005
 31
0.0
  0
LINE
  5
1D7
  8
3
  6
CONTINUOUS
 62
   214
 10
70.25
 20
90.0
 30
0.0
 11
71.285275999999996
 21
86.136296999999999
 31
0.0
  0
LINE
  5
1D8
  8
3
  6
CONTINUOUS
 62
   214
 10
70.25
 20
90.0
 30
0.0
 11
69.214724000000004
 21
86.136296999999999
 31
0.0
  0
LINE
  5
1D9
  8
3
  6
CONTINUOUS
 62
   214
 10
71.285275999999996
 20
86.136296999999999
 30
0.0
 11
69.214724000000004
 21
86.136296999999999
 31
0.0
  0
LINE
  5
1DA
  8
3
  6
CONTINUOUS
 62
   214
 10
70.25
 20
89.034074000000004
 30
0.0
 11
70.767638000000005
 21
87.102222999999981
 31
0.0
  0
LINE
  5
1DB
  8
3
  6
CONTINUOUS
 62
   214
 10
70.25
 20
89.034074000000004
 30
0.0
 11
69.732361999999995
 21
87.102222999999981
 31
0.0
  0
LINE
  5
1DC
  8
3
  6
CONTINUOUS
 62
   214
 10
70.767638000000005
 20
87.102222999999981
 30
0.0
 11
69.732361999999995
 21
87.102222999999981
 31
0.0
  0
TEXT
  5
1DD
  8
3
  6
CONTINUOUS
 62
   214
 10
70.25
 20
74.0
 30
0.0
 40
4.0
  1
28
 50
90.0
 41
0.5
 51
30.0
  7
KANJI
  0
ENDBLK
  5
1DE
  8
0
  0
BLOCK
  8
3
  6
CONTINUOUS
 62
   214
  2
*D25
 70
     1
 10
0.0
 20
0.0
 30
0.0
  3
*D25
  1

  0
LINE
  5
1E1
  8
3
  6
CONTINUOUS
 62
   214
 10
-15.0
 20
106.5
 30
0.0
 11
-15.0
 21
73.5
 31
0.0
  0
LINE
  5
1E2
  8
3
  6
CONTINUOUS
 62
   214
 10
-13.0
 20
106.5
 30
0.0
 11
-24.899999999999999
 21
106.5
 31
0.0
  0
LINE
  5
1E3
  8
3
  6
CONTINUOUS
 62
   214
 10
-13.0
 20
73.5
 30
0.0
 11
-24.899999999999999
 21
73.5
 31
0.0
  0
LINE
  5
1E4
  8
3
  6
CONTINUOUS
 62
   214
 10
-15.0
 20
106.5
 30
0.0
 11
-13.964724
 21
102.636297
 31
0.0
  0
LINE
  5
1E5
  8
3
  6
CONTINUOUS
 62
   214
 10
-15.0
 20
106.5
 30
0.0
 11
-16.035276
 21
102.636297
 31
0.0
  0
LINE
  5
1E6
  8
3
  6
CONTINUOUS
 62
   214
 10
-13.964724
 20
102.636297
 30
0.0
 11
-16.035276
 21
102.636297
 31
0.0
  0
LINE
  5
1E7
  8
3
  6
CONTINUOUS
 62
   214
 10
-15.0
 20
105.534074
 30
0.0
 11
-14.482362
 21
103.602223
 31
0.0
  0
LINE
  5
1E8
  8
3
  6
CONTINUOUS
 62
   214
 10
-15.0
 20
105.534074
 30
0.0
 11
-15.517638
 21
103.602223
 31
0.0
  0
LINE
  5
1E9
  8
3
  6
CONTINUOUS
 62
   214
 10
-14.482362
 20
103.602223
 30
0.0
 11
-15.517638
 21
103.602223
 31
0.0
  0
LINE
  5
1EA
  8
3
  6
CONTINUOUS
 62
   214
 10
-15.0
 20
73.5
 30
0.0
 11
-16.035276
 21
77.363703000000001
 31
0.0
  0
LINE
  5
1EB
  8
3
  6
CONTINUOUS
 62
   214
 10
-15.0
 20
73.5
 30
0.0
 11
-13.964724
 21
77.363703000000001
 31
0.0
  0
LINE
  5
1EC
  8
3
  6
CONTINUOUS
 62
   214
 10
-16.035276
 20
77.363703000000001
 30
0.0
 11
-13.964724
 21
77.363703000000001
 31
0.0
  0
LINE
  5
1ED
  8
3
  6
CONTINUOUS
 62
   214
 10
-15.0
 20
74.465925999999982
 30
0.0
 11
-15.517638
 21
76.397777000000005
 31
0.0
  0
LINE
  5
1EE
  8
3
  6
CONTINUOUS
 62
   214
 10
-15.0
 20
74.465925999999982
 30
0.0
 11
-14.482362
 21
76.397777000000005
 31
0.0
  0
LINE
  5
1EF
  8
3
  6
CONTINUOUS
 62
   214
 10
-15.517638
 20
76.397777000000005
 30
0.0
 11
-14.482362
 21
76.397777000000005
 31
0.0
  0
TEXT
  5
1F0
  8
3
  6
CONTINUOUS
 62
   214
 10
-15.0
 20
88.0
 30
0.0
 40
4.0
  1
33
 50
90.0
 41
0.5
 51
30.0
  7
KANJI
  0
ENDBLK
  5
1F1
  8
0
  0
BLOCK
  8
3
  6
CONTINUOUS
 62
   214
  2
*D26
 70
     1
 10
0.0
 20
0.0
 30
0.0
  3
*D26
  1

  0
LINE
  5
1F4
  8
3
  6
CONTINUOUS
 62
   214
 10
-42.0
 20
125.0
 30
0.0
 11
60.0
 21
125.0
 31
0.0
  0
LINE
  5
1F5
  8
3
  6
CONTINUOUS
 62
   214
 10
-42.0
 20
127.0
 30
0.0
 11
-42.0
 21
117.0
 31
0.0
  0
LINE
  5
1F6
  8
3
  6
CONTINUOUS
 62
   214
 10
-42.0
 20
125.0
 30
0.0
 11
-38.136296999999999
 21
126.035276
 31
0.0
  0
LINE
  5
1F7
  8
3
  6
CONTINUOUS
 62
   214
 10
-42.0
 20
125.0
 30
0.0
 11
-38.136296999999999
 21
123.964724
 31
0.0
  0
LINE
  5
1F8
  8
3
  6
CONTINUOUS
 62
   214
 10
-38.136296999999999
 20
126.035276
 30
0.0
 11
-38.136296999999999
 21
123.964724
 31
0.0
  0
LINE
  5
1F9
  8
3
  6
CONTINUOUS
 62
   214
 10
-41.034073999999997
 20
125.0
 30
0.0
 11
-39.102223000000002
 21
125.51763800000001
 31
0.0
  0
LINE
  5
1FA
  8
3
  6
CONTINUOUS
 62
   214
 10
-41.034073999999997
 20
125.0
 30
0.0
 11
-39.102223000000002
 21
124.48236199999999
 31
0.0
  0
LINE
  5
1FB
  8
3
  6
CONTINUOUS
 62
   214
 10
-39.102223000000002
 20
125.51763800000001
 30
0.0
 11
-39.102223000000002
 21
124.48236199999999
 31
0.0
  0
LINE
  5
1FC
  8
3
  6
CONTINUOUS
 62
   214
 10
60.0
 20
125.0
 30
0.0
 11
56.136296999999999
 21
123.964724
 31
0.0
  0
LINE
  5
1FD
  8
3
  6
CONTINUOUS
 62
   214
 10
60.0
 20
125.0
 30
0.0
 11
56.136296999999999
 21
126.035276
 31
0.0
  0
LINE
  5
1FE
  8
3
  6
CONTINUOUS
 62
   214
 10
56.136296999999999
 20
123.964724
 30
0.0
 11
56.136296999999999
 21
126.035276
 31
0.0
  0
LINE
  5
1FF
  8
3
  6
CONTINUOUS
 62
   214
 10
59.034073999999983
 20
125.0
 30
0.0
 11
57.102222999999981
 21
124.48236199999999
 31
0.0
  0
LINE
  5
200
  8
3
  6
CONTINUOUS
 62
   214
 10
59.034073999999983
 20
125.0
 30
0.0
 11
57.102222999999981
 21
125.51763800000001
 31
0.0
  0
LINE
  5
201
  8
3
  6
CONTINUOUS
 62
   214
 10
57.102222999999981
 20
124.48236199999999
 30
0.0
 11
57.102222999999981
 21
125.51763800000001
 31
0.0
  0
TEXT
  5
202
  8
3
  6
CONTINUOUS
 62
   214
 10
6.0
 20
125.0
 30
0.0
 40
4.0
  1
102
 41
0.5
 51
30.0
  7
KANJI
  0
ENDBLK
  5
203
  8
0
  0
BLOCK
  8
3
  6
CONTINUOUS
 62
   214
  2
*D27
 70
     1
 10
0.0
 20
0.0
 30
0.0
  3
*D27
  1

  0
LINE
  5
206
  8
3
  6
CONTINUOUS
 62
   214
 10
385.0
 20
54.0
 30
0.0
 11
385.0
 21
78.0
 31
0.0
  0
LINE
  5
207
  8
3
  6
CONTINUOUS
 62
   214
 10
387.0
 20
62.0
 30
0.0
 11
379.19999999999999
 21
62.0
 31
0.0
  0
LINE
  5
208
  8
3
  6
CONTINUOUS
 62
   214
 10
387.0
 20
70.0
 30
0.0
 11
357.03659199999998
 21
70.0
 31
0.0
  0
LINE
  5
209
  8
3
  6
CONTINUOUS
 62
   214
 10
385.0
 20
62.0
 30
0.0
 11
386.03527599999978
 21
58.136296999999992
 31
0.0
  0
LINE
  5
20A
  8
3
  6
CONTINUOUS
 62
   214
 10
385.0
 20
62.0
 30
0.0
 11
383.9647240000001
 21
58.136296999999992
 31
0.0
  0
LINE
  5
20B
  8
3
  6
CONTINUOUS
 62
   214
 10
386.03527599999978
 20
58.136296999999992
 30
0.0
 11
383.9647240000001
 21
58.136296999999992
 31
0.0
  0
LINE
  5
20C
  8
3
  6
CONTINUOUS
 62
   214
 10
385.0
 20
61.034073999999997
 30
0.0
 11
385.51763799999998
 21
59.102223000000002
 31
0.0
  0
LINE
  5
20D
  8
3
  6
CONTINUOUS
 62
   214
 10
385.0
 20
61.034073999999997
 30
0.0
 11
384.48236200000002
 21
59.102223000000002
 31
0.0
  0
LINE
  5
20E
  8
3
  6
CONTINUOUS
 62
   214
 10
385.51763799999998
 20
59.102223000000002
 30
0.0
 11
384.48236200000002
 21
59.102223000000002
 31
0.0
  0
LINE
  5
20F
  8
3
  6
CONTINUOUS
 62
   214
 10
385.0
 20
70.0
 30
0.0
 11
383.9647240000001
 21
73.863703000000001
 31
0.0
  0
LINE
  5
210
  8
3
  6
CONTINUOUS
 62
   214
 10
385.0
 20
70.0
 30
0.0
 11
386.03527599999978
 21
73.863703000000001
 31
0.0
  0
LINE
  5
211
  8
3
  6
CONTINUOUS
 62
   214
 10
383.9647240000001
 20
73.863703000000001
 30
0.0
 11
386.03527599999978
 21
73.863703000000001
 31
0.0
  0
LINE
  5
212
  8
3
  6
CONTINUOUS
 62
   214
 10
385.0
 20
70.965925999999996
 30
0.0
 11
384.48236200000002
 21
72.897777000000005
 31
0.0
  0
LINE
  5
213
  8
3
  6
CONTINUOUS
 62
   214
 10
385.0
 20
70.965925999999996
 30
0.0
 11
385.51763799999998
 21
72.897777000000005
 31
0.0
  0
LINE
  5
214
  8
3
  6
CONTINUOUS
 62
   214
 10
384.48236200000002
 20
72.897777000000005
 30
0.0
 11
385.51763799999998
 21
72.897777000000005
 31
0.0
  0
TEXT
  5
215
  8
3
  6
CONTINUOUS
 62
   214
 10
385.0
 20
65.0
 30
0.0
 40
4.0
  1
8
 50
90.0
 41
0.5
 51
30.0
  7
KANJI
  0
ENDBLK
  5
216
  8
0
  0
BLOCK
  8
3
  6
CONTINUOUS
 62
   214
  2
*D28
 70
     1
 10
0.0
 20
0.0
 30
0.0
  3
*D28
  1

  0
LINE
  5
219
  8
3
  6
CONTINUOUS
 62
   214
 10
249.19999999999999
 20
80.0
 30
0.0
 11
233.19999999999999
 21
80.0
 31
0.0
  0
LINE
  5
21A
  8
3
  6
CONTINUOUS
 62
   214
 10
249.19999999999999
 20
82.0
 30
0.0
 11
249.19999999999999
 21
67.0
 31
0.0
  0
LINE
  5
21B
  8
3
  6
CONTINUOUS
 62
   214
 10
249.19999999999999
 20
80.0
 30
0.0
 11
245.336297
 21
78.964724000000004
 31
0.0
  0
LINE
  5
21C
  8
3
  6
CONTINUOUS
 62
   214
 10
249.19999999999999
 20
80.0
 30
0.0
 11
245.336297
 21
81.035275999999968
 31
0.0
  0
LINE
  5
21D
  8
3
  6
CONTINUOUS
 62
   214
 10
245.336297
 20
78.964724000000004
 30
0.0
 11
245.336297
 21
81.035275999999968
 31
0.0
  0
LINE
  5
21E
  8
3
  6
CONTINUOUS
 62
   214
 10
248.23407399999999
 20
80.0
 30
0.0
 11
246.302223
 21
79.482361999999981
 31
0.0
  0
LINE
  5
21F
  8
3
  6
CONTINUOUS
 62
   214
 10
248.23407399999999
 20
80.0
 30
0.0
 11
246.302223
 21
80.517638000000005
 31
0.0
  0
LINE
  5
220
  8
3
  6
CONTINUOUS
 62
   214
 10
246.302223
 20
79.482361999999981
 30
0.0
 11
246.302223
 21
80.517638000000005
 31
0.0
  0
LINE
  5
221
  8
3
  6
CONTINUOUS
 62
   214
 10
233.19999999999999
 20
80.0
 30
0.0
 11
237.063703
 21
81.035275999999968
 31
0.0
  0
LINE
  5
222
  8
3
  6
CONTINUOUS
 62
   214
 10
233.19999999999999
 20
80.0
 30
0.0
 11
237.063703
 21
78.964724000000004
 31
0.0
  0
LINE
  5
223
  8
3
  6
CONTINUOUS
 62
   214
 10
237.063703
 20
81.035275999999968
 30
0.0
 11
237.063703
 21
78.964724000000004
 31
0.0
  0
LINE
  5
224
  8
3
  6
CONTINUOUS
 62
   214
 10
234.16592600000001
 20
80.0
 30
0.0
 11
236.09777700000001
 21
80.517638000000005
 31
0.0
  0
LINE
  5
225
  8
3
  6
CONTINUOUS
 62
   214
 10
234.16592600000001
 20
80.0
 30
0.0
 11
236.09777700000001
 21
79.482361999999981
 31
0.0
  0
LINE
  5
226
  8
3
  6
CONTINUOUS
 62
   214
 10
236.09777700000001
 20
80.517638000000005
 30
0.0
 11
236.09777700000001
 21
79.482361999999981
 31
0.0
  0
TEXT
  5
227
  8
3
  6
CONTINUOUS
 62
   214
 10
239.19999999999999
 20
80.0
 30
0.0
 40
4.0
  1
16
 41
0.5
 51
30.0
  7
KANJI
  0
ENDBLK
  5
228
  8
0
  0
BLOCK
  8
3
  6
CONTINUOUS
 62
   214
  2
*D29
 70
     1
 10
0.0
 20
0.0
 30
0.0
  3
*D29
  1

  0
LINE
  5
22B
  8
3
  6
CONTINUOUS
 62
   214
 10
249.19999999999999
 20
80.0
 30
0.0
 11
361.19999999999999
 21
80.0
 31
0.0
  0
LINE
  5
22C
  8
3
  6
CONTINUOUS
 62
   214
 10
249.19999999999999
 20
82.0
 30
0.0
 11
249.19999999999999
 21
72.0
 31
0.0
  0
LINE
  5
22D
  8
3
  6
CONTINUOUS
 62
   214
 10
361.19999999999999
 20
82.0
 30
0.0
 11
361.19999999999999
 21
67.0
 31
0.0
  0
LINE
  5
22E
  8
3
  6
CONTINUOUS
 62
   214
 10
249.19999999999999
 20
80.0
 30
0.0
 11
253.063703
 21
81.035275999999968
 31
0.0
  0
LINE
  5
22F
  8
3
  6
CONTINUOUS
 62
   214
 10
249.19999999999999
 20
80.0
 30
0.0
 11
253.063703
 21
78.964724000000004
 31
0.0
  0
LINE
  5
230
  8
3
  6
CONTINUOUS
 62
   214
 10
253.063703
 20
81.035275999999968
 30
0.0
 11
253.063703
 21
78.964724000000004
 31
0.0
  0
LINE
  5
231
  8
3
  6
CONTINUOUS
 62
   214
 10
250.16592600000001
 20
80.0
 30
0.0
 11
252.09777700000001
 21
80.517638000000005
 31
0.0
  0
LINE
  5
232
  8
3
  6
CONTINUOUS
 62
   214
 10
250.16592600000001
 20
80.0
 30
0.0
 11
252.09777700000001
 21
79.482361999999981
 31
0.0
  0
LINE
  5
233
  8
3
  6
CONTINUOUS
 62
   214
 10
252.09777700000001
 20
80.517638000000005
 30
0.0
 11
252.09777700000001
 21
79.482361999999981
 31
0.0
  0
LINE
  5
234
  8
3
  6
CONTINUOUS
 62
   214
 10
361.19999999999999
 20
80.0
 30
0.0
 11
357.336297
 21
78.964724000000004
 31
0.0
  0
LINE
  5
235
  8
3
  6
CONTINUOUS
 62
   214
 10
361.19999999999999
 20
80.0
 30
0.0
 11
357.336297
 21
81.035275999999968
 31
0.0
  0
LINE
  5
236
  8
3
  6
CONTINUOUS
 62
   214
 10
357.336297
 20
78.964724000000004
 30
0.0
 11
357.336297
 21
81.035275999999968
 31
0.0
  0
LINE
  5
237
  8
3
  6
CONTINUOUS
 62
   214
 10
360.23407400000002
 20
80.0
 30
0.0
 11
358.30222300000008
 21
79.482361999999981
 31
0.0
  0
LINE
  5
238
  8
3
  6
CONTINUOUS
 62
   214
 10
360.23407400000002
 20
80.0
 30
0.0
 11
358.30222300000008
 21
80.517638000000005
 31
0.0
  0
LINE
  5
239
  8
3
  6
CONTINUOUS
 62
   214
 10
358.30222300000008
 20
79.482361999999981
 30
0.0
 11
358.30222300000008
 21
80.517638000000005
 31
0.0
  0
TEXT
  5
23A
  8
3
  6
CONTINUOUS
 62
   214
 10
302.19999999999999
 20
80.0
 30
0.0
 40
4.0
  1
112
 41
0.5
 51
30.0
  7
KANJI
  0
ENDBLK
  5
23B
  8
0
  0
BLOCK
  8
3
  6
CONTINUOUS
 62
   214
  2
*D30
 70
     1
 10
0.0
 20
0.0
 30
0.0
  3
*D30
  1

  0
LINE
  5
23E
  8
3
  6
CONTINUOUS
 62
   214
 10
90.900000000000006
 20
363.5
 30
0.0
 11
81.306779000000006
 21
373.09322100000003
 31
0.0
  0
LINE
  5
23F
  8
3
  6
CONTINUOUS
 62
   214
 10
90.900000000000006
 20
363.5
 30
0.0
 11
87.43589799999998
 21
365.5
 31
0.0
  0
LINE
  5
240
  8
3
  6
CONTINUOUS
 62
   214
 10
90.900000000000006
 20
363.5
 30
0.0
 11
88.900000000000006
 21
366.96410200000003
 31
0.0
  0
LINE
  5
241
  8
3
  6
CONTINUOUS
 62
   214
 10
87.43589799999998
 20
365.5
 30
0.0
 11
88.900000000000006
 21
366.96410200000003
 31
0.0
  0
LINE
  5
242
  8
3
  6
CONTINUOUS
 62
   214
 10
90.216986999999989
 20
364.18301300000002
 30
0.0
 11
88.484936000000005
 21
365.18301300000002
 31
0.0
  0
LINE
  5
243
  8
3
  6
CONTINUOUS
 62
   214
 10
90.216986999999989
 20
364.18301300000002
 30
0.0
 11
89.216987000000003
 21
365.91506399999997
 31
0.0
  0
LINE
  5
244
  8
3
  6
CONTINUOUS
 62
   214
 10
88.484936000000005
 20
365.18301300000002
 30
0.0
 11
89.216987000000003
 21
365.91506399999997
 31
0.0
  0
TEXT
  5
245
  8
3
  6
CONTINUOUS
 62
   214
 10
81.306779000000006
 20
373.09322100000003
 30
0.0
 40
4.0
  1
4-C1
 50
315.0
 41
0.5
 51
30.0
  7
KANJI
  0
ENDBLK
  5
246
  8
0
  0
BLOCK
  8
3
  6
CONTINUOUS
 62
   214
  2
*D31
 70
     1
 10
0.0
 20
0.0
 30
0.0
  3
*D31
  1

  0
LINE
  5
249
  8
3
  6
CONTINUOUS
 62
   214
 10
-53.600000000000001
 20
103.0
 30
0.0
 11
-75.0
 21
125.0
 31
0.0
  0
LINE
  5
24A
  8
3
  6
CONTINUOUS
 62
   214
 10
-56.040425999999989
 20
105.508849
 30
0.0
 11
-52.604301999999997
 21
103.46115399999999
 31
0.0
  0
LINE
  5
24B
  8
3
  6
CONTINUOUS
 62
   214
 10
-56.040425999999989
 20
105.508849
 30
0.0
 11
-54.088503000000003
 21
102.017431
 31
0.0
  0
LINE
  5
24C
  8
3
  6
CONTINUOUS
 62
   214
 10
-52.604301999999997
 20
103.46115399999999
 30
0.0
 11
-54.088503000000003
 21
102.017431
 31
0.0
  0
LINE
  5
24D
  8
3
  6
CONTINUOUS
 62
   214
 10
-55.366919999999993
 20
104.81646000000001
 30
0.0
 11
-53.64885799999999
 21
103.79261200000001
 31
0.0
  0
LINE
  5
24E
  8
3
  6
CONTINUOUS
 62
   214
 10
-55.366919999999993
 20
104.81646000000001
 30
0.0
 11
-54.390958999999981
 21
103.070751
 31
0.0
  0
LINE
  5
24F
  8
3
  6
CONTINUOUS
 62
   214
 10
-53.64885799999999
 20
103.79261200000001
 30
0.0
 11
-54.390958999999981
 21
103.070751
 31
0.0
  0
TEXT
  5
250
  8
3
  6
CONTINUOUS
 62
   214
 10
-74.302735999999982
 20
124.283186
 30
0.0
 40
4.0
  1
4-R3.5
 50
314.20794300000011
 41
0.5357140000000003
 51
30.0
  7
KANJI
  0
ENDBLK
  5
251
  8
0
  0
BLOCK
  8
3
  6
CONTINUOUS
 62
   214
  2
*D32
 70
     1
 10
0.0
 20
0.0
 30
0.0
  3
*D32
  1

  0
LINE
  5
254
  8
3
  6
CONTINUOUS
 62
   214
 10
25.350000000000001
 20
95.0
 30
0.0
 11
36.649999999999999
 21
95.0
 31
0.0
  0
LINE
  5
255
  8
3
  6
CONTINUOUS
 62
   214
 10
25.350000000000001
 20
93.0
 30
0.0
 11
25.350000000000001
 21
106.0
 31
0.0
  0
LINE
  5
256
  8
3
  6
CONTINUOUS
 62
   214
 10
36.649999999999999
 20
93.0
 30
0.0
 11
36.649999999999999
 21
106.0
 31
0.0
  0
LINE
  5
257
  8
3
  6
CONTINUOUS
 62
   214
 10
25.350000000000001
 20
95.0
 30
0.0
 11
21.486297
 21
93.964724000000004
 31
0.0
  0
LINE
  5
258
  8
3
  6
CONTINUOUS
 62
   214
 10
25.350000000000001
 20
95.0
 30
0.0
 11
21.486297
 21
96.035275999999996
 31
0.0
  0
LINE
  5
259
  8
3
  6
CONTINUOUS
 62
   214
 10
21.486297
 20
93.964724000000004
 30
0.0
 11
21.486297
 21
96.035275999999996
 31
0.0
  0
LINE
  5
25A
  8
3
  6
CONTINUOUS
 62
   214
 10
24.384073999999998
 20
95.0
 30
0.0
 11
22.452223
 21
94.482361999999995
 31
0.0
  0
LINE
  5
25B
  8
3
  6
CONTINUOUS
 62
   214
 10
24.384073999999998
 20
95.0
 30
0.0
 11
22.452223
 21
95.517638000000005
 31
0.0
  0
LINE
  5
25C
  8
3
  6
CONTINUOUS
 62
   214
 10
22.452223
 20
94.482361999999995
 30
0.0
 11
22.452223
 21
95.517638000000005
 31
0.0
  0
LINE
  5
25D
  8
3
  6
CONTINUOUS
 62
   214
 10
36.649999999999999
 20
95.0
 30
0.0
 11
40.513703
 21
96.035275999999996
 31
0.0
  0
LINE
  5
25E
  8
3
  6
CONTINUOUS
 62
   214
 10
36.649999999999999
 20
95.0
 30
0.0
 11
40.513703
 21
93.964724000000004
 31
0.0
  0
LINE
  5
25F
  8
3
  6
CONTINUOUS
 62
   214
 10
40.513703
 20
96.035275999999996
 30
0.0
 11
40.513703
 21
93.964724000000004
 31
0.0
  0
LINE
  5
260
  8
3
  6
CONTINUOUS
 62
   214
 10
37.615926000000002
 20
95.0
 30
0.0
 11
39.547777000000011
 21
95.517638000000005
 31
0.0
  0
LINE
  5
261
  8
3
  6
CONTINUOUS
 62
   214
 10
37.615926000000002
 20
95.0
 30
0.0
 11
39.547777000000011
 21
94.482361999999995
 31
0.0
  0
LINE
  5
262
  8
3
  6
CONTINUOUS
 62
   214
 10
39.547777000000011
 20
95.517638000000005
 30
0.0
 11
39.547777000000011
 21
94.482361999999995
 31
0.0
  0
TEXT
  5
263
  8
3
  6
CONTINUOUS
 62
   214
 10
25.0
 20
95.0
 30
0.0
 40
4.0
  1
φ11.3
 41
0.625
 51
30.0
  7
KANJI
  0
ENDBLK
  5
264
  8
0
  0
BLOCK
  8
3
  6
CONTINUOUS
 62
   214
  2
*D33
 70
     1
 10
0.0
 20
0.0
 30
0.0
  3
*D33
  1

  0
LINE
  5
267
  8
3
  6
CONTINUOUS
 62
   214
 10
1.399999999999999
 20
95.0
 30
0.0
 11
10.6
 21
95.0
 31
0.0
  0
LINE
  5
268
  8
3
  6
CONTINUOUS
 62
   214
 10
1.399999999999999
 20
93.0
 30
0.0
 11
1.399999999999999
 21
106.0
 31
0.0
  0
LINE
  5
269
  8
3
  6
CONTINUOUS
 62
   214
 10
10.6
 20
93.0
 30
0.0
 11
10.6
 21
106.0
 31
0.0
  0
LINE
  5
26A
  8
3
  6
CONTINUOUS
 62
   214
 10
1.399999999999999
 20
95.0
 30
0.0
 11
-2.463702999999998
 21
93.964724000000004
 31
0.0
  0
LINE
  5
26B
  8
3
  6
CONTINUOUS
 62
   214
 10
1.399999999999999
 20
95.0
 30
0.0
 11
-2.463702999999998
 21
96.035275999999996
 31
0.0
  0
LINE
  5
26C
  8
3
  6
CONTINUOUS
 62
   214
 10
-2.463702999999998
 20
93.964724000000004
 30
0.0
 11
-2.463702999999998
 21
96.035275999999996
 31
0.0
  0
LINE
  5
26D
  8
3
  6
CONTINUOUS
 62
   214
 10
0.434074
 20
95.0
 30
0.0
 11
-1.497776999999999
 21
94.482361999999995
 31
0.0
  0
LINE
  5
26E
  8
3
  6
CONTINUOUS
 62
   214
 10
0.434074
 20
95.0
 30
0.0
 11
-1.497776999999999
 21
95.517638000000005
 31
0.0
  0
LINE
  5
26F
  8
3
  6
CONTINUOUS
 62
   214
 10
-1.497776999999999
 20
94.482361999999995
 30
0.0
 11
-1.497776999999999
 21
95.517638000000005
 31
0.0
  0
LINE
  5
270
  8
3
  6
CONTINUOUS
 62
   214
 10
10.6
 20
95.0
 30
0.0
 11
14.463703000000001
 21
96.035275999999996
 31
0.0
  0
LINE
  5
271
  8
3
  6
CONTINUOUS
 62
   214
 10
10.6
 20
95.0
 30
0.0
 11
14.463703000000001
 21
93.964724000000004
 31
0.0
  0
LINE
  5
272
  8
3
  6
CONTINUOUS
 62
   214
 10
14.463703000000001
 20
96.035275999999996
 30
0.0
 11
14.463703000000001
 21
93.964724000000004
 31
0.0
  0
LINE
  5
273
  8
3
  6
CONTINUOUS
 62
   214
 10
11.565925999999999
 20
95.0
 30
0.0
 11
13.497776999999999
 21
95.517638000000005
 31
0.0
  0
LINE
  5
274
  8
3
  6
CONTINUOUS
 62
   214
 10
11.565925999999999
 20
95.0
 30
0.0
 11
13.497776999999999
 21
94.482361999999995
 31
0.0
  0
LINE
  5
275
  8
3
  6
CONTINUOUS
 62
   214
 10
13.497776999999999
 20
95.517638000000005
 30
0.0
 11
13.497776999999999
 21
94.482361999999995
 31
0.0
  0
TEXT
  5
276
  8
3
  6
CONTINUOUS
 62
   214
 10
1.0
 20
95.0
 30
0.0
 40
4.0
  1
φ9.2
 41
0.657895
 51
30.0
  7
KANJI
  0
ENDBLK
  5
277
  8
0
  0
BLOCK
  8
3
  6
CONTINUOUS
 62
   214
  2
*D34
 70
     1
 10
0.0
 20
0.0
 30
0.0
  3
*D34
  1

  0
LINE
  5
27A
  8
3
  6
CONTINUOUS
 62
   214
 10
385.0
 20
148.0
 30
0.0
 11
385.0
 21
70.0
 31
0.0
  0
LINE
  5
27B
  8
3
  6
CONTINUOUS
 62
   214
 10
387.0
 20
148.0
 30
0.0
 11
357.0
 21
148.0
 31
0.0
  0
LINE
  5
27C
  8
3
  6
CONTINUOUS
 62
   214
 10
385.0
 20
148.0
 30
0.0
 11
386.03527599999978
 21
144.13629700000001
 31
0.0
  0
LINE
  5
27D
  8
3
  6
CONTINUOUS
 62
   214
 10
385.0
 20
148.0
 30
0.0
 11
383.9647240000001
 21
144.13629700000001
 31
0.0
  0
LINE
  5
27E
  8
3
  6
CONTINUOUS
 62
   214
 10
386.03527599999978
 20
144.13629700000001
 30
0.0
 11
383.9647240000001
 21
144.13629700000001
 31
0.0
  0
LINE
  5
27F
  8
3
  6
CONTINUOUS
 62
   214
 10
385.0
 20
147.034074
 30
0.0
 11
385.51763799999998
 21
145.10222300000001
 31
0.0
  0
LINE
  5
280
  8
3
  6
CONTINUOUS
 62
   214
 10
385.0
 20
147.034074
 30
0.0
 11
384.48236200000002
 21
145.10222300000001
 31
0.0
  0
LINE
  5
281
  8
3
  6
CONTINUOUS
 62
   214
 10
385.51763799999998
 20
145.10222300000001
 30
0.0
 11
384.48236200000002
 21
145.10222300000001
 31
0.0
  0
LINE
  5
282
  8
3
  6
CONTINUOUS
 62
   214
 10
385.0
 20
70.0
 30
0.0
 11
383.9647240000001
 21
73.863703000000001
 31
0.0
  0
LINE
  5
283
  8
3
  6
CONTINUOUS
 62
   214
 10
385.0
 20
70.0
 30
0.0
 11
386.03527599999978
 21
73.863703000000001
 31
0.0
  0
LINE
  5
284
  8
3
  6
CONTINUOUS
 62
   214
 10
383.9647240000001
 20
73.863703000000001
 30
0.0
 11
386.03527599999978
 21
73.863703000000001
 31
0.0
  0
LINE
  5
285
  8
3
  6
CONTINUOUS
 62
   214
 10
385.0
 20
70.965925999999996
 30
0.0
 11
384.48236200000002
 21
72.897777000000005
 31
0.0
  0
LINE
  5
286
  8
3
  6
CONTINUOUS
 62
   214
 10
385.0
 20
70.965925999999996
 30
0.0
 11
385.51763799999998
 21
72.897777000000005
 31
0.0
  0
LINE
  5
287
  8
3
  6
CONTINUOUS
 62
   214
 10
384.48236200000002
 20
72.897777000000005
 30
0.0
 11
385.51763799999998
 21
72.897777000000005
 31
0.0
  0
TEXT
  5
288
  8
3
  6
CONTINUOUS
 62
   214
 10
385.0
 20
107.0
 30
0.0
 40
4.0
  1
78
 50
90.0
 41
0.5
 51
30.0
  7
KANJI
  0
ENDBLK
  5
289
  8
0
  0
BLOCK
  8
0
  2
*D35
 70
     1
 10
0.0
 20
0.0
 30
0.0
  3
*D35
  1

  0
LINE
  5
564
  8
3
  6
CONTINUOUS
 62
     0
 10
12.6
 20
95.0
 30
0.0
 11
11.6
 21
95.0
 31
0.0
  0
INSERT
  5
565
  8
0
  2
*U36
 10
0.0
 20
0.0
 30
0.0
  0
SOLID
  5
566
  8
3
  6
CONTINUOUS
 62
     0
 10
11.6
 20
95.166666666666686
 30
0.0
 11
11.6
 21
94.833333333333314
 31
0.0
 12
10.6
 22
95.0
 32
0.0
 13
10.6
 23
95.0
 33
0.0
  0
POINT
  5
567
  8
DEFPOINTS
  6
CONTINUOUS
 62
     0
 10
10.6
 20
95.0
 30
0.0
  0
POINT
  5
568
  8
DEFPOINTS
  6
CONTINUOUS
 62
     0
 10
1.399999999999999
 20
95.0
 30
0.0
  0
ENDBLK
  5
3E5
  8
0
  0
BLOCK
  8
0
  2
*U36
 70
     1
 10
0.0
 20
0.0
 30
0.0
  3
*U36
  1

  0
TEXT
  5
6A4
  8
3
 62
     0
 10
12.69
 20
94.909999999999997
 30
0.0
 40
0.18
  1
φ9.2
  0
ENDBLK
  5
6A6
  8
0
  0
BLOCK
  8
0
  2
*D37
 70
     1
 10
0.0
 20
0.0
 30
0.0
  3
*D37
  1

  0
LINE
  5
569
  8
3
  6
CONTINUOUS
 62
     0
 10
38.649999999999999
 20
95.0
 30
0.0
 11
37.649999999999999
 21
95.0
 31
0.0
  0
INSERT
  5
56A
  8
0
  2
*U38
 10
0.0
 20
0.0
 30
0.0
  0
SOLID
  5
56B
  8
3
  6
CONTINUOUS
 62
     0
 10
37.649999999999999
 20
95.166666666666686
 30
0.0
 11
37.649999999999999
 21
94.833333333333314
 31
0.0
 12
36.649999999999999
 22
95.0
 32
0.0
 13
36.649999999999999
 23
95.0
 33
0.0
  0
POINT
  5
56C
  8
DEFPOINTS
  6
CONTINUOUS
 62
     0
 10
36.649999999999999
 20
95.0
 30
0.0
  0
POINT
  5
56D
  8
DEFPOINTS
  6
CONTINUOUS
 62
     0
 10
25.350000000000001
 20
95.0
 30
0.0
  0
ENDBLK
  5
3ED
  8
0
  0
BLOCK
  8
0
  2
*U38
 70
     1
 10
0.0
 20
0.0
 30
0.0
  3
*U38
  1

  0
TEXT
  5
6A8
  8
3
 62
     0
 10
38.740000000000002
 20
94.909999999999997
 30
0.0
 40
0.18
  1
φ11.3
  0
ENDBLK
  5
6AA
  8
0
  0
BLOCK
  8
0
  2
*D39
 70
     1
 10
0.0
 20
0.0
 30
0.0
  3
*D39
  1

  0
LINE
  5
56E
  8
3
  6
CONTINUOUS
 62
     0
 10
-77.394528962793231
 20
126.43362790567519
 30
0.0
 11
-76.394528962793231
 21
126.43362790567519
 31
0.0
  0
LINE
  5
56F
  8
3
  6
CONTINUOUS
 62
     0
 10
-76.394528962793231
 20
126.43362790567519
 30
0.0
 11
-75.697264481396601
 21
125.7168139528376
 31
0.0
  0
INSERT
  5
570
  8
0
  2
*U40
 10
0.0
 20
0.0
 30
0.0
  0
SOLID
  5
571
  8
3
  6
CONTINUOUS
 62
     0
 10
-75.577795489257014
 20
125.833024699737
 30
0.0
 11
-75.816733473536189
 21
125.6006032059382
 31
0.0
 12
-75.0
 22
125.0
 32
0.0
 13
-75.0
 23
125.0
 33
0.0
  0
POINT
  5
572
  8
DEFPOINTS
  6
CONTINUOUS
 62
     0
 10
-75.0
 20
125.0
 30
0.0
  0
POINT
  5
573
  8
DEFPOINTS
  6
CONTINUOUS
 62
     0
 10
-53.59999999999998
 20
103.0
 30
0.0
  0
ENDBLK
  5
3F6
  8
0
  0
BLOCK
  8
0
  2
*U40
 70
     1
 10
0.0
 20
0.0
 30
0.0
  3
*U40
  1

  0
TEXT
  5
6AC
  8
3
 62
     0
 10
-78.384528962793212
 20
126.34362790567531
 30
0.0
 40
0.18
  1
4-R3.5
  0
ENDBLK
  5
6AE
  8
0
  0
BLOCK
  8
0
  2
*D41
 70
     1
 10
0.0
 20
0.0
 30
0.0
  3
*D41
  1

  0
LINE
  5
574
  8
3
  6
CONTINUOUS
 62
     0
 10
78.892565437626857
 20
374.50743456237302
 30
0.0
 11
79.892565437626857
 21
374.50743456237302
 31
0.0
  0
LINE
  5
575
  8
3
  6
CONTINUOUS
 62
     0
 10
79.892565437626857
 20
374.50743456237302
 30
0.0
 11
80.599672218813424
 21
373.80032778118652
 31
0.0
  0
INSERT
  5
576
  8
0
  2
*U42
 10
0.0
 20
0.0
 30
0.0
  0
SOLID
  5
577
  8
3
  6
CONTINUOUS
 62
     0
 10
80.717523349011174
 20
373.9181789113843
 30
0.0
 11
80.481821088615646
 21
373.68247665098869
 31
0.0
 12
81.306778999999977
 22
373.09322100000003
 32
0.0
 13
81.306778999999977
 23
373.09322100000003
 33
0.0
  0
POINT
  5
578
  8
DEFPOINTS
  6
CONTINUOUS
 62
     0
 10
81.306778999999977
 20
373.09322100000003
 30
0.0
  0
POINT
  5
579
  8
DEFPOINTS
  6
CONTINUOUS
 62
     0
 10
90.900000000000034
 20
363.49999999999989
 30
0.0
  0
ENDBLK
  5
3FF
  8
0
  0
BLOCK
  8
0
  2
*U42
 70
     1
 10
0.0
 20
0.0
 30
0.0
  3
*U42
  1

  0
TEXT
  5
6B0
  8
3
 62
     0
 10
78.202565437626831
 20
374.4174345623731
 30
0.0
 40
0.18
  1
4-C1
  0
ENDBLK
  5
6B2
  8
0
  0
BLOCK
  8
0
  2
*D43
 70
     1
 10
0.0
 20
0.0
 30
0.0
  3
*D43
  1

  0
LINE
  5
57A
  8
3
  6
CONTINUOUS
 62
     0
 10
-42.0
 20
117.0
 30
0.0
 11
-42.0
 21
125.0
 31
0.0
  0
LINE
  5
57B
  8
3
  6
CONTINUOUS
 62
     0
 10
-41.0
 20
125.0
 30
0.0
 11
8.7149999999999999
 21
125.0
 31
0.0
  0
LINE
  5
57C
  8
3
  6
CONTINUOUS
 62
     0
 10
59.0
 20
125.0
 30
0.0
 11
9.2850000000000001
 21
125.0
 31
0.0
  0
SOLID
  5
57D
  8
3
  6
CONTINUOUS
 62
     0
 10
-41.0
 20
125.1666666666666
 30
0.0
 11
-41.0
 21
124.8333333333333
 31
0.0
 12
-42.0
 22
125.0
 32
0.0
 13
-42.0
 23
125.0
 33
0.0
  0
SOLID
  5
57E
  8
3
  6
CONTINUOUS
 62
     0
 10
59.0
 20
125.1666666666666
 30
0.0
 11
59.0
 21
124.8333333333333
 31
0.0
 12
60.0
 22
125.0
 32
0.0
 13
60.0
 23
125.0
 33
0.0
  0
INSERT
  5
57F
  8
0
  2
*U44
 10
0.0
 20
0.0
 30
0.0
  0
POINT
  5
580
  8
DEFPOINTS
  6
CONTINUOUS
 62
     0
 10
-42.0
 20
117.0
 30
0.0
  0
POINT
  5
581
  8
DEFPOINTS
  6
CONTINUOUS
 62
     0
 10
60.0
 20
125.0
 30
0.0
  0
POINT
  5
582
  8
DEFPOINTS
  6
CONTINUOUS
 62
     0
 10
60.0
 20
125.0
 30
0.0
  0
ENDBLK
  5
40B
  8
0
  0
BLOCK
  8
0
  2
*U44
 70
     1
 10
0.0
 20
0.0
 30
0.0
  3
*U44
  1

  0
TEXT
  5
6B4
  8
3
 62
     0
 10
8.8049999999999962
 20
124.91
 30
0.0
 40
0.18
  1
102
  0
ENDBLK
  5
6B6
  8
0
  0
BLOCK
  8
0
  2
*D45
 70
     1
 10
0.0
 20
0.0
 30
0.0
  3
*D45
  1

  0
LINE
  5
583
  8
3
  6
CONTINUOUS
 62
     0
 10
-24.899999999999999
 20
106.5
 30
0.0
 11
-15.0
 21
106.5
 31
0.0
  0
LINE
  5
584
  8
3
  6
CONTINUOUS
 62
     0
 10
-24.899999999999999
 20
73.5
 30
0.0
 11
-15.000000000000011
 21
73.5
 31
0.0
  0
LINE
  5
585
  8
3
  6
CONTINUOUS
 62
     0
 10
-15.0
 20
105.5
 30
0.0
 11
-15.0
 21
90.180000000000007
 31
0.0
  0
LINE
  5
586
  8
3
  6
CONTINUOUS
 62
     0
 10
-15.000000000000011
 20
74.5
 30
0.0
 11
-15.0
 21
89.819999999999965
 31
0.0
  0
SOLID
  5
587
  8
3
  6
CONTINUOUS
 62
     0
 10
-15.166666666666661
 20
105.5
 30
0.0
 11
-14.83333333333333
 21
105.5
 31
0.0
 12
-15.0
 22
106.5
 32
0.0
 13
-15.0
 23
106.5
 33
0.0
  0
SOLID
  5
588
  8
3
  6
CONTINUOUS
 62
     0
 10
-15.16666666666667
 20
74.5
 30
0.0
 11
-14.833333333333339
 21
74.5
 31
0.0
 12
-15.000000000000011
 22
73.5
 32
0.0
 13
-15.000000000000011
 23
73.5
 33
0.0
  0
INSERT
  5
589
  8
0
  2
*U46
 10
0.0
 20
0.0
 30
0.0
  0
POINT
  5
58A
  8
DEFPOINTS
  6
CONTINUOUS
 62
     0
 10
-24.899999999999999
 20
106.5
 30
0.0
  0
POINT
  5
58B
  8
DEFPOINTS
  6
CONTINUOUS
 62
     0
 10
-24.899999999999999
 20
73.5
 30
0.0
  0
POINT
  5
58C
  8
DEFPOINTS
  6
CONTINUOUS
 62
     0
 10
-15.000000000000011
 20
73.5
 30
0.0
  0
ENDBLK
  5
418
  8
0
  0
BLOCK
  8
0
  2
*U46
 70
     1
 10
0.0
 20
0.0
 30
0.0
  3
*U46
  1

  0
TEXT
  5
6B8
  8
3
 62
     0
 10
-15.15000000000002
 20
89.909999999999968
 30
0.0
 40
0.18
  1
33
  0
ENDBLK
  5
6BA
  8
0
  0
BLOCK
  8
0
  2
*D47
 70
     1
 10
0.0
 20
0.0
 30
0.0
  3
*D47
  1

  0
LINE
  5
58D
  8
3
  6
CONTINUOUS
 62
     0
 10
62.25
 20
62.0
 30
0.0
 11
70.25
 21
62.0
 31
0.0
  0
LINE
  5
58E
  8
3
  6
CONTINUOUS
 62
     0
 10
-12.75
 20
90.0
 30
0.0
 11
70.25
 21
89.999999999999986
 31
0.0
  0
LINE
  5
58F
  8
3
  6
CONTINUOUS
 62
     0
 10
70.25
 20
63.0
 30
0.0
 11
70.25
 21
75.819999999999979
 31
0.0
  0
LINE
  5
590
  8
3
  6
CONTINUOUS
 62
     0
 10
70.25
 20
88.999999999999986
 30
0.0
 11
70.25
 21
76.179999999999978
 31
0.0
  0
SOLID
  5
591
  8
3
  6
CONTINUOUS
 62
     0
 10
70.083333333333314
 20
63.0
 30
0.0
 11
70.416666666666671
 21
63.0
 31
0.0
 12
70.25
 22
62.0
 32
0.0
 13
70.25
 23
62.0
 33
0.0
  0
SOLID
  5
592
  8
3
  6
CONTINUOUS
 62
     0
 10
70.083333333333314
 20
88.999999999999986
 30
0.0
 11
70.416666666666671
 21
88.999999999999986
 31
0.0
 12
70.25
 22
89.999999999999986
 32
0.0
 13
70.25
 23
89.999999999999986
 33
0.0
  0
INSERT
  5
593
  8
0
  2
*U48
 10
0.0
 20
0.0
 30
0.0
  0
POINT
  5
594
  8
DEFPOINTS
  6
CONTINUOUS
 62
     0
 10
62.25
 20
62.0
 30
0.0
  0
POINT
  5
595
  8
DEFPOINTS
  6
CONTINUOUS
 62
     0
 10
-12.75
 20
90.0
 30
0.0
  0
POINT
  5
596
  8
DEFPOINTS
  6
CONTINUOUS
 62
     0
 10
70.25
 20
89.999999999999986
 30
0.0
  0
ENDBLK
  5
425
  8
0
  0
BLOCK
  8
0
  2
*U48
 70
     1
 10
0.0
 20
0.0
 30
0.0
  3
*U48
  1

  0
TEXT
  5
6BC
  8
3
 62
     0
 10
70.09999999999998
 20
75.909999999999982
 30
0.0
 40
0.18
  1
28
  0
ENDBLK
  5
6BE
  8
0
  0
BLOCK
  8
0
  2
*D49
 70
     1
 10
0.0
 20
0.0
 30
0.0
  3
*D49
  1

  0
LINE
  5
597
  8
3
  6
CONTINUOUS
 62
     0
 10
-60.0
 20
87.044612999999998
 30
0.0
 11
-60.0
 21
120.0
 31
0.0
  0
LINE
  5
598
  8
3
  6
CONTINUOUS
 62
     0
 10
-24.0
 20
87.113510999999988
 30
0.0
 11
-24.0
 21
120.0
 31
0.0
  0
LINE
  5
599
  8
3
  6
CONTINUOUS
 62
     0
 10
-59.0
 20
120.0
 30
0.0
 11
-42.240000000000002
 21
120.0
 31
0.0
  0
LINE
  5
59A
  8
3
  6
CONTINUOUS
 62
     0
 10
-25.0
 20
120.0
 30
0.0
 11
-41.759999999999998
 21
120.0
 31
0.0
  0
SOLID
  5
59B
  8
3
  6
CONTINUOUS
 62
     0
 10
-59.0
 20
120.1666666666666
 30
0.0
 11
-59.0
 21
119.8333333333333
 31
0.0
 12
-60.0
 22
120.0
 32
0.0
 13
-60.0
 23
120.0
 33
0.0
  0
SOLID
  5
59C
  8
3
  6
CONTINUOUS
 62
     0
 10
-25.0
 20
120.1666666666666
 30
0.0
 11
-25.0
 21
119.8333333333333
 31
0.0
 12
-24.0
 22
120.0
 32
0.0
 13
-24.0
 23
120.0
 33
0.0
  0
INSERT
  5
59D
  8
0
  2
*U50
 10
0.0
 20
0.0
 30
0.0
  0
POINT
  5
59E
  8
DEFPOINTS
  6
CONTINUOUS
 62
     0
 10
-60.0
 20
87.044612999999998
 30
0.0
  0
POINT
  5
59F
  8
DEFPOINTS
  6
CONTINUOUS
 62
     0
 10
-24.0
 20
87.113510999999988
 30
0.0
  0
POINT
  5
5A0
  8
DEFPOINTS
  6
CONTINUOUS
 62
     0
 10
-24.0
 20
120.0
 30
0.0
  0
ENDBLK
  5
432
  8
0
  0
BLOCK
  8
0
  2
*U50
 70
     1
 10
0.0
 20
0.0
 30
0.0
  3
*U50
  1

  0
TEXT
  5
6C0
  8
3
 62
     0
 10
-42.149999999999977
 20
119.91
 30
0.0
 40
0.18
  1
36
  0
ENDBLK
  5
6C2
  8
0
  0
BLOCK
  8
0
  2
*D51
 70
     1
 10
0.0
 20
0.0
 30
0.0
  3
*D51
  1

  0
LINE
  5
5A1
  8
3
  6
CONTINUOUS
 62
     0
 10
-57.100000000000001
 20
108.5
 30
0.0
 11
-57.100000000000001
 21
115.0
 31
0.0
  0
LINE
  5
5A2
  8
3
  6
CONTINUOUS
 62
     0
 10
-26.899999999999999
 20
108.5
 30
0.0
 11
-26.899999999999999
 21
115.0
 31
0.0
  0
LINE
  5
5A3
  8
3
  6
CONTINUOUS
 62
     0
 10
-56.100000000000001
 20
115.0
 30
0.0
 11
-42.344999999999992
 21
115.0
 31
0.0
  0
LINE
  5
5A4
  8
3
  6
CONTINUOUS
 62
     0
 10
-27.899999999999999
 20
115.0
 30
0.0
 11
-41.655000000000001
 21
115.0
 31
0.0
  0
SOLID
  5
5A5
  8
3
  6
CONTINUOUS
 62
     0
 10
-56.100000000000001
 20
115.1666666666667
 30
0.0
 11
-56.100000000000001
 21
114.8333333333333
 31
0.0
 12
-57.100000000000001
 22
115.0
 32
0.0
 13
-57.100000000000001
 23
115.0
 33
0.0
  0
SOLID
  5
5A6
  8
3
  6
CONTINUOUS
 62
     0
 10
-27.899999999999999
 20
115.1666666666667
 30
0.0
 11
-27.899999999999999
 21
114.8333333333333
 31
0.0
 12
-26.899999999999999
 22
115.0
 32
0.0
 13
-26.899999999999999
 23
115.0
 33
0.0
  0
INSERT
  5
5A7
  8
0
  2
*U52
 10
0.0
 20
0.0
 30
0.0
  0
POINT
  5
5A8
  8
DEFPOINTS
  6
CONTINUOUS
 62
     0
 10
-57.100000000000001
 20
108.5
 30
0.0
  0
POINT
  5
5A9
  8
DEFPOINTS
  6
CONTINUOUS
 62
     0
 10
-26.899999999999999
 20
108.5
 30
0.0
  0
POINT
  5
5AA
  8
DEFPOINTS
  6
CONTINUOUS
 62
     0
 10
-26.899999999999999
 20
115.0
 30
0.0
  0
ENDBLK
  5
43F
  8
0
  0
BLOCK
  8
0
  2
*U52
 70
     1
 10
0.0
 20
0.0
 30
0.0
  3
*U52
  1

  0
TEXT
  5
6C4
  8
3
 62
     0
 10
-42.255000000000003
 20
114.91
 30
0.0
 40
0.18
  1
30.2
  0
ENDBLK
  5
6C6
  8
0
  0
BLOCK
  8
0
  2
*D53
 70
     1
 10
0.0
 20
0.0
 30
0.0
  3
*D53
  1

  0
LINE
  5
5AB
  8
3
  6
CONTINUOUS
 62
     0
 10
62.0
 20
62.0
 30
0.0
 11
80.0
 21
62.0
 31
0.0
  0
LINE
  5
5AC
  8
3
  6
CONTINUOUS
 62
     0
 10
62.0
 20
186.59999999999999
 30
0.0
 11
80.000000000000028
 21
186.59999999999991
 31
0.0
  0
LINE
  5
5AD
  8
3
  6
CONTINUOUS
 62
     0
 10
80.0
 20
63.0
 30
0.0
 11
80.000000000000014
 21
124.12
 31
0.0
  0
LINE
  5
5AE
  8
3
  6
CONTINUOUS
 62
     0
 10
80.000000000000028
 20
185.59999999999991
 30
0.0
 11
80.000000000000014
 21
124.48
 31
0.0
  0
SOLID
  5
5AF
  8
3
  6
CONTINUOUS
 62
     0
 10
79.833333333333329
 20
63.0
 30
0.0
 11
80.166666666666671
 21
62.999999999999993
 31
0.0
 12
80.0
 22
62.0
 32
0.0
 13
80.0
 23
62.0
 33
0.0
  0
SOLID
  5
5B0
  8
3
  6
CONTINUOUS
 62
     0
 10
79.833333333333343
 20
185.59999999999991
 30
0.0
 11
80.166666666666714
 21
185.59999999999991
 31
0.0
 12
80.000000000000028
 22
186.59999999999991
 32
0.0
 13
80.000000000000028
 23
186.59999999999991
 33
0.0
  0
INSERT
  5
5B1
  8
0
  2
*U54
 10
0.0
 20
0.0
 30
0.0
  0
POINT
  5
5B2
  8
DEFPOINTS
  6
CONTINUOUS
 62
     0
 10
62.0
 20
62.0
 30
0.0
  0
POINT
  5
5B3
  8
DEFPOINTS
  6
CONTINUOUS
 62
     0
 10
62.0
 20
186.59999999999999
 30
0.0
  0
POINT
  5
5B4
  8
DEFPOINTS
  6
CONTINUOUS
 62
     0
 10
80.000000000000028
 20
186.59999999999991
 30
0.0
  0
ENDBLK
  5
44C
  8
0
  0
BLOCK
  8
0
  2
*U54
 70
     1
 10
0.0
 20
0.0
 30
0.0
  3
*U54
  1

  0
TEXT
  5
6C8
  8
3
 62
     0
 10
79.549999999999983
 20
124.20999999999999
 30
0.0
 40
0.18
  1
(124.6)
  0
ENDBLK
  5
6CA
  8
0
  0
BLOCK
  8
0
  2
*D55
 70
     1
 10
0.0
 20
0.0
 30
0.0
  3
*D55
  1

  0
LINE
  5
5B5
  8
3
  6
CONTINUOUS
 62
     0
 10
62.0
 20
62.0
 30
0.0
 11
75.0
 21
62.0
 31
0.0
  0
LINE
  5
5B6
  8
3
  6
CONTINUOUS
 62
     0
 10
-3.0
 20
108.0
 30
0.0
 11
75.000000000000014
 21
108.0
 31
0.0
  0
LINE
  5
5B7
  8
3
  6
CONTINUOUS
 62
     0
 10
75.0
 20
63.0
 30
0.0
 11
75.0
 21
84.819999999999965
 31
0.0
  0
LINE
  5
5B8
  8
3
  6
CONTINUOUS
 62
     0
 10
75.000000000000014
 20
107.0
 30
0.0
 11
75.0
 21
85.179999999999978
 31
0.0
  0
SOLID
  5
5B9
  8
3
  6
CONTINUOUS
 62
     0
 10
74.833333333333329
 20
63.0
 30
0.0
 11
75.166666666666671
 21
63.0
 31
0.0
 12
75.0
 22
62.0
 32
0.0
 13
75.0
 23
62.0
 33
0.0
  0
SOLID
  5
5BA
  8
3
  6
CONTINUOUS
 62
     0
 10
74.833333333333343
 20
107.0
 30
0.0
 11
75.166666666666686
 21
107.0
 31
0.0
 12
75.000000000000014
 22
108.0
 32
0.0
 13
75.000000000000014
 23
108.0
 33
0.0
  0
INSERT
  5
5BB
  8
0
  2
*U56
 10
0.0
 20
0.0
 30
0.0
  0
POINT
  5
5BC
  8
DEFPOINTS
  6
CONTINUOUS
 62
     0
 10
62.0
 20
62.0
 30
0.0
  0
POINT
  5
5BD
  8
DEFPOINTS
  6
CONTINUOUS
 62
     0
 10
-3.0
 20
108.0
 30
0.0
  0
POINT
  5
5BE
  8
DEFPOINTS
  6
CONTINUOUS
 62
     0
 10
75.000000000000014
 20
108.0
 30
0.0
  0
ENDBLK
  5
459
  8
0
  0
BLOCK
  8
0
  2
*U56
 70
     1
 10
0.0
 20
0.0
 30
0.0
  3
*U56
  1

  0
TEXT
  5
6CC
  8
3
 62
     0
 10
74.84999999999998
 20
84.909999999999968
 30
0.0
 40
0.18
  1
46
  0
ENDBLK
  5
6CE
  8
0
  0
BLOCK
  8
0
  2
*D57
 70
     1
 10
0.0
 20
0.0
 30
0.0
  3
*D57
  1

  0
LINE
  5
5BF
  8
3
  6
CONTINUOUS
 62
     0
 10
32.0
 20
120.0
 30
0.0
 11
45.259999999999977
 21
120.0
 31
0.0
  0
LINE
  5
5C0
  8
3
  6
CONTINUOUS
 62
     0
 10
59.0
 20
120.0
 30
0.0
 11
45.740000000000002
 21
120.0
 31
0.0
  0
SOLID
  5
5C1
  8
3
  6
CONTINUOUS
 62
     0
 10
32.0
 20
120.1666666666666
 30
0.0
 11
32.0
 21
119.8333333333333
 31
0.0
 12
31.0
 22
120.0
 32
0.0
 13
31.0
 23
120.0
 33
0.0
  0
SOLID
  5
5C2
  8
3
  6
CONTINUOUS
 62
     0
 10
59.0
 20
120.1666666666666
 30
0.0
 11
59.0
 21
119.8333333333333
 31
0.0
 12
60.0
 22
120.0
 32
0.0
 13
60.0
 23
120.0
 33
0.0
  0
INSERT
  5
5C3
  8
0
  2
*U58
 10
0.0
 20
0.0
 30
0.0
  0
POINT
  5
5C4
  8
DEFPOINTS
  6
CONTINUOUS
 62
     0
 10
31.0
 20
120.0
 30
0.0
  0
POINT
  5
5C5
  8
DEFPOINTS
  6
CONTINUOUS
 62
     0
 10
60.0
 20
120.0
 30
0.0
  0
POINT
  5
5C6
  8
DEFPOINTS
  6
CONTINUOUS
 62
     0
 10
60.0
 20
120.0
 30
0.0
  0
ENDBLK
  5
464
  8
0
  0
BLOCK
  8
0
  2
*U58
 70
     1
 10
0.0
 20
0.0
 30
0.0
  3
*U58
  1

  0
TEXT
  5
6D0
  8
3
 62
     0
 10
45.350000000000001
 20
119.91
 30
0.0
 40
0.18
  1
29
  0
ENDBLK
  5
6D2
  8
0
  0
BLOCK
  8
0
  2
*D59
 70
     1
 10
0.0
 20
0.0
 30
0.0
  3
*D59
  1

  0
LINE
  5
5C7
  8
3
  6
CONTINUOUS
 62
     0
 10
6.0
 20
102.0
 30
0.0
 11
6.0
 21
120.0
 31
0.0
  0
LINE
  5
5C8
  8
3
  6
CONTINUOUS
 62
     0
 10
31.0
 20
101.909279
 30
0.0
 11
31.0
 21
120.0
 31
0.0
  0
LINE
  5
5C9
  8
3
  6
CONTINUOUS
 62
     0
 10
7.0
 20
120.0
 30
0.0
 11
18.260000000000002
 21
120.0
 31
0.0
  0
LINE
  5
5CA
  8
3
  6
CONTINUOUS
 62
     0
 10
30.0
 20
120.0
 30
0.0
 11
18.739999999999998
 21
120.0
 31
0.0
  0
SOLID
  5
5CB
  8
3
  6
CONTINUOUS
 62
     0
 10
7.0
 20
120.1666666666666
 30
0.0
 11
7.0
 21
119.8333333333333
 31
0.0
 12
6.0
 22
120.0
 32
0.0
 13
6.0
 23
120.0
 33
0.0
  0
SOLID
  5
5CC
  8
3
  6
CONTINUOUS
 62
     0
 10
30.0
 20
120.1666666666666
 30
0.0
 11
30.0
 21
119.8333333333333
 31
0.0
 12
31.0
 22
120.0
 32
0.0
 13
31.0
 23
120.0
 33
0.0
  0
INSERT
  5
5CD
  8
0
  2
*U60
 10
0.0
 20
0.0
 30
0.0
  0
POINT
  5
5CE
  8
DEFPOINTS
  6
CONTINUOUS
 62
     0
 10
6.0
 20
102.0
 30
0.0
  0
POINT
  5
5CF
  8
DEFPOINTS
  6
CONTINUOUS
 62
     0
 10
31.0
 20
101.909279
 30
0.0
  0
POINT
  5
5D0
  8
DEFPOINTS
  6
CONTINUOUS
 62
     0
 10
31.0
 20
120.0
 30
0.0
  0
ENDBLK
  5
471
  8
0
  0
BLOCK
  8
0
  2
*U60
 70
     1
 10
0.0
 20
0.0
 30
0.0
  3
*U60
  1

  0
TEXT
  5
6D4
  8
3
 62
     0
 10
18.350000000000001
 20
119.91
 30
0.0
 40
0.18
  1
25
  0
ENDBLK
  5
6D6
  8
0
  0
BLOCK
  8
0
  2
*D61
 70
     1
 10
0.0
 20
0.0
 30
0.0
  3
*D61
  1

  0
LINE
  5
5D1
  8
3
  6
CONTINUOUS
 62
     0
 10
211.59999999999999
 20
62.0
 30
0.0
 11
220.0
 21
62.0
 31
0.0
  0
LINE
  5
5D2
  8
3
  6
CONTINUOUS
 62
     0
 10
195.0
 20
185.0
 30
0.0
 11
220.0
 21
185.0
 31
0.0
  0
LINE
  5
5D3
  8
3
  6
CONTINUOUS
 62
     0
 10
220.0
 20
63.0
 30
0.0
 11
220.0
 21
123.31999999999999
 31
0.0
  0
LINE
  5
5D4
  8
3
  6
CONTINUOUS
 62
     0
 10
220.0
 20
184.0
 30
0.0
 11
220.0
 21
123.68000000000001
 31
0.0
  0
SOLID
  5
5D5
  8
3
  6
CONTINUOUS
 62
     0
 10
219.8333333333334
 20
63.0
 30
0.0
 11
220.16666666666671
 21
63.0
 31
0.0
 12
220.0
 22
62.0
 32
0.0
 13
220.0
 23
62.0
 33
0.0
  0
SOLID
  5
5D6
  8
3
  6
CONTINUOUS
 62
     0
 10
219.8333333333334
 20
184.0
 30
0.0
 11
220.16666666666671
 21
184.0
 31
0.0
 12
220.0
 22
185.0
 32
0.0
 13
220.0
 23
185.0
 33
0.0
  0
INSERT
  5
5D7
  8
0
  2
*U62
 10
0.0
 20
0.0
 30
0.0
  0
POINT
  5
5D8
  8
DEFPOINTS
  6
CONTINUOUS
 62
     0
 10
211.59999999999999
 20
62.0
 30
0.0
  0
POINT
  5
5D9
  8
DEFPOINTS
  6
CONTINUOUS
 62
     0
 10
195.0
 20
185.0
 30
0.0
  0
POINT
  5
5DA
  8
DEFPOINTS
  6
CONTINUOUS
 62
     0
 10
220.0
 20
185.0
 30
0.0
  0
ENDBLK
  5
47E
  8
0
  0
BLOCK
  8
0
  2
*U62
 70
     1
 10
0.0
 20
0.0
 30
0.0
  3
*U62
  1

  0
TEXT
  5
6D8
  8
3
 62
     0
 10
219.78999999999999
 20
123.41
 30
0.0
 40
0.18
  1
123
  0
ENDBLK
  5
6DA
  8
0
  0
BLOCK
  8
0
  2
*D63
 70
     1
 10
0.0
 20
0.0
 30
0.0
  3
*D63
  1

  0
LINE
  5
5DB
  8
3
  6
CONTINUOUS
 62
     0
 10
211.59999999999999
 20
351.25
 30
0.0
 11
215.30787699999999
 21
351.25
 31
0.0
  0
LINE
  5
5DC
  8
3
  6
CONTINUOUS
 62
     0
 10
211.59999999999999
 20
346.75
 30
0.0
 11
215.30787699999999
 21
346.75
 31
0.0
  0
LINE
  5
5DD
  8
3
  6
CONTINUOUS
 62
     0
 10
215.30787699999999
 20
350.25
 30
0.0
 11
215.30787699999999
 21
349.18000000000001
 31
0.0
  0
LINE
  5
5DE
  8
3
  6
CONTINUOUS
 62
     0
 10
215.30787699999999
 20
347.75
 30
0.0
 11
215.30787699999999
 21
348.81999999999999
 31
0.0
  0
SOLID
  5
5DF
  8
3
  6
CONTINUOUS
 62
     0
 10
215.14121033333331
 20
350.25
 30
0.0
 11
215.47454366666659
 21
350.25
 31
0.0
 12
215.30787699999999
 22
351.25
 32
0.0
 13
215.30787699999999
 23
351.25
 33
0.0
  0
SOLID
  5
5E0
  8
3
  6
CONTINUOUS
 62
     0
 10
215.14121033333331
 20
347.75
 30
0.0
 11
215.47454366666659
 21
347.75
 31
0.0
 12
215.30787699999999
 22
346.75
 32
0.0
 13
215.30787699999999
 23
346.75
 33
0.0
  0
INSERT
  5
5E1
  8
0
  2
*U64
 10
0.0
 20
0.0
 30
0.0
  0
POINT
  5
5E2
  8
DEFPOINTS
  6
CONTINUOUS
 62
     0
 10
211.59999999999999
 20
351.25
 30
0.0
  0
POINT
  5
5E3
  8
DEFPOINTS
  6
CONTINUOUS
 62
     0
 10
211.59999999999999
 20
346.75
 30
0.0
  0
POINT
  5
5E4
  8
DEFPOINTS
  6
CONTINUOUS
 62
     0
 10
215.30787699999999
 20
346.75
 30
0.0
  0
ENDBLK
  5
48B
  8
0
  0
BLOCK
  8
0
  2
*U64
 70
     1
 10
0.0
 20
0.0
 30
0.0
  3
*U64
  1

  0
TEXT
  5
6DC
  8
3
 62
     0
 10
215.1278769999999
 20
348.91000000000008
 30
0.0
 40
0.18
  1
4.5
  0
ENDBLK
  5
6DE
  8
0
  0
BLOCK
  8
0
  2
*D65
 70
     1
 10
0.0
 20
0.0
 30
0.0
  3
*D65
  1

  0
LINE
  5
5E5
  8
3
  6
CONTINUOUS
 62
     0
 10
211.59999999999999
 20
364.0
 30
0.0
 11
220.0
 21
364.0
 31
0.0
  0
LINE
  5
5E6
  8
3
  6
CONTINUOUS
 62
     0
 10
175.0
 20
359.0
 30
0.0
 11
220.0
 21
359.0
 31
0.0
  0
LINE
  5
5E7
  8
3
  6
CONTINUOUS
 62
     0
 10
220.0
 20
363.0
 30
0.0
 11
220.0
 21
361.68000000000001
 31
0.0
  0
LINE
  5
5E8
  8
3
  6
CONTINUOUS
 62
     0
 10
220.0
 20
360.0
 30
0.0
 11
220.0
 21
361.31999999999999
 31
0.0
  0
SOLID
  5
5E9
  8
3
  6
CONTINUOUS
 62
     0
 10
219.8333333333334
 20
363.0
 30
0.0
 11
220.16666666666671
 21
363.0
 31
0.0
 12
220.0
 22
364.0
 32
0.0
 13
220.0
 23
364.0
 33
0.0
  0
SOLID
  5
5EA
  8
3
  6
CONTINUOUS
 62
     0
 10
219.8333333333334
 20
360.0
 30
0.0
 11
220.16666666666671
 21
360.0
 31
0.0
 12
220.0
 22
359.0
 32
0.0
 13
220.0
 23
359.0
 33
0.0
  0
INSERT
  5
5EB
  8
0
  2
*U66
 10
0.0
 20
0.0
 30
0.0
  0
POINT
  5
5EC
  8
DEFPOINTS
  6
CONTINUOUS
 62
     0
 10
211.59999999999999
 20
364.0
 30
0.0
  0
POINT
  5
5ED
  8
DEFPOINTS
  6
CONTINUOUS
 62
     0
 10
175.0
 20
359.0
 30
0.0
  0
POINT
  5
5EE
  8
DEFPOINTS
  6
CONTINUOUS
 62
     0
 10
220.0
 20
359.0
 30
0.0
  0
ENDBLK
  5
498
  8
0
  0
BLOCK
  8
0
  2
*U66
 70
     1
 10
0.0
 20
0.0
 30
0.0
  3
*U66
  1

  0
TEXT
  5
6E0
  8
3
 62
     0
 10
219.93999999999991
 20
361.41000000000008
 30
0.0
 40
0.18
  1
5
  0
ENDBLK
  5
6E2
  8
0
  0
BLOCK
  8
0
  2
*D67
 70
     1
 10
0.0
 20
0.0
 30
0.0
  3
*D67
  1

  0
LINE
  5
5EF
  8
3
  6
CONTINUOUS
 62
     0
 10
211.59999999999999
 20
220.0
 30
0.0
 11
220.0
 21
220.0
 31
0.0
  0
LINE
  5
5F0
  8
3
  6
CONTINUOUS
 62
     0
 10
175.0
 20
225.0
 30
0.0
 11
220.0
 21
225.0
 31
0.0
  0
LINE
  5
5F1
  8
3
  6
CONTINUOUS
 62
     0
 10
220.0
 20
221.0
 30
0.0
 11
220.0
 21
222.31999999999999
 31
0.0
  0
LINE
  5
5F2
  8
3
  6
CONTINUOUS
 62
     0
 10
220.0
 20
224.0
 30
0.0
 11
220.0
 21
222.68000000000001
 31
0.0
  0
SOLID
  5
5F3
  8
3
  6
CONTINUOUS
 62
     0
 10
219.8333333333334
 20
221.0
 30
0.0
 11
220.16666666666671
 21
221.0
 31
0.0
 12
220.0
 22
220.0
 32
0.0
 13
220.0
 23
220.0
 33
0.0
  0
SOLID
  5
5F4
  8
3
  6
CONTINUOUS
 62
     0
 10
219.8333333333334
 20
224.0
 30
0.0
 11
220.16666666666671
 21
224.0
 31
0.0
 12
220.0
 22
225.0
 32
0.0
 13
220.0
 23
225.0
 33
0.0
  0
INSERT
  5
5F5
  8
0
  2
*U68
 10
0.0
 20
0.0
 30
0.0
  0
POINT
  5
5F6
  8
DEFPOINTS
  6
CONTINUOUS
 62
     0
 10
211.59999999999999
 20
220.0
 30
0.0
  0
POINT
  5
5F7
  8
DEFPOINTS
  6
CONTINUOUS
 62
     0
 10
175.0
 20
225.0
 30
0.0
  0
POINT
  5
5F8
  8
DEFPOINTS
  6
CONTINUOUS
 62
     0
 10
220.0
 20
225.0
 30
0.0
  0
ENDBLK
  5
4A5
  8
0
  0
BLOCK
  8
0
  2
*U68
 70
     1
 10
0.0
 20
0.0
 30
0.0
  3
*U68
  1

  0
TEXT
  5
6E4
  8
3
 62
     0
 10
219.93999999999991
 20
222.41
 30
0.0
 40
0.18
  1
5
  0
ENDBLK
  5
6E6
  8
0
  0
BLOCK
  8
0
  2
*D69
 70
     1
 10
0.0
 20
0.0
 30
0.0
  3
*D69
  1

  0
LINE
  5
5F9
  8
3
  6
CONTINUOUS
 62
     0
 10
182.0
 20
338.5
 30
0.0
 11
220.0
 21
338.5
 31
0.0
  0
LINE
  5
5FA
  8
3
  6
CONTINUOUS
 62
     0
 10
220.0
 20
308.5
 30
0.0
 11
220.0
 21
322.81999999999999
 31
0.0
  0
LINE
  5
5FB
  8
3
  6
CONTINUOUS
 62
     0
 10
220.0
 20
337.5
 30
0.0
 11
220.0
 21
323.18000000000001
 31
0.0
  0
SOLID
  5
5FC
  8
3
  6
CONTINUOUS
 62
     0
 10
219.8333333333334
 20
308.5
 30
0.0
 11
220.16666666666671
 21
308.5
 31
0.0
 12
220.0
 22
307.5
 32
0.0
 13
220.0
 23
307.5
 33
0.0
  0
SOLID
  5
5FD
  8
3
  6
CONTINUOUS
 62
     0
 10
219.8333333333334
 20
337.5
 30
0.0
 11
220.16666666666671
 21
337.5
 31
0.0
 12
220.0
 22
338.5
 32
0.0
 13
220.0
 23
338.5
 33
0.0
  0
INSERT
  5
5FE
  8
0
  2
*U70
 10
0.0
 20
0.0
 30
0.0
  0
POINT
  5
5FF
  8
DEFPOINTS
  6
CONTINUOUS
 62
     0
 10
220.0
 20
307.5
 30
0.0
  0
POINT
  5
600
  8
DEFPOINTS
  6
CONTINUOUS
 62
     0
 10
182.0
 20
338.5
 30
0.0
  0
POINT
  5
601
  8
DEFPOINTS
  6
CONTINUOUS
 62
     0
 10
220.0
 20
338.5
 30
0.0
  0
ENDBLK
  5
4B1
  8
0
  0
BLOCK
  8
0
  2
*U70
 70
     1
 10
0.0
 20
0.0
 30
0.0
  3
*U70
  1

  0
TEXT
  5
6E8
  8
3
 62
     0
 10
219.88
 20
322.91000000000008
 30
0.0
 40
0.18
  1
31
  0
ENDBLK
  5
6EA
  8
0
  0
BLOCK
  8
0
  2
*D71
 70
     1
 10
0.0
 20
0.0
 30
0.0
  3
*D71
  1

  0
LINE
  5
602
  8
3
  6
CONTINUOUS
 62
     0
 10
182.0
 20
307.5
 30
0.0
 11
220.0
 21
307.5
 31
0.0
  0
LINE
  5
603
  8
3
  6
CONTINUOUS
 62
     0
 10
220.0
 20
277.5
 30
0.0
 11
220.0
 21
291.81999999999999
 31
0.0
  0
LINE
  5
604
  8
3
  6
CONTINUOUS
 62
     0
 10
220.0
 20
306.5
 30
0.0
 11
220.0
 21
292.18000000000001
 31
0.0
  0
SOLID
  5
605
  8
3
  6
CONTINUOUS
 62
     0
 10
219.8333333333334
 20
277.5
 30
0.0
 11
220.16666666666671
 21
277.5
 31
0.0
 12
220.0
 22
276.5
 32
0.0
 13
220.0
 23
276.5
 33
0.0
  0
SOLID
  5
606
  8
3
  6
CONTINUOUS
 62
     0
 10
219.8333333333334
 20
306.5
 30
0.0
 11
220.16666666666671
 21
306.5
 31
0.0
 12
220.0
 22
307.5
 32
0.0
 13
220.0
 23
307.5
 33
0.0
  0
INSERT
  5
607
  8
0
  2
*U72
 10
0.0
 20
0.0
 30
0.0
  0
POINT
  5
608
  8
DEFPOINTS
  6
CONTINUOUS
 62
     0
 10
220.0
 20
276.5
 30
0.0
  0
POINT
  5
609
  8
DEFPOINTS
  6
CONTINUOUS
 62
     0
 10
182.0
 20
307.5
 30
0.0
  0
POINT
  5
60A
  8
DEFPOINTS
  6
CONTINUOUS
 62
     0
 10
220.0
 20
307.5
 30
0.0
  0
ENDBLK
  5
4BD
  8
0
  0
BLOCK
  8
0
  2
*U72
 70
     1
 10
0.0
 20
0.0
 30
0.0
  3
*U72
  1

  0
TEXT
  5
6EC
  8
3
 62
     0
 10
219.88
 20
291.91000000000008
 30
0.0
 40
0.18
  1
31
  0
ENDBLK
  5
6EE
  8
0
  0
BLOCK
  8
0
  2
*D73
 70
     1
 10
0.0
 20
0.0
 30
0.0
  3
*D73
  1

  0
LINE
  5
60B
  8
3
  6
CONTINUOUS
 62
     0
 10
192.0
 20
245.5
 30
0.0
 11
220.0
 21
245.5
 31
0.0
  0
LINE
  5
60C
  8
3
  6
CONTINUOUS
 62
     0
 10
182.0
 20
276.5
 30
0.0
 11
220.0
 21
276.5
 31
0.0
  0
LINE
  5
60D
  8
3
  6
CONTINUOUS
 62
     0
 10
220.0
 20
246.5
 30
0.0
 11
220.0
 21
260.81999999999999
 31
0.0
  0
LINE
  5
60E
  8
3
  6
CONTINUOUS
 62
     0
 10
220.0
 20
275.5
 30
0.0
 11
220.0
 21
261.18000000000001
 31
0.0
  0
SOLID
  5
60F
  8
3
  6
CONTINUOUS
 62
     0
 10
219.8333333333334
 20
246.5
 30
0.0
 11
220.16666666666671
 21
246.5
 31
0.0
 12
220.0
 22
245.5
 32
0.0
 13
220.0
 23
245.5
 33
0.0
  0
SOLID
  5
610
  8
3
  6
CONTINUOUS
 62
     0
 10
219.8333333333334
 20
275.5
 30
0.0
 11
220.16666666666671
 21
275.5
 31
0.0
 12
220.0
 22
276.5
 32
0.0
 13
220.0
 23
276.5
 33
0.0
  0
INSERT
  5
611
  8
0
  2
*U74
 10
0.0
 20
0.0
 30
0.0
  0
POINT
  5
612
  8
DEFPOINTS
  6
CONTINUOUS
 62
     0
 10
192.0
 20
245.5
 30
0.0
  0
POINT
  5
613
  8
DEFPOINTS
  6
CONTINUOUS
 62
     0
 10
182.0
 20
276.5
 30
0.0
  0
POINT
  5
614
  8
DEFPOINTS
  6
CONTINUOUS
 62
     0
 10
220.0
 20
276.5
 30
0.0
  0
ENDBLK
  5
4CA
  8
0
  0
BLOCK
  8
0
  2
*U74
 70
     1
 10
0.0
 20
0.0
 30
0.0
  3
*U74
  1

  0
TEXT
  5
6F0
  8
3
 62
     0
 10
219.88
 20
260.91000000000008
 30
0.0
 40
0.18
  1
31
  0
ENDBLK
  5
6F2
  8
0
  0
BLOCK
  8
0
  2
*D75
 70
     1
 10
0.0
 20
0.0
 30
0.0
  3
*D75
  1

  0
LINE
  5
615
  8
3
  6
CONTINUOUS
 62
     0
 10
88.400000000000006
 20
220.0
 30
0.0
 11
75.0
 21
220.0
 31
0.0
  0
LINE
  5
616
  8
3
  6
CONTINUOUS
 62
     0
 10
88.400000000000006
 20
364.0
 30
0.0
 11
75.000000000000028
 21
364.0
 31
0.0
  0
LINE
  5
617
  8
3
  6
CONTINUOUS
 62
     0
 10
75.0
 20
221.0
 30
0.0
 11
75.000000000000028
 21
291.81999999999999
 31
0.0
  0
LINE
  5
618
  8
3
  6
CONTINUOUS
 62
     0
 10
75.000000000000028
 20
363.0
 30
0.0
 11
75.000000000000028
 21
292.18000000000001
 31
0.0
  0
SOLID
  5
619
  8
3
  6
CONTINUOUS
 62
     0
 10
74.833333333333329
 20
221.0
 30
0.0
 11
75.166666666666671
 21
221.0
 31
0.0
 12
75.0
 22
220.0
 32
0.0
 13
75.0
 23
220.0
 33
0.0
  0
SOLID
  5
61A
  8
3
  6
CONTINUOUS
 62
     0
 10
74.833333333333371
 20
363.0
 30
0.0
 11
75.1666666666667
 21
363.0
 31
0.0
 12
75.000000000000028
 22
364.0
 32
0.0
 13
75.000000000000028
 23
364.0
 33
0.0
  0
INSERT
  5
61B
  8
0
  2
*U76
 10
0.0
 20
0.0
 30
0.0
  0
POINT
  5
61C
  8
DEFPOINTS
  6
CONTINUOUS
 62
     0
 10
88.400000000000006
 20
220.0
 30
0.0
  0
POINT
  5
61D
  8
DEFPOINTS
  6
CONTINUOUS
 62
     0
 10
88.400000000000006
 20
364.0
 30
0.0
  0
POINT
  5
61E
  8
DEFPOINTS
  6
CONTINUOUS
 62
     0
 10
75.000000000000028
 20
364.0
 30
0.0
  0
ENDBLK
  5
4D7
  8
0
  0
BLOCK
  8
0
  2
*U76
 70
     1
 10
0.0
 20
0.0
 30
0.0
  3
*U76
  1

  0
TEXT
  5
6F4
  8
3
 62
     0
 10
74.789999999999978
 20
291.91000000000008
 30
0.0
 40
0.18
  1
144
  0
ENDBLK
  5
6F6
  8
0
  0
BLOCK
  8
0
  2
*D77
 70
     1
 10
0.0
 20
0.0
 30
0.0
  3
*D77
  1

  0
LINE
  5
61F
  8
3
  6
CONTINUOUS
 62
     0
 10
98.400000000000006
 20
349.0
 30
0.0
 11
80.0
 21
349.0
 31
0.0
  0
LINE
  5
620
  8
3
  6
CONTINUOUS
 62
     0
 10
80.0
 20
348.0
 30
0.0
 11
80.0
 21
292.18000000000001
 31
0.0
  0
LINE
  5
621
  8
3
  6
CONTINUOUS
 62
     0
 10
79.999999999999986
 20
236.0
 30
0.0
 11
80.0
 21
291.81999999999999
 31
0.0
  0
SOLID
  5
622
  8
3
  6
CONTINUOUS
 62
     0
 10
79.833333333333329
 20
348.0
 30
0.0
 11
80.166666666666671
 21
348.0
 31
0.0
 12
80.0
 22
349.0
 32
0.0
 13
80.0
 23
349.0
 33
0.0
  0
SOLID
  5
623
  8
3
  6
CONTINUOUS
 62
     0
 10
79.833333333333314
 20
236.0
 30
0.0
 11
80.166666666666629
 21
236.0
 31
0.0
 12
79.999999999999986
 22
235.0
 32
0.0
 13
79.999999999999986
 23
235.0
 33
0.0
  0
INSERT
  5
624
  8
0
  2
*U78
 10
0.0
 20
0.0
 30
0.0
  0
POINT
  5
625
  8
DEFPOINTS
  6
CONTINUOUS
 62
     0
 10
98.400000000000006
 20
349.0
 30
0.0
  0
POINT
  5
626
  8
DEFPOINTS
  6
CONTINUOUS
 62
     0
 10
80.0
 20
235.0
 30
0.0
  0
POINT
  5
627
  8
DEFPOINTS
  6
CONTINUOUS
 62
     0
 10
79.999999999999986
 20
235.0
 30
0.0
  0
ENDBLK
  5
4E3
  8
0
  0
BLOCK
  8
0
  2
*U78
 70
     1
 10
0.0
 20
0.0
 30
0.0
  3
*U78
  1

  0
TEXT
  5
6F8
  8
3
 62
     0
 10
79.819999999999936
 20
291.91000000000008
 30
0.0
 40
0.18
  1
114
  0
ENDBLK
  5
6FA
  8
0
  0
BLOCK
  8
0
  2
*D79
 70
     1
 10
0.0
 20
0.0
 30
0.0
  3
*D79
  1

  0
LINE
  5
628
  8
3
  6
CONTINUOUS
 62
     0
 10
88.400000000000006
 20
220.0
 30
0.0
 11
80.0
 21
220.0
 31
0.0
  0
LINE
  5
629
  8
3
  6
CONTINUOUS
 62
     0
 10
98.400000000000006
 20
235.0
 30
0.0
 11
80.000000000000014
 21
235.0
 31
0.0
  0
LINE
  5
62A
  8
3
  6
CONTINUOUS
 62
     0
 10
80.0
 20
221.0
 30
0.0
 11
80.000000000000014
 21
227.31999999999999
 31
0.0
  0
LINE
  5
62B
  8
3
  6
CONTINUOUS
 62
     0
 10
80.000000000000014
 20
234.0
 30
0.0
 11
80.000000000000014
 21
227.68000000000001
 31
0.0
  0
SOLID
  5
62C
  8
3
  6
CONTINUOUS
 62
     0
 10
79.833333333333329
 20
221.0
 30
0.0
 11
80.166666666666671
 21
221.0
 31
0.0
 12
80.0
 22
220.0
 32
0.0
 13
80.0
 23
220.0
 33
0.0
  0
SOLID
  5
62D
  8
3
  6
CONTINUOUS
 62
     0
 10
79.833333333333343
 20
234.0
 30
0.0
 11
80.166666666666686
 21
234.0
 31
0.0
 12
80.000000000000014
 22
235.0
 32
0.0
 13
80.000000000000014
 23
235.0
 33
0.0
  0
INSERT
  5
62E
  8
0
  2
*U80
 10
0.0
 20
0.0
 30
0.0
  0
POINT
  5
62F
  8
DEFPOINTS
  6
CONTINUOUS
 62
     0
 10
88.400000000000006
 20
220.0
 30
0.0
  0
POINT
  5
630
  8
DEFPOINTS
  6
CONTINUOUS
 62
     0
 10
98.400000000000006
 20
235.0
 30
0.0
  0
POINT
  5
631
  8
DEFPOINTS
  6
CONTINUOUS
 62
     0
 10
80.000000000000014
 20
235.0
 30
0.0
  0
ENDBLK
  5
4F0
  8
0
  0
BLOCK
  8
0
  2
*U80
 70
     1
 10
0.0
 20
0.0
 30
0.0
  3
*U80
  1

  0
TEXT
  5
6FC
  8
3
 62
     0
 10
79.879999999999967
 20
227.41
 30
0.0
 40
0.18
  1
15
  0
ENDBLK
  5
6FE
  8
0
  0
BLOCK
  8
0
  2
*D81
 70
     1
 10
0.0
 20
0.0
 30
0.0
  3
*D81
  1

  0
LINE
  5
632
  8
3
  6
CONTINUOUS
 62
     0
 10
102.0
 20
366.0
 30
0.0
 11
102.0
 21
390.0
 31
0.0
  0
LINE
  5
633
  8
3
  6
CONTINUOUS
 62
     0
 10
198.0
 20
366.0
 30
0.0
 11
198.0
 21
390.0
 31
0.0
  0
LINE
  5
634
  8
3
  6
CONTINUOUS
 62
     0
 10
103.0
 20
390.0
 30
0.0
 11
149.75999999999999
 21
390.0
 31
0.0
  0
LINE
  5
635
  8
3
  6
CONTINUOUS
 62
     0
 10
197.0
 20
390.0
 30
0.0
 11
150.24000000000001
 21
390.0
 31
0.0
  0
SOLID
  5
636
  8
3
  6
CONTINUOUS
 62
     0
 10
103.0
 20
390.16666666666657
 30
0.0
 11
103.0
 21
389.83333333333331
 31
0.0
 12
102.0
 22
390.0
 32
0.0
 13
102.0
 23
390.0
 33
0.0
  0
SOLID
  5
637
  8
3
  6
CONTINUOUS
 62
     0
 10
197.0
 20
390.16666666666657
 30
0.0
 11
197.0
 21
389.83333333333331
 31
0.0
 12
198.0
 22
390.0
 32
0.0
 13
198.0
 23
390.0
 33
0.0
  0
INSERT
  5
638
  8
0
  2
*U82
 10
0.0
 20
0.0
 30
0.0
  0
POINT
  5
639
  8
DEFPOINTS
  6
CONTINUOUS
 62
     0
 10
102.0
 20
366.0
 30
0.0
  0
POINT
  5
63A
  8
DEFPOINTS
  6
CONTINUOUS
 62
     0
 10
198.0
 20
366.0
 30
0.0
  0
POINT
  5
63B
  8
DEFPOINTS
  6
CONTINUOUS
 62
     0
 10
198.0
 20
390.0
 30
0.0
  0
ENDBLK
  5
4FD
  8
0
  0
BLOCK
  8
0
  2
*U82
 70
     1
 10
0.0
 20
0.0
 30
0.0
  3
*U82
  1

  0
TEXT
  5
700
  8
3
 62
     0
 10
149.84999999999999
 20
389.91000000000003
 30
0.0
 40
0.18
  1
96
  0
ENDBLK
  5
702
  8
0
  0
BLOCK
  8
0
  2
*D83
 70
     1
 10
0.0
 20
0.0
 30
0.0
  3
*D83
  1

  0
LINE
  5
63C
  8
3
  6
CONTINUOUS
 62
     0
 10
95.400000000000006
 20
232.0
 30
0.0
 11
95.40000000000002
 21
395.0
 31
0.0
  0
LINE
  5
63D
  8
3
  6
CONTINUOUS
 62
     0
 10
204.59999999999999
 20
232.0
 30
0.0
 11
204.59999999999999
 21
395.0
 31
0.0
  0
LINE
  5
63E
  8
3
  6
CONTINUOUS
 62
     0
 10
96.40000000000002
 20
395.0
 30
0.0
 11
149.595
 21
395.0
 31
0.0
  0
LINE
  5
63F
  8
3
  6
CONTINUOUS
 62
     0
 10
203.59999999999999
 20
395.0
 30
0.0
 11
150.405
 21
395.0
 31
0.0
  0
SOLID
  5
640
  8
3
  6
CONTINUOUS
 62
     0
 10
96.40000000000002
 20
395.16666666666657
 30
0.0
 11
96.40000000000002
 21
394.83333333333331
 31
0.0
 12
95.40000000000002
 22
395.0
 32
0.0
 13
95.40000000000002
 23
395.0
 33
0.0
  0
SOLID
  5
641
  8
3
  6
CONTINUOUS
 62
     0
 10
203.59999999999999
 20
395.16666666666657
 30
0.0
 11
203.59999999999999
 21
394.83333333333331
 31
0.0
 12
204.59999999999999
 22
395.0
 32
0.0
 13
204.59999999999999
 23
395.0
 33
0.0
  0
INSERT
  5
642
  8
0
  2
*U84
 10
0.0
 20
0.0
 30
0.0
  0
POINT
  5
643
  8
DEFPOINTS
  6
CONTINUOUS
 62
     0
 10
95.400000000000006
 20
232.0
 30
0.0
  0
POINT
  5
644
  8
DEFPOINTS
  6
CONTINUOUS
 62
     0
 10
204.59999999999999
 20
232.0
 30
0.0
  0
POINT
  5
645
  8
DEFPOINTS
  6
CONTINUOUS
 62
     0
 10
204.59999999999999
 20
395.0
 30
0.0
  0
ENDBLK
  5
50A
  8
0
  0
BLOCK
  8
0
  2
*U84
 70
     1
 10
0.0
 20
0.0
 30
0.0
  3
*U84
  1

  0
TEXT
  5
704
  8
3
 62
     0
 10
149.685
 20
394.91000000000008
 30
0.0
 40
0.18
  1
109.2
  0
ENDBLK
  5
706
  8
0
  0
BLOCK
  8
0
  2
*D85
 70
     1
 10
0.0
 20
0.0
 30
0.0
  3
*D85
  1

  0
LINE
  5
646
  8
3
  6
CONTINUOUS
 62
     0
 10
90.400000000000006
 20
366.0
 30
0.0
 11
90.400000000000006
 21
400.0
 31
0.0
  0
LINE
  5
647
  8
3
  6
CONTINUOUS
 62
     0
 10
209.59999999999999
 20
366.0
 30
0.0
 11
209.59999999999999
 21
400.0
 31
0.0
  0
LINE
  5
648
  8
3
  6
CONTINUOUS
 62
     0
 10
91.400000000000006
 20
400.0
 30
0.0
 11
149.61000000000001
 21
400.0
 31
0.0
  0
LINE
  5
649
  8
3
  6
CONTINUOUS
 62
     0
 10
208.59999999999999
 20
400.0
 30
0.0
 11
150.3899999999999
 21
400.0
 31
0.0
  0
SOLID
  5
64A
  8
3
  6
CONTINUOUS
 62
     0
 10
91.400000000000006
 20
400.16666666666657
 30
0.0
 11
91.400000000000006
 21
399.83333333333331
 31
0.0
 12
90.400000000000006
 22
400.0
 32
0.0
 13
90.400000000000006
 23
400.0
 33
0.0
  0
SOLID
  5
64B
  8
3
  6
CONTINUOUS
 62
     0
 10
208.59999999999999
 20
400.16666666666657
 30
0.0
 11
208.59999999999999
 21
399.83333333333331
 31
0.0
 12
209.59999999999999
 22
400.0
 32
0.0
 13
209.59999999999999
 23
400.0
 33
0.0
  0
INSERT
  5
64C
  8
0
  2
*U86
 10
0.0
 20
0.0
 30
0.0
  0
POINT
  5
64D
  8
DEFPOINTS
  6
CONTINUOUS
 62
     0
 10
90.400000000000006
 20
366.0
 30
0.0
  0
POINT
  5
64E
  8
DEFPOINTS
  6
CONTINUOUS
 62
     0
 10
209.59999999999999
 20
366.0
 30
0.0
  0
POINT
  5
64F
  8
DEFPOINTS
  6
CONTINUOUS
 62
     0
 10
209.59999999999999
 20
400.0
 30
0.0
  0
ENDBLK
  5
517
  8
0
  0
BLOCK
  8
0
  2
*U86
 70
     1
 10
0.0
 20
0.0
 30
0.0
  3
*U86
  1

  0
TEXT
  5
708
  8
3
 62
     0
 10
149.69999999999999
 20
399.91000000000003
 30
0.0
 40
0.18
  1
119.2
  0
ENDBLK
  5
70A
  8
0
  0
BLOCK
  8
0
  2
*D87
 70
     1
 10
0.0
 20
0.0
 30
0.0
  3
*D87
  1

  0
LINE
  5
650
  8
3
  6
CONTINUOUS
 62
     0
 10
110.0
 20
237.0
 30
0.0
 11
110.0
 21
385.0
 31
0.0
  0
LINE
  5
651
  8
3
  6
CONTINUOUS
 62
     0
 10
190.0
 20
237.0
 30
0.0
 11
190.0
 21
385.0
 31
0.0
  0
LINE
  5
652
  8
3
  6
CONTINUOUS
 62
     0
 10
111.0
 20
385.0
 30
0.0
 11
149.77500000000001
 21
385.0
 31
0.0
  0
LINE
  5
653
  8
3
  6
CONTINUOUS
 62
     0
 10
189.0
 20
385.0
 30
0.0
 11
150.22499999999999
 21
385.0
 31
0.0
  0
SOLID
  5
654
  8
3
  6
CONTINUOUS
 62
     0
 10
111.0
 20
385.16666666666657
 30
0.0
 11
111.0
 21
384.83333333333331
 31
0.0
 12
110.0
 22
385.0
 32
0.0
 13
110.0
 23
385.0
 33
0.0
  0
SOLID
  5
655
  8
3
  6
CONTINUOUS
 62
     0
 10
189.0
 20
385.16666666666657
 30
0.0
 11
189.0
 21
384.83333333333331
 31
0.0
 12
190.0
 22
385.0
 32
0.0
 13
190.0
 23
385.0
 33
0.0
  0
INSERT
  5
656
  8
0
  2
*U88
 10
0.0
 20
0.0
 30
0.0
  0
POINT
  5
657
  8
DEFPOINTS
  6
CONTINUOUS
 62
     0
 10
110.0
 20
237.0
 30
0.0
  0
POINT
  5
658
  8
DEFPOINTS
  6
CONTINUOUS
 62
     0
 10
190.0
 20
237.0
 30
0.0
  0
POINT
  5
659
  8
DEFPOINTS
  6
CONTINUOUS
 62
     0
 10
190.0
 20
385.0
 30
0.0
  0
ENDBLK
  5
524
  8
0
  0
BLOCK
  8
0
  2
*U88
 70
     1
 10
0.0
 20
0.0
 30
0.0
  3
*U88
  1

  0
TEXT
  5
70C
  8
3
 62
     0
 10
149.86500000000001
 20
384.91000000000003
 30
0.0
 40
0.18
  1
80
  0
ENDBLK
  5
70E
  8
0
  0
BLOCK
  8
0
  2
*D89
 70
     1
 10
0.0
 20
0.0
 30
0.0
  3
*D89
  1

  0
LINE
  5
65A
  8
3
  6
CONTINUOUS
 62
     0
 10
120.0
 20
222.0
 30
0.0
 11
120.0
 21
380.0
 31
0.0
  0
LINE
  5
65B
  8
3
  6
CONTINUOUS
 62
     0
 10
180.0
 20
222.0
 30
0.0
 11
180.0
 21
380.0
 31
0.0
  0
LINE
  5
65C
  8
3
  6
CONTINUOUS
 62
     0
 10
121.0
 20
380.0
 30
0.0
 11
149.77500000000001
 21
380.0
 31
0.0
  0
LINE
  5
65D
  8
3
  6
CONTINUOUS
 62
     0
 10
179.0
 20
380.0
 30
0.0
 11
150.22499999999999
 21
380.0
 31
0.0
  0
SOLID
  5
65E
  8
3
  6
CONTINUOUS
 62
     0
 10
121.0
 20
380.16666666666657
 30
0.0
 11
121.0
 21
379.8333333333332
 31
0.0
 12
120.0
 22
380.0
 32
0.0
 13
120.0
 23
380.0
 33
0.0
  0
SOLID
  5
65F
  8
3
  6
CONTINUOUS
 62
     0
 10
179.0
 20
380.16666666666657
 30
0.0
 11
179.0
 21
379.8333333333332
 31
0.0
 12
180.0
 22
380.0
 32
0.0
 13
180.0
 23
380.0
 33
0.0
  0
INSERT
  5
660
  8
0
  2
*U90
 10
0.0
 20
0.0
 30
0.0
  0
POINT
  5
661
  8
DEFPOINTS
  6
CONTINUOUS
 62
     0
 10
120.0
 20
222.0
 30
0.0
  0
POINT
  5
662
  8
DEFPOINTS
  6
CONTINUOUS
 62
     0
 10
180.0
 20
222.0
 30
0.0
  0
POINT
  5
663
  8
DEFPOINTS
  6
CONTINUOUS
 62
     0
 10
180.0
 20
380.0
 30
0.0
  0
ENDBLK
  5
531
  8
0
  0
BLOCK
  8
0
  2
*U90
 70
     1
 10
0.0
 20
0.0
 30
0.0
  3
*U90
  1

  0
TEXT
  5
710
  8
3
 62
     0
 10
149.86500000000001
 20
379.91000000000003
 30
0.0
 40
0.18
  1
60
  0
ENDBLK
  5
712
  8
0
  0
BLOCK
  8
0
  2
*D91
 70
     1
 10
0.0
 20
0.0
 30
0.0
  3
*D91
  1

  0
LINE
  5
664
  8
3
  6
CONTINUOUS
 62
     0
 10
357.0
 20
148.0
 30
0.0
 11
385.0
 21
148.0
 31
0.0
  0
LINE
  5
665
  8
3
  6
CONTINUOUS
 62
     0
 10
385.0
 20
147.0
 30
0.0
 11
385.0
 21
109.18000000000001
 31
0.0
  0
LINE
  5
666
  8
3
  6
CONTINUOUS
 62
     0
 10
385.0
 20
71.0
 30
0.0
 11
385.0
 21
108.81999999999999
 31
0.0
  0
SOLID
  5
667
  8
3
  6
CONTINUOUS
 62
     0
 10
384.83333333333331
 20
147.0
 30
0.0
 11
385.16666666666657
 21
147.0
 31
0.0
 12
385.0
 22
148.0
 32
0.0
 13
385.0
 23
148.0
 33
0.0
  0
SOLID
  5
668
  8
3
  6
CONTINUOUS
 62
     0
 10
384.83333333333331
 20
71.0
 30
0.0
 11
385.16666666666657
 21
71.0
 31
0.0
 12
385.0
 22
70.0
 32
0.0
 13
385.0
 23
70.0
 33
0.0
  0
INSERT
  5
669
  8
0
  2
*U92
 10
0.0
 20
0.0
 30
0.0
  0
POINT
  5
66A
  8
DEFPOINTS
  6
CONTINUOUS
 62
     0
 10
357.0
 20
148.0
 30
0.0
  0
POINT
  5
66B
  8
DEFPOINTS
  6
CONTINUOUS
 62
     0
 10
385.0
 20
70.0
 30
0.0
  0
POINT
  5
66C
  8
DEFPOINTS
  6
CONTINUOUS
 62
     0
 10
385.0
 20
70.0
 30
0.0
  0
ENDBLK
  5
53D
  8
0
  0
BLOCK
  8
0
  2
*U92
 70
     1
 10
0.0
 20
0.0
 30
0.0
  3
*U92
  1

  0
TEXT
  5
714
  8
3
 62
     0
 10
384.84999999999991
 20
108.91
 30
0.0
 40
0.18
  1
78
  0
ENDBLK
  5
716
  8
0
  0
BLOCK
  8
0
  2
*D93
 70
     1
 10
0.0
 20
0.0
 30
0.0
  3
*D93
  1

  0
LINE
  5
66D
  8
3
  6
CONTINUOUS
 62
     0
 10
249.19999999999999
 20
72.0
 30
0.0
 11
249.19999999999999
 21
80.0
 31
0.0
  0
LINE
  5
66E
  8
3
  6
CONTINUOUS
 62
     0
 10
361.19999999999999
 20
67.0
 30
0.0
 11
361.19999999999999
 21
80.0
 31
0.0
  0
LINE
  5
66F
  8
3
  6
CONTINUOUS
 62
     0
 10
250.19999999999999
 20
80.0
 30
0.0
 11
304.93000000000001
 21
80.0
 31
0.0
  0
LINE
  5
670
  8
3
  6
CONTINUOUS
 62
     0
 10
360.19999999999999
 20
80.0
 30
0.0
 11
305.47000000000008
 21
80.0
 31
0.0
  0
SOLID
  5
671
  8
3
  6
CONTINUOUS
 62
     0
 10
250.19999999999999
 20
80.166666666666671
 30
0.0
 11
250.19999999999999
 21
79.833333333333329
 31
0.0
 12
249.19999999999999
 22
80.0
 32
0.0
 13
249.19999999999999
 23
80.0
 33
0.0
  0
SOLID
  5
672
  8
3
  6
CONTINUOUS
 62
     0
 10
360.19999999999999
 20
80.166666666666671
 30
0.0
 11
360.19999999999999
 21
79.833333333333329
 31
0.0
 12
361.19999999999999
 22
80.0
 32
0.0
 13
361.19999999999999
 23
80.0
 33
0.0
  0
INSERT
  5
673
  8
0
  2
*U94
 10
0.0
 20
0.0
 30
0.0
  0
POINT
  5
674
  8
DEFPOINTS
  6
CONTINUOUS
 62
     0
 10
249.19999999999999
 20
72.0
 30
0.0
  0
POINT
  5
675
  8
DEFPOINTS
  6
CONTINUOUS
 62
     0
 10
361.19999999999999
 20
67.0
 30
0.0
  0
POINT
  5
676
  8
DEFPOINTS
  6
CONTINUOUS
 62
     0
 10
361.19999999999999
 20
80.0
 30
0.0
  0
ENDBLK
  5
54A
  8
0
  0
BLOCK
  8
0
  2
*U94
 70
     1
 10
0.0
 20
0.0
 30
0.0
  3
*U94
  1

  0
TEXT
  5
718
  8
3
 62
     0
 10
305.01999999999998
 20
79.909999999999982
 30
0.0
 40
0.18
  1
112
  0
ENDBLK
  5
71A
  8
0
  0
BLOCK
  8
0
  2
*D95
 70
     1
 10
0.0
 20
0.0
 30
0.0
  3
*D95
  1

  0
LINE
  5
677
  8
3
  6
CONTINUOUS
 62
     0
 10
249.19999999999999
 20
67.0
 30
0.0
 11
249.19999999999999
 21
80.0
 31
0.0
  0
LINE
  5
678
  8
3
  6
CONTINUOUS
 62
     0
 10
248.19999999999999
 20
80.0
 30
0.0
 11
241.41
 21
80.0
 31
0.0
  0
LINE
  5
679
  8
3
  6
CONTINUOUS
 62
     0
 10
234.19999999999999
 20
80.0
 30
0.0
 11
240.99000000000001
 21
80.0
 31
0.0
  0
SOLID
  5
67A
  8
3
  6
CONTINUOUS
 62
     0
 10
248.19999999999999
 20
80.166666666666671
 30
0.0
 11
248.19999999999999
 21
79.833333333333329
 31
0.0
 12
249.19999999999999
 22
80.0
 32
0.0
 13
249.19999999999999
 23
80.0
 33
0.0
  0
SOLID
  5
67B
  8
3
  6
CONTINUOUS
 62
     0
 10
234.19999999999999
 20
80.166666666666671
 30
0.0
 11
234.19999999999999
 21
79.833333333333329
 31
0.0
 12
233.19999999999999
 22
80.0
 32
0.0
 13
233.19999999999999
 23
80.0
 33
0.0
  0
INSERT
  5
67C
  8
0
  2
*U96
 10
0.0
 20
0.0
 30
0.0
  0
POINT
  5
67D
  8
DEFPOINTS
  6
CONTINUOUS
 62
     0
 10
249.19999999999999
 20
67.0
 30
0.0
  0
POINT
  5
67E
  8
DEFPOINTS
  6
CONTINUOUS
 62
     0
 10
233.19999999999999
 20
80.0
 30
0.0
  0
POINT
  5
67F
  8
DEFPOINTS
  6
CONTINUOUS
 62
     0
 10
233.19999999999999
 20
80.0
 30
0.0
  0
ENDBLK
  5
556
  8
0
  0
BLOCK
  8
0
  2
*U96
 70
     1
 10
0.0
 20
0.0
 30
0.0
  3
*U96
  1

  0
TEXT
  5
71C
  8
3
 62
     0
 10
241.08000000000001
 20
79.909999999999982
 30
0.0
 40
0.18
  1
16
  0
ENDBLK
  5
71E
  8
0
  0
BLOCK
  8
0
  2
*D97
 70
     1
 10
0.0
 20
0.0
 30
0.0
  3
*D97
  1

  0
LINE
  5
680
  8
3
  6
CONTINUOUS
 62
     0
 10
379.19999999999999
 20
62.0
 30
0.0
 11
385.0
 21
62.0
 31
0.0
  0
LINE
  5
681
  8
3
  6
CONTINUOUS
 62
     0
 10
357.03659199999998
 20
70.0
 30
0.0
 11
385.0
 21
70.0
 31
0.0
  0
LINE
  5
682
  8
3
  6
CONTINUOUS
 62
     0
 10
385.0
 20
63.0
 30
0.0
 11
385.0
 21
65.819999999999993
 31
0.0
  0
LINE
  5
683
  8
3
  6
CONTINUOUS
 62
     0
 10
385.0
 20
69.0
 30
0.0
 11
385.0
 21
66.180000000000007
 31
0.0
  0
SOLID
  5
684
  8
3
  6
CONTINUOUS
 62
     0
 10
384.83333333333331
 20
63.0
 30
0.0
 11
385.16666666666657
 21
63.0
 31
0.0
 12
385.0
 22
62.0
 32
0.0
 13
385.0
 23
62.0
 33
0.0
  0
SOLID
  5
685
  8
3
  6
CONTINUOUS
 62
     0
 10
384.83333333333331
 20
69.0
 30
0.0
 11
385.16666666666657
 21
69.0
 31
0.0
 12
385.0
 22
70.0
 32
0.0
 13
385.0
 23
70.0
 33
0.0
  0
INSERT
  5
686
  8
0
  2
*U98
 10
0.0
 20
0.0
 30
0.0
  0
POINT
  5
687
  8
DEFPOINTS
  6
CONTINUOUS
 62
     0
 10
379.19999999999999
 20
62.0
 30
0.0
  0
POINT
  5
688
  8
DEFPOINTS
  6
CONTINUOUS
 62
     0
 10
357.03659199999998
 20
70.0
 30
0.0
  0
POINT
  5
689
  8
DEFPOINTS
  6
CONTINUOUS
 62
     0
 10
385.0
 20
70.0
 30
0.0
  0
ENDBLK
  5
563
  8
0
  0
BLOCK
  8
0
  2
*U98
 70
     1
 10
0.0
 20
0.0
 30
0.0
  3
*U98
  1

  0
TEXT
  5
720
  8
3
 62
     0
 10
384.94
 20
65.910000000000053
 30
0.0
 40
0.18
  1
8
  0
ENDBLK
  5
722
  8
0
  0
BLOCK
  8
0
  2
*D99
 70
     1
 10
0.0
 20
0.0
 30
0.0
  3
*D99
  1

  0
LINE
  5
68B
  8
3
  6
CONTINUOUS
 62
     0
 10
211.59999999999999
 20
220.0
 30
0.0
 11
230.0
 21
220.0
 31
0.0
  0
LINE
  5
68C
  8
3
  6
CONTINUOUS
 62
     0
 10
182.0
 20
245.5
 30
0.0
 11
230.0
 21
245.5
 31
0.0
  0
LINE
  5
68D
  8
3
  6
CONTINUOUS
 62
     0
 10
230.0
 20
221.0
 30
0.0
 11
230.0
 21
232.56999999999999
 31
0.0
  0
LINE
  5
68E
  8
3
  6
CONTINUOUS
 62
     0
 10
230.0
 20
244.5
 30
0.0
 11
230.0
 21
232.93000000000001
 31
0.0
  0
SOLID
  5
68F
  8
3
  6
CONTINUOUS
 62
     0
 10
229.83333333333329
 20
221.0
 30
0.0
 11
230.16666666666671
 21
221.0
 31
0.0
 12
230.0
 22
220.0
 32
0.0
 13
230.0
 23
220.0
 33
0.0
  0
SOLID
  5
690
  8
3
  6
CONTINUOUS
 62
     0
 10
229.83333333333329
 20
244.5
 30
0.0
 11
230.16666666666671
 21
244.5
 31
0.0
 12
230.0
 22
245.5
 32
0.0
 13
230.0
 23
245.5
 33
0.0
  0
INSERT
  5
691
  8
0
  2
*U100
 10
0.0
 20
0.0
 30
0.0
  0
POINT
  5
692
  8
DEFPOINTS
  6
CONTINUOUS
 62
     0
 10
211.59999999999999
 20
220.0
 30
0.0
  0
POINT
  5
693
  8
DEFPOINTS
  6
CONTINUOUS
 62
     0
 10
182.0
 20
245.5
 30
0.0
  0
POINT
  5
694
  8
DEFPOINTS
  6
CONTINUOUS
 62
     0
 10
230.0
 20
245.5
 30
0.0
  0
ENDBLK
  5
696
  8
0
  0
BLOCK
  8
0
  2
*U100
 70
     1
 10
0.0
 20
0.0
 30
0.0
  3
*U100
  1

  0
TEXT
  5
724
  8
3
 62
     0
 10
229.7299999999999
 20
232.66
 30
0.0
 40
0.18
  1
25.5
  0
ENDBLK
  5
726
  8
0
  0
BLOCK
  8
0
  2
*D101
 70
     1
 10
0.0
 20
0.0
 30
0.0
  3
*D101
  1

  0
LINE
  5
C34
  8
3
  6
CONTINUOUS
 62
     0
 10
357.0
 20
148.0
 30
0.0
 11
385.00000000000011
 21
148.0
 31
0.0
  0
LINE
  5
C35
  8
3
  6
CONTINUOUS
 62
     0
 10
385.00000000000011
 20
144.0
 30
0.0
 11
385.0
 21
110.09
 31
0.0
  0
LINE
  5
C36
  8
3
  6
CONTINUOUS
 62
     0
 10
385.0
 20
74.0
 30
0.0
 11
385.0
 21
107.91
 31
0.0
  0
SOLID
  5
C37
  8
3
  6
CONTINUOUS
 62
     0
 10
384.33333333333343
 20
144.0
 30
0.0
 11
385.66666666666669
 21
144.0
 31
0.0
 12
385.00000000000011
 22
148.0
 32
0.0
 13
385.00000000000011
 23
148.0
 33
0.0
  0
SOLID
  5
C38
  8
3
  6
CONTINUOUS
 62
     0
 10
384.33333333333331
 20
74.0
 30
0.0
 11
385.66666666666669
 21
74.0
 31
0.0
 12
385.0
 22
70.0
 32
0.0
 13
385.0
 23
70.0
 33
0.0
  0
INSERT
  5
C39
  8
2
  2
*U166
 10
0.0
 20
0.0
 30
0.0
  0
POINT
  5
C3A
  8
DEFPOINTS
  6
CONTINUOUS
 62
     0
 10
357.0
 20
148.0
 30
0.0
  0
POINT
  5
C3B
  8
DEFPOINTS
  6
CONTINUOUS
 62
     0
 10
385.0
 20
70.0
 30
0.0
  0
POINT
  5
C3C
  8
DEFPOINTS
  6
CONTINUOUS
 62
     0
 10
385.0
 20
70.0
 30
0.0
  0
ENDBLK
  5
82D
  8
0
  0
BLOCK
  8
0
  2
*D102
 70
     1
 10
0.0
 20
0.0
 30
0.0
  3
*D102
  1

  0
LINE
  5
BD8
  8
3
  6
CONTINUOUS
 62
     0
 10
18.600000000000001
 20
95.0
 30
0.0
 11
14.6
 21
95.0
 31
0.0
  0
INSERT
  5
BD9
  8
2
  2
*U161
 10
0.0
 20
0.0
 30
0.0
  0
SOLID
  5
BDA
  8
3
  6
CONTINUOUS
 62
     0
 10
14.6
 20
95.666666666666686
 30
0.0
 11
14.6
 21
94.333333333333329
 31
0.0
 12
10.6
 22
95.0
 32
0.0
 13
10.6
 23
95.0
 33
0.0
  0
POINT
  5
BDB
  8
DEFPOINTS
  6
CONTINUOUS
 62
     0
 10
10.6
 20
95.0
 30
0.0
  0
POINT
  5
BDC
  8
DEFPOINTS
  6
CONTINUOUS
 62
     0
 10
1.399999999999999
 20
95.0
 30
0.0
  0
ENDBLK
  5
835
  8
0
  0
BLOCK
  8
0
  2
*D103
 70
     1
 10
0.0
 20
0.0
 30
0.0
  3
*D103
  1

  0
LINE
  5
BC2
  8
3
  6
CONTINUOUS
 62
     0
 10
44.649999999999991
 20
95.0
 30
0.0
 11
40.649999999999999
 21
95.0
 31
0.0
  0
INSERT
  5
BC3
  8
2
  2
*U159
 10
0.0
 20
0.0
 30
0.0
  0
SOLID
  5
BC4
  8
3
  6
CONTINUOUS
 62
     0
 10
40.649999999999999
 20
95.666666666666686
 30
0.0
 11
40.649999999999999
 21
94.333333333333329
 31
0.0
 12
36.649999999999999
 22
95.0
 32
0.0
 13
36.649999999999999
 23
95.0
 33
0.0
  0
POINT
  5
BC5
  8
DEFPOINTS
  6
CONTINUOUS
 62
     0
 10
36.649999999999999
 20
95.0
 30
0.0
  0
POINT
  5
BC6
  8
DEFPOINTS
  6
CONTINUOUS
 62
     0
 10
25.350000000000001
 20
95.0
 30
0.0
  0
ENDBLK
  5
83D
  8
0
  0
BLOCK
  8
0
  2
*D104
 70
     1
 10
0.0
 20
0.0
 30
0.0
  3
*D104
  1

  0
LINE
  5
BD2
  8
3
  6
CONTINUOUS
 62
     0
 10
-84.578115851172896
 20
130.73451162270109
 30
0.0
 11
-80.578115851172882
 21
130.73451162270109
 31
0.0
  0
LINE
  5
BD3
  8
3
  6
CONTINUOUS
 62
     0
 10
-80.578115851172882
 20
130.73451162270109
 30
0.0
 11
-77.789057925586448
 21
127.8672558113505
 31
0.0
  0
INSERT
  5
BD4
  8
2
  2
*U160
 10
0.0
 20
0.0
 30
0.0
  0
SOLID
  5
BD5
  8
3
  6
CONTINUOUS
 62
     0
 10
-77.311181957028026
 20
128.33209879894829
 30
0.0
 11
-78.26693389414487
 21
127.4024128237528
 31
0.0
 12
-75.0
 22
125.0
 32
0.0
 13
-75.0
 23
125.0
 33
0.0
  0
POINT
  5
BD6
  8
DEFPOINTS
  6
CONTINUOUS
 62
     0
 10
-75.0
 20
125.0
 30
0.0
  0
POINT
  5
BD7
  8
DEFPOINTS
  6
CONTINUOUS
 62
     0
 10
-53.59999999999998
 20
103.0
 30
0.0
  0
ENDBLK
  5
846
  8
0
  0
BLOCK
  8
0
  2
*D105
 70
     1
 10
0.0
 20
0.0
 30
0.0
  3
*D105
  1

  0
LINE
  5
C54
  8
3
  6
CONTINUOUS
 62
     0
 10
71.673737158067439
 20
378.77385053281398
 30
0.0
 11
75.673737158067439
 21
378.77385053281398
 31
0.0
  0
LINE
  5
C55
  8
3
  6
CONTINUOUS
 62
     0
 10
75.673737158067439
 20
378.77385053281398
 30
0.0
 11
78.497747802347391
 21
375.94101381302352
 31
0.0
  0
INSERT
  5
C56
  8
2
  2
*U168
 10
0.0
 20
0.0
 30
0.0
  0
SOLID
  5
C57
  8
3
  6
CONTINUOUS
 62
     0
 10
78.969887255645816
 20
376.41168225373679
 30
0.0
 11
78.025608349048952
 21
375.47034537231008
 31
0.0
 12
81.321758446627385
 22
373.108177093233
 32
0.0
 13
81.321758446627385
 23
373.108177093233
 33
0.0
  0
POINT
  5
C58
  8
DEFPOINTS
  6
CONTINUOUS
 62
     0
 10
81.321758446627385
 20
373.108177093233
 30
0.0
  0
POINT
  5
C59
  8
DEFPOINTS
  6
CONTINUOUS
 62
     0
 10
90.900000000000034
 20
363.49999999999977
 30
0.0
  0
ENDBLK
  5
84F
  8
0
  0
BLOCK
  8
0
  2
*D106
 70
     1
 10
0.0
 20
0.0
 30
0.0
  3
*D106
  1

  0
LINE
  5
C20
  8
3
  6
CONTINUOUS
 62
     0
 10
249.19999999999999
 20
72.0
 30
0.0
 11
249.19999999999999
 21
80.0
 31
0.0
  0
LINE
  5
C21
  8
3
  6
CONTINUOUS
 62
     0
 10
361.19999999999999
 20
67.0
 30
0.0
 11
361.19999999999999
 21
80.0
 31
0.0
  0
LINE
  5
C22
  8
3
  6
CONTINUOUS
 62
     0
 10
253.19999999999999
 20
80.0
 30
0.0
 11
303.11000000000001
 21
80.0
 31
0.0
  0
LINE
  5
C23
  8
3
  6
CONTINUOUS
 62
     0
 10
357.19999999999999
 20
80.0
 30
0.0
 11
307.29000000000002
 21
80.0
 31
0.0
  0
SOLID
  5
C24
  8
3
  6
CONTINUOUS
 62
     0
 10
253.19999999999999
 20
80.666666666666686
 30
0.0
 11
253.19999999999999
 21
79.333333333333329
 31
0.0
 12
249.19999999999999
 22
80.0
 32
0.0
 13
249.19999999999999
 23
80.0
 33
0.0
  0
SOLID
  5
C25
  8
3
  6
CONTINUOUS
 62
     0
 10
357.19999999999999
 20
80.666666666666686
 30
0.0
 11
357.19999999999999
 21
79.333333333333329
 31
0.0
 12
361.19999999999999
 22
80.0
 32
0.0
 13
361.19999999999999
 23
80.0
 33
0.0
  0
INSERT
  5
C26
  8
2
  2
*U164
 10
0.0
 20
0.0
 30
0.0
  0
POINT
  5
C27
  8
DEFPOINTS
  6
CONTINUOUS
 62
     0
 10
249.19999999999999
 20
72.0
 30
0.0
  0
POINT
  5
C28
  8
DEFPOINTS
  6
CONTINUOUS
 62
     0
 10
361.19999999999999
 20
67.0
 30
0.0
  0
POINT
  5
C29
  8
DEFPOINTS
  6
CONTINUOUS
 62
     0
 10
361.19999999999999
 20
80.0
 30
0.0
  0
ENDBLK
  5
85C
  8
0
  0
BLOCK
  8
0
  2
*D107
 70
     1
 10
0.0
 20
0.0
 30
0.0
  3
*D107
  1

  0
LINE
  5
C17
  8
3
  6
CONTINUOUS
 62
     0
 10
249.19999999999999
 20
67.0
 30
0.0
 11
249.19999999999999
 21
80.0
 31
0.0
  0
LINE
  5
C18
  8
3
  6
CONTINUOUS
 62
     0
 10
245.19999999999999
 20
80.0
 30
0.0
 11
242.62333333333331
 21
80.0
 31
0.0
  0
LINE
  5
C19
  8
3
  6
CONTINUOUS
 62
     0
 10
237.19999999999999
 20
80.0
 30
0.0
 11
239.7766666666667
 21
80.0
 31
0.0
  0
SOLID
  5
C1A
  8
3
  6
CONTINUOUS
 62
     0
 10
245.19999999999999
 20
80.666666666666686
 30
0.0
 11
245.19999999999999
 21
79.333333333333329
 31
0.0
 12
249.19999999999999
 22
80.0
 32
0.0
 13
249.19999999999999
 23
80.0
 33
0.0
  0
SOLID
  5
C1B
  8
3
  6
CONTINUOUS
 62
     0
 10
237.19999999999999
 20
80.666666666666686
 30
0.0
 11
237.19999999999999
 21
79.333333333333329
 31
0.0
 12
233.19999999999999
 22
80.0
 32
0.0
 13
233.19999999999999
 23
80.0
 33
0.0
  0
INSERT
  5
C1C
  8
2
  2
*U163
 10
0.0
 20
0.0
 30
0.0
  0
POINT
  5
C1D
  8
DEFPOINTS
  6
CONTINUOUS
 62
     0
 10
249.19999999999999
 20
67.0
 30
0.0
  0
POINT
  5
C1E
  8
DEFPOINTS
  6
CONTINUOUS
 62
     0
 10
233.19999999999999
 20
80.0
 30
0.0
  0
POINT
  5
C1F
  8
DEFPOINTS
  6
CONTINUOUS
 62
     0
 10
233.19999999999999
 20
80.0
 30
0.0
  0
ENDBLK
  5
868
  8
0
  0
BLOCK
  8
0
  2
*D108
 70
     1
 10
0.0
 20
0.0
 30
0.0
  3
*D108
  1

  0
LINE
  5
C2A
  8
3
  6
CONTINUOUS
 62
     0
 10
379.19999999999999
 20
62.0
 30
0.0
 11
385.0
 21
62.0
 31
0.0
  0
LINE
  5
C2B
  8
3
  6
CONTINUOUS
 62
     0
 10
357.03659199999998
 20
70.0
 30
0.0
 11
385.0
 21
70.0
 31
0.0
  0
LINE
  5
C2C
  8
3
  6
CONTINUOUS
 62
     0
 10
385.0
 20
58.0
 30
0.0
 11
385.0
 21
54.0
 31
0.0
  0
LINE
  5
C2D
  8
3
  6
CONTINUOUS
 62
     0
 10
385.0
 20
74.0
 30
0.0
 11
385.0
 21
78.0
 31
0.0
  0
SOLID
  5
C2E
  8
3
  6
CONTINUOUS
 62
     0
 10
384.33333333333331
 20
58.0
 30
0.0
 11
385.66666666666669
 21
58.0
 31
0.0
 12
385.0
 22
62.0
 32
0.0
 13
385.0
 23
62.0
 33
0.0
  0
SOLID
  5
C2F
  8
3
  6
CONTINUOUS
 62
     0
 10
384.33333333333331
 20
74.0
 30
0.0
 11
385.66666666666669
 21
74.0
 31
0.0
 12
385.0
 22
70.0
 32
0.0
 13
385.0
 23
70.0
 33
0.0
  0
INSERT
  5
C30
  8
2
  2
*U165
 10
0.0
 20
0.0
 30
0.0
  0
POINT
  5
C31
  8
DEFPOINTS
  6
CONTINUOUS
 62
     0
 10
379.19999999999999
 20
62.0
 30
0.0
  0
POINT
  5
C32
  8
DEFPOINTS
  6
CONTINUOUS
 62
     0
 10
357.03659199999998
 20
70.0
 30
0.0
  0
POINT
  5
C33
  8
DEFPOINTS
  6
CONTINUOUS
 62
     0
 10
385.0
 20
70.0
 30
0.0
  0
ENDBLK
  5
875
  8
0
  0
BLOCK
  8
0
  2
*D109
 70
     1
 10
0.0
 20
0.0
 30
0.0
  3
*D109
  1

  0
LINE
  5
B5C
  8
3
  6
CONTINUOUS
 62
     0
 10
-42.0
 20
117.0
 30
0.0
 11
-42.0
 21
125.0
 31
0.0
  0
LINE
  5
B5D
  8
3
  6
CONTINUOUS
 62
     0
 10
-38.0
 20
125.0
 30
0.0
 11
6.7433333333333341
 21
125.0
 31
0.0
  0
LINE
  5
B5E
  8
3
  6
CONTINUOUS
 62
     0
 10
56.0
 20
125.0
 30
0.0
 11
11.256666666666661
 21
125.0
 31
0.0
  0
SOLID
  5
B5F
  8
3
  6
CONTINUOUS
 62
     0
 10
-38.0
 20
125.6666666666667
 30
0.0
 11
-38.0
 21
124.3333333333333
 31
0.0
 12
-42.0
 22
125.0
 32
0.0
 13
-42.0
 23
125.0
 33
0.0
  0
SOLID
  5
B60
  8
3
  6
CONTINUOUS
 62
     0
 10
56.0
 20
125.6666666666667
 30
0.0
 11
56.0
 21
124.3333333333333
 31
0.0
 12
60.0
 22
125.0
 32
0.0
 13
60.0
 23
125.0
 33
0.0
  0
INSERT
  5
B61
  8
2
  2
*U153
 10
0.0
 20
0.0
 30
0.0
  0
POINT
  5
B62
  8
DEFPOINTS
  6
CONTINUOUS
 62
     0
 10
-42.0
 20
117.0
 30
0.0
  0
POINT
  5
B63
  8
DEFPOINTS
  6
CONTINUOUS
 62
     0
 10
60.0
 20
125.0
 30
0.0
  0
POINT
  5
B64
  8
DEFPOINTS
  6
CONTINUOUS
 62
     0
 10
60.0
 20
125.0
 30
0.0
  0
ENDBLK
  5
881
  8
0
  0
BLOCK
  8
0
  2
*D110
 70
     1
 10
0.0
 20
0.0
 30
0.0
  3
*D110
  1

  0
LINE
  5
C3D
  8
3
  6
CONTINUOUS
 62
     0
 10
-24.899999999999999
 20
106.5
 30
0.0
 11
-15.0
 21
106.5
 31
0.0
  0
LINE
  5
C3E
  8
3
  6
CONTINUOUS
 62
     0
 10
-24.899999999999999
 20
73.5
 30
0.0
 11
-15.000000000000011
 21
73.5
 31
0.0
  0
LINE
  5
C3F
  8
3
  6
CONTINUOUS
 62
     0
 10
-15.0
 20
102.5
 30
0.0
 11
-15.000000000000011
 21
94.215262349667995
 31
0.0
  0
LINE
  5
C40
  8
3
  6
CONTINUOUS
 62
     0
 10
-15.000000000000011
 20
77.5
 30
0.0
 11
-15.000000000000011
 21
92.035262349667988
 31
0.0
  0
INSERT
  5
C41
  8
2
  2
*U167
 10
0.0
 20
0.0
 30
0.0
  0
SOLID
  5
C42
  8
3
  6
CONTINUOUS
 62
     0
 10
-15.66666666666667
 20
102.5
 30
0.0
 11
-14.333333333333339
 21
102.5
 31
0.0
 12
-15.0
 22
106.5
 32
0.0
 13
-15.0
 23
106.5
 33
0.0
  0
SOLID
  5
C43
  8
3
  6
CONTINUOUS
 62
     0
 10
-15.66666666666668
 20
77.5
 30
0.0
 11
-14.333333333333339
 21
77.5
 31
0.0
 12
-15.000000000000011
 22
73.5
 32
0.0
 13
-15.000000000000011
 23
73.5
 33
0.0
  0
POINT
  5
C44
  8
DEFPOINTS
  6
CONTINUOUS
 62
     0
 10
-24.899999999999999
 20
106.5
 30
0.0
  0
POINT
  5
C45
  8
DEFPOINTS
  6
CONTINUOUS
 62
     0
 10
-24.899999999999999
 20
73.5
 30
0.0
  0
POINT
  5
C46
  8
DEFPOINTS
  6
CONTINUOUS
 62
     0
 10
-15.000000000000011
 20
73.5
 30
0.0
  0
ENDBLK
  5
88E
  8
0
  0
BLOCK
  8
0
  2
*D111
 70
     1
 10
0.0
 20
0.0
 30
0.0
  3
*D111
  1

  0
LINE
  5
BAE
  8
3
  6
CONTINUOUS
 62
     0
 10
62.25
 20
62.0
 30
0.0
 11
70.25
 21
62.0
 31
0.0
  0
LINE
  5
BAF
  8
3
  6
CONTINUOUS
 62
     0
 10
-12.75
 20
90.0
 30
0.0
 11
70.25
 21
89.999999999999986
 31
0.0
  0
LINE
  5
BB0
  8
3
  6
CONTINUOUS
 62
     0
 10
70.25
 20
66.0
 30
0.0
 11
70.25
 21
74.909999999999982
 31
0.0
  0
LINE
  5
BB1
  8
3
  6
CONTINUOUS
 62
     0
 10
70.25
 20
85.999999999999986
 30
0.0
 11
70.25
 21
77.089999999999989
 31
0.0
  0
SOLID
  5
BB2
  8
3
  6
CONTINUOUS
 62
     0
 10
69.583333333333329
 20
66.0
 30
0.0
 11
70.916666666666671
 21
66.0
 31
0.0
 12
70.25
 22
62.0
 32
0.0
 13
70.25
 23
62.0
 33
0.0
  0
SOLID
  5
BB3
  8
3
  6
CONTINUOUS
 62
     0
 10
69.583333333333329
 20
85.999999999999986
 30
0.0
 11
70.916666666666671
 21
85.999999999999986
 31
0.0
 12
70.25
 22
89.999999999999986
 32
0.0
 13
70.25
 23
89.999999999999986
 33
0.0
  0
INSERT
  5
BB4
  8
2
  2
*U157
 10
0.0
 20
0.0
 30
0.0
  0
POINT
  5
BB5
  8
DEFPOINTS
  6
CONTINUOUS
 62
     0
 10
62.25
 20
62.0
 30
0.0
  0
POINT
  5
BB6
  8
DEFPOINTS
  6
CONTINUOUS
 62
     0
 10
-12.75
 20
90.0
 30
0.0
  0
POINT
  5
BB7
  8
DEFPOINTS
  6
CONTINUOUS
 62
     0
 10
70.25
 20
89.999999999999986
 30
0.0
  0
ENDBLK
  5
89B
  8
0
  0
BLOCK
  8
0
  2
*D112
 70
     1
 10
0.0
 20
0.0
 30
0.0
  3
*D112
  1

  0
LINE
  5
B52
  8
3
  6
CONTINUOUS
 62
     0
 10
-60.0
 20
87.044612999999998
 30
0.0
 11
-60.0
 21
120.0
 31
0.0
  0
LINE
  5
B53
  8
3
  6
CONTINUOUS
 62
     0
 10
-24.0
 20
87.113510999999988
 30
0.0
 11
-24.0
 21
120.0
 31
0.0
  0
LINE
  5
B54
  8
3
  6
CONTINUOUS
 62
     0
 10
-56.0
 20
120.0
 30
0.0
 11
-43.756666666666661
 21
120.0
 31
0.0
  0
LINE
  5
B55
  8
3
  6
CONTINUOUS
 62
     0
 10
-28.0
 20
120.0
 30
0.0
 11
-40.243333333333332
 21
120.0
 31
0.0
  0
SOLID
  5
B56
  8
3
  6
CONTINUOUS
 62
     0
 10
-56.0
 20
120.6666666666666
 30
0.0
 11
-56.0
 21
119.3333333333333
 31
0.0
 12
-60.0
 22
120.0
 32
0.0
 13
-60.0
 23
120.0
 33
0.0
  0
SOLID
  5
B57
  8
3
  6
CONTINUOUS
 62
     0
 10
-28.0
 20
120.6666666666666
 30
0.0
 11
-28.0
 21
119.3333333333333
 31
0.0
 12
-24.0
 22
120.0
 32
0.0
 13
-24.0
 23
120.0
 33
0.0
  0
INSERT
  5
B58
  8
2
  2
*U152
 10
0.0
 20
0.0
 30
0.0
  0
POINT
  5
B59
  8
DEFPOINTS
  6
CONTINUOUS
 62
     0
 10
-60.0
 20
87.044612999999998
 30
0.0
  0
POINT
  5
B5A
  8
DEFPOINTS
  6
CONTINUOUS
 62
     0
 10
-24.0
 20
87.113510999999988
 30
0.0
  0
POINT
  5
B5B
  8
DEFPOINTS
  6
CONTINUOUS
 62
     0
 10
-24.0
 20
120.0
 30
0.0
  0
ENDBLK
  5
8A8
  8
0
  0
BLOCK
  8
0
  2
*D113
 70
     1
 10
0.0
 20
0.0
 30
0.0
  3
*D113
  1

  0
LINE
  5
B48
  8
3
  6
CONTINUOUS
 62
     0
 10
-57.100000000000001
 20
108.5
 30
0.0
 11
-57.100000000000001
 21
115.0
 31
0.0
  0
LINE
  5
B49
  8
3
  6
CONTINUOUS
 62
     0
 10
-26.899999999999999
 20
108.5
 30
0.0
 11
-26.899999999999999
 21
115.0
 31
0.0
  0
LINE
  5
B4A
  8
3
  6
CONTINUOUS
 62
     0
 10
-53.100000000000001
 20
115.0
 30
0.0
 11
-44.923333333333332
 21
115.0
 31
0.0
  0
LINE
  5
B4B
  8
3
  6
CONTINUOUS
 62
     0
 10
-30.899999999999999
 20
115.0
 30
0.0
 11
-39.076666666666668
 21
115.0
 31
0.0
  0
SOLID
  5
B4C
  8
3
  6
CONTINUOUS
 62
     0
 10
-53.100000000000001
 20
115.6666666666666
 30
0.0
 11
-53.100000000000001
 21
114.3333333333333
 31
0.0
 12
-57.100000000000001
 22
115.0
 32
0.0
 13
-57.100000000000001
 23
115.0
 33
0.0
  0
SOLID
  5
B4D
  8
3
  6
CONTINUOUS
 62
     0
 10
-30.899999999999999
 20
115.6666666666666
 30
0.0
 11
-30.899999999999999
 21
114.3333333333333
 31
0.0
 12
-26.899999999999999
 22
115.0
 32
0.0
 13
-26.899999999999999
 23
115.0
 33
0.0
  0
INSERT
  5
B4E
  8
2
  2
*U151
 10
0.0
 20
0.0
 30
0.0
  0
POINT
  5
B4F
  8
DEFPOINTS
  6
CONTINUOUS
 62
     0
 10
-57.100000000000001
 20
108.5
 30
0.0
  0
POINT
  5
B50
  8
DEFPOINTS
  6
CONTINUOUS
 62
     0
 10
-26.899999999999999
 20
108.5
 30
0.0
  0
POINT
  5
B51
  8
DEFPOINTS
  6
CONTINUOUS
 62
     0
 10
-26.899999999999999
 20
115.0
 30
0.0
  0
ENDBLK
  5
8B5
  8
0
  0
BLOCK
  8
0
  2
*D114
 70
     1
 10
0.0
 20
0.0
 30
0.0
  3
*D114
  1

  0
LINE
  5
BA4
  8
3
  6
CONTINUOUS
 62
     0
 10
62.0
 20
62.0
 30
0.0
 11
80.0
 21
62.0
 31
0.0
  0
LINE
  5
BA5
  8
3
  6
CONTINUOUS
 62
     0
 10
62.0
 20
186.59999999999999
 30
0.0
 11
80.000000000000028
 21
186.59999999999991
 31
0.0
  0
LINE
  5
BA6
  8
3
  6
CONTINUOUS
 62
     0
 10
80.0
 20
66.0
 30
0.0
 11
80.000000000000014
 21
123.20999999999999
 31
0.0
  0
LINE
  5
BA7
  8
3
  6
CONTINUOUS
 62
     0
 10
80.000000000000028
 20
182.59999999999991
 30
0.0
 11
80.000000000000014
 21
125.39
 31
0.0
  0
SOLID
  5
BA8
  8
3
  6
CONTINUOUS
 62
     0
 10
79.333333333333329
 20
66.0
 30
0.0
 11
80.666666666666686
 21
66.0
 31
0.0
 12
80.0
 22
62.0
 32
0.0
 13
80.0
 23
62.0
 33
0.0
  0
SOLID
  5
BA9
  8
3
  6
CONTINUOUS
 62
     0
 10
79.333333333333357
 20
182.59999999999991
 30
0.0
 11
80.666666666666686
 21
182.59999999999991
 31
0.0
 12
80.000000000000028
 22
186.59999999999991
 32
0.0
 13
80.000000000000028
 23
186.59999999999991
 33
0.0
  0
INSERT
  5
BAA
  8
2
  2
*U156
 10
0.0
 20
0.0
 30
0.0
  0
POINT
  5
BAB
  8
DEFPOINTS
  6
CONTINUOUS
 62
     0
 10
62.0
 20
62.0
 30
0.0
  0
POINT
  5
BAC
  8
DEFPOINTS
  6
CONTINUOUS
 62
     0
 10
62.0
 20
186.59999999999999
 30
0.0
  0
POINT
  5
BAD
  8
DEFPOINTS
  6
CONTINUOUS
 62
     0
 10
80.000000000000028
 20
186.59999999999991
 30
0.0
  0
ENDBLK
  5
8C2
  8
0
  0
BLOCK
  8
0
  2
*D115
 70
     1
 10
0.0
 20
0.0
 30
0.0
  3
*D115
  1

  0
LINE
  5
BB8
  8
3
  6
CONTINUOUS
 62
     0
 10
62.0
 20
62.0
 30
0.0
 11
75.0
 21
62.0
 31
0.0
  0
LINE
  5
BB9
  8
3
  6
CONTINUOUS
 62
     0
 10
-3.0
 20
108.0
 30
0.0
 11
75.000000000000014
 21
108.0
 31
0.0
  0
LINE
  5
BBA
  8
3
  6
CONTINUOUS
 62
     0
 10
75.0
 20
66.0
 30
0.0
 11
75.0
 21
83.909999999999982
 31
0.0
  0
LINE
  5
BBB
  8
3
  6
CONTINUOUS
 62
     0
 10
75.000000000000014
 20
104.0
 30
0.0
 11
75.0
 21
86.089999999999989
 31
0.0
  0
SOLID
  5
BBC
  8
3
  6
CONTINUOUS
 62
     0
 10
74.333333333333329
 20
66.0
 30
0.0
 11
75.666666666666671
 21
66.0
 31
0.0
 12
75.0
 22
62.0
 32
0.0
 13
75.0
 23
62.0
 33
0.0
  0
SOLID
  5
BBD
  8
3
  6
CONTINUOUS
 62
     0
 10
74.333333333333343
 20
104.0
 30
0.0
 11
75.666666666666686
 21
104.0
 31
0.0
 12
75.000000000000014
 22
108.0
 32
0.0
 13
75.000000000000014
 23
108.0
 33
0.0
  0
INSERT
  5
BBE
  8
2
  2
*U158
 10
0.0
 20
0.0
 30
0.0
  0
POINT
  5
BBF
  8
DEFPOINTS
  6
CONTINUOUS
 62
     0
 10
62.0
 20
62.0
 30
0.0
  0
POINT
  5
BC0
  8
DEFPOINTS
  6
CONTINUOUS
 62
     0
 10
-3.0
 20
108.0
 30
0.0
  0
POINT
  5
BC1
  8
DEFPOINTS
  6
CONTINUOUS
 62
     0
 10
75.000000000000014
 20
108.0
 30
0.0
  0
ENDBLK
  5
8CF
  8
0
  0
BLOCK
  8
0
  2
*D116
 70
     1
 10
0.0
 20
0.0
 30
0.0
  3
*D116
  1

  0
LINE
  5
B6F
  8
3
  6
CONTINUOUS
 62
     0
 10
35.0
 20
120.0
 30
0.0
 11
43.743333333333332
 21
120.0
 31
0.0
  0
LINE
  5
B70
  8
3
  6
CONTINUOUS
 62
     0
 10
56.0
 20
120.0
 30
0.0
 11
47.256666666666668
 21
120.0
 31
0.0
  0
SOLID
  5
B71
  8
3
  6
CONTINUOUS
 62
     0
 10
35.0
 20
120.6666666666666
 30
0.0
 11
35.0
 21
119.3333333333333
 31
0.0
 12
31.0
 22
120.0
 32
0.0
 13
31.0
 23
120.0
 33
0.0
  0
SOLID
  5
B72
  8
3
  6
CONTINUOUS
 62
     0
 10
56.0
 20
120.6666666666666
 30
0.0
 11
56.0
 21
119.3333333333333
 31
0.0
 12
60.0
 22
120.0
 32
0.0
 13
60.0
 23
120.0
 33
0.0
  0
INSERT
  5
B73
  8
2
  2
*U155
 10
0.0
 20
0.0
 30
0.0
  0
POINT
  5
B74
  8
DEFPOINTS
  6
CONTINUOUS
 62
     0
 10
31.0
 20
120.0
 30
0.0
  0
POINT
  5
B75
  8
DEFPOINTS
  6
CONTINUOUS
 62
     0
 10
60.0
 20
120.0
 30
0.0
  0
POINT
  5
B76
  8
DEFPOINTS
  6
CONTINUOUS
 62
     0
 10
60.0
 20
120.0
 30
0.0
  0
ENDBLK
  5
8DA
  8
0
  0
BLOCK
  8
0
  2
*D117
 70
     1
 10
0.0
 20
0.0
 30
0.0
  3
*D117
  1

  0
LINE
  5
B65
  8
3
  6
CONTINUOUS
 62
     0
 10
6.0
 20
102.0
 30
0.0
 11
6.0
 21
120.0
 31
0.0
  0
LINE
  5
B66
  8
3
  6
CONTINUOUS
 62
     0
 10
31.0
 20
101.909279
 30
0.0
 11
31.0
 21
120.0
 31
0.0
  0
LINE
  5
B67
  8
3
  6
CONTINUOUS
 62
     0
 10
10.0
 20
120.0
 30
0.0
 11
16.743333333333329
 21
120.0
 31
0.0
  0
LINE
  5
B68
  8
3
  6
CONTINUOUS
 62
     0
 10
27.0
 20
120.0
 30
0.0
 11
20.256666666666671
 21
120.0
 31
0.0
  0
SOLID
  5
B69
  8
3
  6
CONTINUOUS
 62
     0
 10
10.0
 20
120.6666666666666
 30
0.0
 11
10.0
 21
119.3333333333333
 31
0.0
 12
6.0
 22
120.0
 32
0.0
 13
6.0
 23
120.0
 33
0.0
  0
SOLID
  5
B6A
  8
3
  6
CONTINUOUS
 62
     0
 10
27.0
 20
120.6666666666666
 30
0.0
 11
27.0
 21
119.3333333333333
 31
0.0
 12
31.0
 22
120.0
 32
0.0
 13
31.0
 23
120.0
 33
0.0
  0
INSERT
  5
B6B
  8
2
  2
*U154
 10
0.0
 20
0.0
 30
0.0
  0
POINT
  5
B6C
  8
DEFPOINTS
  6
CONTINUOUS
 62
     0
 10
6.0
 20
102.0
 30
0.0
  0
POINT
  5
B6D
  8
DEFPOINTS
  6
CONTINUOUS
 62
     0
 10
31.0
 20
101.909279
 30
0.0
  0
POINT
  5
B6E
  8
DEFPOINTS
  6
CONTINUOUS
 62
     0
 10
31.0
 20
120.0
 30
0.0
  0
ENDBLK
  5
8E7
  8
0
  0
BLOCK
  8
0
  2
*D118
 70
     1
 10
0.0
 20
0.0
 30
0.0
  3
*D118
  1

  0
LINE
  5
BE7
  8
3
  6
CONTINUOUS
 62
     0
 10
211.59999999999999
 20
62.0
 30
0.0
 11
220.0
 21
62.0
 31
0.0
  0
LINE
  5
BE8
  8
3
  6
CONTINUOUS
 62
     0
 10
195.0
 20
185.0
 30
0.0
 11
220.0
 21
185.0
 31
0.0
  0
LINE
  5
BE9
  8
3
  6
CONTINUOUS
 62
     0
 10
220.0
 20
66.000000000000014
 30
0.0
 11
220.0
 21
122.41
 31
0.0
  0
LINE
  5
BEA
  8
3
  6
CONTINUOUS
 62
     0
 10
220.0
 20
181.0
 30
0.0
 11
220.0
 21
124.59
 31
0.0
  0
SOLID
  5
BEB
  8
3
  6
CONTINUOUS
 62
     0
 10
219.33333333333329
 20
66.000000000000014
 30
0.0
 11
220.6666666666666
 21
66.000000000000014
 31
0.0
 12
220.0
 22
62.0
 32
0.0
 13
220.0
 23
62.0
 33
0.0
  0
SOLID
  5
BEC
  8
3
  6
CONTINUOUS
 62
     0
 10
219.33333333333329
 20
181.0
 30
0.0
 11
220.6666666666666
 21
181.0
 31
0.0
 12
220.0
 22
185.0
 32
0.0
 13
220.0
 23
185.0
 33
0.0
  0
INSERT
  5
BED
  8
2
  2
*U162
 10
0.0
 20
0.0
 30
0.0
  0
POINT
  5
BEE
  8
DEFPOINTS
  6
CONTINUOUS
 62
     0
 10
211.59999999999999
 20
62.0
 30
0.0
  0
POINT
  5
BEF
  8
DEFPOINTS
  6
CONTINUOUS
 62
     0
 10
195.0
 20
185.0
 30
0.0
  0
POINT
  5
BF0
  8
DEFPOINTS
  6
CONTINUOUS
 62
     0
 10
220.0
 20
185.0
 30
0.0
  0
ENDBLK
  5
8F4
  8
0
  0
BLOCK
  8
0
  2
*D119
 70
     1
 10
0.0
 20
0.0
 30
0.0
  3
*D119
  1

  0
LINE
  5
A63
  8
3
  6
CONTINUOUS
 62
     0
 10
211.59999999999999
 20
351.25
 30
0.0
 11
215.30787699999999
 21
351.25
 31
0.0
  0
LINE
  5
A64
  8
3
  6
CONTINUOUS
 62
     0
 10
211.59999999999999
 20
346.75
 30
0.0
 11
215.30787699999999
 21
346.75
 31
0.0
  0
LINE
  5
A65
  8
3
  6
CONTINUOUS
 62
     0
 10
215.30787699999999
 20
355.25
 30
0.0
 11
215.30787699999999
 21
359.25
 31
0.0
  0
LINE
  5
A66
  8
3
  6
CONTINUOUS
 62
     0
 10
215.30787699999999
 20
342.75
 30
0.0
 11
215.30787699999999
 21
338.75
 31
0.0
  0
SOLID
  5
A67
  8
3
  6
CONTINUOUS
 62
     0
 10
214.64121033333331
 20
355.25
 30
0.0
 11
215.97454366666659
 21
355.25
 31
0.0
 12
215.30787699999999
 22
351.25
 32
0.0
 13
215.30787699999999
 23
351.25
 33
0.0
  0
SOLID
  5
A68
  8
3
  6
CONTINUOUS
 62
     0
 10
214.64121033333331
 20
342.75
 30
0.0
 11
215.97454366666659
 21
342.75
 31
0.0
 12
215.30787699999999
 22
346.75
 32
0.0
 13
215.30787699999999
 23
346.75
 33
0.0
  0
INSERT
  5
A69
  8
2
  2
*U142
 10
0.0
 20
0.0
 30
0.0
  0
POINT
  5
A6A
  8
DEFPOINTS
  6
CONTINUOUS
 62
     0
 10
211.59999999999999
 20
351.25
 30
0.0
  0
POINT
  5
A6B
  8
DEFPOINTS
  6
CONTINUOUS
 62
     0
 10
211.59999999999999
 20
346.75
 30
0.0
  0
POINT
  5
A6C
  8
DEFPOINTS
  6
CONTINUOUS
 62
     0
 10
215.30787699999999
 20
346.75
 30
0.0
  0
ENDBLK
  5
901
  8
0
  0
BLOCK
  8
0
  2
*D120
 70
     1
 10
0.0
 20
0.0
 30
0.0
  3
*D120
  1

  0
LINE
  5
A6D
  8
3
  6
CONTINUOUS
 62
     0
 10
211.59999999999999
 20
364.0
 30
0.0
 11
220.0
 21
364.0
 31
0.0
  0
LINE
  5
A6E
  8
3
  6
CONTINUOUS
 62
     0
 10
175.0
 20
359.0
 30
0.0
 11
220.0
 21
359.0
 31
0.0
  0
LINE
  5
A6F
  8
3
  6
CONTINUOUS
 62
     0
 10
220.0
 20
368.0
 30
0.0
 11
220.0
 21
372.0
 31
0.0
  0
LINE
  5
A70
  8
3
  6
CONTINUOUS
 62
     0
 10
220.0
 20
355.0
 30
0.0
 11
220.0
 21
351.0
 31
0.0
  0
SOLID
  5
A71
  8
3
  6
CONTINUOUS
 62
     0
 10
219.33333333333329
 20
368.0
 30
0.0
 11
220.6666666666666
 21
368.0
 31
0.0
 12
220.0
 22
364.0
 32
0.0
 13
220.0
 23
364.0
 33
0.0
  0
SOLID
  5
A72
  8
3
  6
CONTINUOUS
 62
     0
 10
219.33333333333329
 20
355.0
 30
0.0
 11
220.6666666666666
 21
355.0
 31
0.0
 12
220.0
 22
359.0
 32
0.0
 13
220.0
 23
359.0
 33
0.0
  0
INSERT
  5
A73
  8
2
  2
*U143
 10
0.0
 20
0.0
 30
0.0
  0
POINT
  5
A74
  8
DEFPOINTS
  6
CONTINUOUS
 62
     0
 10
211.59999999999999
 20
364.0
 30
0.0
  0
POINT
  5
A75
  8
DEFPOINTS
  6
CONTINUOUS
 62
     0
 10
175.0
 20
359.0
 30
0.0
  0
POINT
  5
A76
  8
DEFPOINTS
  6
CONTINUOUS
 62
     0
 10
220.0
 20
359.0
 30
0.0
  0
ENDBLK
  5
90E
  8
0
  0
BLOCK
  8
0
  2
*D121
 70
     1
 10
0.0
 20
0.0
 30
0.0
  3
*D121
  1

  0
LINE
  5
AF1
  8
3
  6
CONTINUOUS
 62
     0
 10
211.59999999999999
 20
220.0
 30
0.0
 11
220.0
 21
220.0
 31
0.0
  0
LINE
  5
AF2
  8
3
  6
CONTINUOUS
 62
     0
 10
175.0
 20
225.0
 30
0.0
 11
220.0
 21
225.0
 31
0.0
  0
LINE
  5
AF3
  8
3
  6
CONTINUOUS
 62
     0
 10
220.0
 20
216.0
 30
0.0
 11
220.0
 21
212.0
 31
0.0
  0
LINE
  5
AF4
  8
3
  6
CONTINUOUS
 62
     0
 10
220.0
 20
229.0
 30
0.0
 11
220.0
 21
233.0
 31
0.0
  0
SOLID
  5
AF5
  8
3
  6
CONTINUOUS
 62
     0
 10
219.33333333333329
 20
216.0
 30
0.0
 11
220.6666666666666
 21
216.0
 31
0.0
 12
220.0
 22
220.0
 32
0.0
 13
220.0
 23
220.0
 33
0.0
  0
SOLID
  5
AF6
  8
3
  6
CONTINUOUS
 62
     0
 10
219.33333333333329
 20
229.0
 30
0.0
 11
220.6666666666666
 21
229.0
 31
0.0
 12
220.0
 22
225.0
 32
0.0
 13
220.0
 23
225.0
 33
0.0
  0
INSERT
  5
AF7
  8
2
  2
*U149
 10
0.0
 20
0.0
 30
0.0
  0
POINT
  5
AF8
  8
DEFPOINTS
  6
CONTINUOUS
 62
     0
 10
211.59999999999999
 20
220.0
 30
0.0
  0
POINT
  5
AF9
  8
DEFPOINTS
  6
CONTINUOUS
 62
     0
 10
175.0
 20
225.0
 30
0.0
  0
POINT
  5
AFA
  8
DEFPOINTS
  6
CONTINUOUS
 62
     0
 10
220.0
 20
225.0
 30
0.0
  0
ENDBLK
  5
91B
  8
0
  0
BLOCK
  8
0
  2
*D122
 70
     1
 10
0.0
 20
0.0
 30
0.0
  3
*D122
  1

  0
LINE
  5
A59
  8
3
  6
CONTINUOUS
 62
     0
 10
211.59999999999999
 20
220.0
 30
0.0
 11
230.0
 21
220.0
 31
0.0
  0
LINE
  5
A5A
  8
3
  6
CONTINUOUS
 62
     0
 10
182.0
 20
245.5
 30
0.0
 11
230.0
 21
245.5
 31
0.0
  0
LINE
  5
A5B
  8
3
  6
CONTINUOUS
 62
     0
 10
230.0
 20
224.0
 30
0.0
 11
230.0
 21
231.66
 31
0.0
  0
LINE
  5
A5C
  8
3
  6
CONTINUOUS
 62
     0
 10
230.0
 20
241.5
 30
0.0
 11
230.0
 21
233.84
 31
0.0
  0
SOLID
  5
A5D
  8
3
  6
CONTINUOUS
 62
     0
 10
229.33333333333329
 20
224.0
 30
0.0
 11
230.66666666666671
 21
224.0
 31
0.0
 12
230.0
 22
220.0
 32
0.0
 13
230.0
 23
220.0
 33
0.0
  0
SOLID
  5
A5E
  8
3
  6
CONTINUOUS
 62
     0
 10
229.33333333333329
 20
241.5
 30
0.0
 11
230.66666666666671
 21
241.5
 31
0.0
 12
230.0
 22
245.5
 32
0.0
 13
230.0
 23
245.5
 33
0.0
  0
INSERT
  5
A5F
  8
2
  2
*U141
 10
0.0
 20
0.0
 30
0.0
  0
POINT
  5
A60
  8
DEFPOINTS
  6
CONTINUOUS
 62
     0
 10
211.59999999999999
 20
220.0
 30
0.0
  0
POINT
  5
A61
  8
DEFPOINTS
  6
CONTINUOUS
 62
     0
 10
182.0
 20
245.5
 30
0.0
  0
POINT
  5
A62
  8
DEFPOINTS
  6
CONTINUOUS
 62
     0
 10
230.0
 20
245.5
 30
0.0
  0
ENDBLK
  5
928
  8
0
  0
BLOCK
  8
0
  2
*D123
 70
     1
 10
0.0
 20
0.0
 30
0.0
  3
*D123
  1

  0
LINE
  5
A1E
  8
3
  6
CONTINUOUS
 62
     0
 10
182.0
 20
338.5
 30
0.0
 11
220.0
 21
338.5
 31
0.0
  0
LINE
  5
A1F
  8
3
  6
CONTINUOUS
 62
     0
 10
220.0
 20
311.5
 30
0.0
 11
220.0
 21
321.91000000000003
 31
0.0
  0
LINE
  5
A20
  8
3
  6
CONTINUOUS
 62
     0
 10
220.0
 20
334.5
 30
0.0
 11
220.0
 21
324.08999999999997
 31
0.0
  0
SOLID
  5
A21
  8
3
  6
CONTINUOUS
 62
     0
 10
219.33333333333329
 20
311.5
 30
0.0
 11
220.6666666666666
 21
311.5
 31
0.0
 12
220.0
 22
307.5
 32
0.0
 13
220.0
 23
307.5
 33
0.0
  0
SOLID
  5
A22
  8
3
  6
CONTINUOUS
 62
     0
 10
219.33333333333329
 20
334.5
 30
0.0
 11
220.6666666666666
 21
334.5
 31
0.0
 12
220.0
 22
338.5
 32
0.0
 13
220.0
 23
338.5
 33
0.0
  0
INSERT
  5
A23
  8
2
  2
*U138
 10
0.0
 20
0.0
 30
0.0
  0
POINT
  5
A24
  8
DEFPOINTS
  6
CONTINUOUS
 62
     0
 10
220.0
 20
307.5
 30
0.0
  0
POINT
  5
A25
  8
DEFPOINTS
  6
CONTINUOUS
 62
     0
 10
182.0
 20
338.5
 30
0.0
  0
POINT
  5
A26
  8
DEFPOINTS
  6
CONTINUOUS
 62
     0
 10
220.0
 20
338.5
 30
0.0
  0
ENDBLK
  5
934
  8
0
  0
BLOCK
  8
0
  2
*D124
 70
     1
 10
0.0
 20
0.0
 30
0.0
  3
*D124
  1

  0
LINE
  5
A27
  8
3
  6
CONTINUOUS
 62
     0
 10
182.0
 20
307.5
 30
0.0
 11
220.0
 21
307.5
 31
0.0
  0
LINE
  5
A28
  8
3
  6
CONTINUOUS
 62
     0
 10
220.0
 20
280.5
 30
0.0
 11
220.0
 21
290.91000000000003
 31
0.0
  0
LINE
  5
A29
  8
3
  6
CONTINUOUS
 62
     0
 10
220.0
 20
303.5
 30
0.0
 11
220.0
 21
293.08999999999997
 31
0.0
  0
SOLID
  5
A2A
  8
3
  6
CONTINUOUS
 62
     0
 10
219.33333333333329
 20
280.5
 30
0.0
 11
220.6666666666666
 21
280.5
 31
0.0
 12
220.0
 22
276.5
 32
0.0
 13
220.0
 23
276.5
 33
0.0
  0
SOLID
  5
A2B
  8
3
  6
CONTINUOUS
 62
     0
 10
219.33333333333329
 20
303.5
 30
0.0
 11
220.6666666666666
 21
303.5
 31
0.0
 12
220.0
 22
307.5
 32
0.0
 13
220.0
 23
307.5
 33
0.0
  0
INSERT
  5
A2C
  8
2
  2
*U139
 10
0.0
 20
0.0
 30
0.0
  0
POINT
  5
A2D
  8
DEFPOINTS
  6
CONTINUOUS
 62
     0
 10
220.0
 20
276.5
 30
0.0
  0
POINT
  5
A2E
  8
DEFPOINTS
  6
CONTINUOUS
 62
     0
 10
182.0
 20
307.5
 30
0.0
  0
POINT
  5
A2F
  8
DEFPOINTS
  6
CONTINUOUS
 62
     0
 10
220.0
 20
307.5
 30
0.0
  0
ENDBLK
  5
940
  8
0
  0
BLOCK
  8
0
  2
*D125
 70
     1
 10
0.0
 20
0.0
 30
0.0
  3
*D125
  1

  0
LINE
  5
A30
  8
3
  6
CONTINUOUS
 62
     0
 10
192.0
 20
245.5
 30
0.0
 11
220.0
 21
245.5
 31
0.0
  0
LINE
  5
A31
  8
3
  6
CONTINUOUS
 62
     0
 10
182.0
 20
276.5
 30
0.0
 11
220.0
 21
276.5
 31
0.0
  0
LINE
  5
A32
  8
3
  6
CONTINUOUS
 62
     0
 10
220.0
 20
249.5
 30
0.0
 11
220.0
 21
259.91000000000003
 31
0.0
  0
LINE
  5
A33
  8
3
  6
CONTINUOUS
 62
     0
 10
220.0
 20
272.5
 30
0.0
 11
220.0
 21
262.08999999999997
 31
0.0
  0
SOLID
  5
A34
  8
3
  6
CONTINUOUS
 62
     0
 10
219.33333333333329
 20
249.5
 30
0.0
 11
220.6666666666666
 21
249.5
 31
0.0
 12
220.0
 22
245.5
 32
0.0
 13
220.0
 23
245.5
 33
0.0
  0
SOLID
  5
A35
  8
3
  6
CONTINUOUS
 62
     0
 10
219.33333333333329
 20
272.5
 30
0.0
 11
220.6666666666666
 21
272.5
 31
0.0
 12
220.0
 22
276.5
 32
0.0
 13
220.0
 23
276.5
 33
0.0
  0
INSERT
  5
A36
  8
2
  2
*U140
 10
0.0
 20
0.0
 30
0.0
  0
POINT
  5
A37
  8
DEFPOINTS
  6
CONTINUOUS
 62
     0
 10
192.0
 20
245.5
 30
0.0
  0
POINT
  5
A38
  8
DEFPOINTS
  6
CONTINUOUS
 62
     0
 10
182.0
 20
276.5
 30
0.0
  0
POINT
  5
A39
  8
DEFPOINTS
  6
CONTINUOUS
 62
     0
 10
220.0
 20
276.5
 30
0.0
  0
ENDBLK
  5
94D
  8
0
  0
BLOCK
  8
0
  2
*D126
 70
     1
 10
0.0
 20
0.0
 30
0.0
  3
*D126
  1

  0
LINE
  5
9DD
  8
3
  6
CONTINUOUS
 62
     0
 10
88.400000000000006
 20
220.0
 30
0.0
 11
74.999999999999986
 21
220.0
 31
0.0
  0
LINE
  5
9DE
  8
3
  6
CONTINUOUS
 62
     0
 10
88.400000000000006
 20
364.0
 30
0.0
 11
75.000000000000028
 21
364.0
 31
0.0
  0
LINE
  5
9DF
  8
3
  6
CONTINUOUS
 62
     0
 10
75.0
 20
224.0
 30
0.0
 11
75.000000000000014
 21
290.91000000000003
 31
0.0
  0
LINE
  5
9E0
  8
3
  6
CONTINUOUS
 62
     0
 10
75.000000000000028
 20
360.0
 30
0.0
 11
75.000000000000014
 21
293.08999999999997
 31
0.0
  0
SOLID
  5
9E1
  8
3
  6
CONTINUOUS
 62
     0
 10
74.333333333333329
 20
224.0
 30
0.0
 11
75.666666666666671
 21
224.0
 31
0.0
 12
74.999999999999986
 22
220.0
 32
0.0
 13
74.999999999999986
 23
220.0
 33
0.0
  0
SOLID
  5
9E2
  8
3
  6
CONTINUOUS
 62
     0
 10
74.333333333333357
 20
360.0
 30
0.0
 11
75.666666666666686
 21
360.0
 31
0.0
 12
75.000000000000028
 22
364.0
 32
0.0
 13
75.000000000000028
 23
364.0
 33
0.0
  0
INSERT
  5
9E3
  8
2
  2
*U136
 10
0.0
 20
0.0
 30
0.0
  0
POINT
  5
9E4
  8
DEFPOINTS
  6
CONTINUOUS
 62
     0
 10
88.400000000000006
 20
220.0
 30
0.0
  0
POINT
  5
9E5
  8
DEFPOINTS
  6
CONTINUOUS
 62
     0
 10
88.400000000000006
 20
364.0
 30
0.0
  0
POINT
  5
9E6
  8
DEFPOINTS
  6
CONTINUOUS
 62
     0
 10
75.000000000000028
 20
364.0
 30
0.0
  0
ENDBLK
  5
95A
  8
0
  0
BLOCK
  8
0
  2
*D127
 70
     1
 10
0.0
 20
0.0
 30
0.0
  3
*D127
  1

  0
LINE
  5
9F9
  8
3
  6
CONTINUOUS
 62
     0
 10
98.400000000000006
 20
349.0
 30
0.0
 11
80.0
 21
349.0
 31
0.0
  0
LINE
  5
9FA
  8
3
  6
CONTINUOUS
 62
     0
 10
80.0
 20
345.0
 30
0.0
 11
80.0
 21
288.77379383896073
 31
0.0
  0
LINE
  5
9FB
  8
3
  6
CONTINUOUS
 62
     0
 10
79.999999999999986
 20
239.0
 30
0.0
 11
79.999999999999986
 21
286.59379383896072
 31
0.0
  0
INSERT
  5
9FC
  8
2
  2
*U137
 10
0.0
 20
0.0
 30
0.0
  0
SOLID
  5
9FD
  8
3
  6
CONTINUOUS
 62
     0
 10
79.333333333333329
 20
345.0
 30
0.0
 11
80.666666666666686
 21
345.0
 31
0.0
 12
80.0
 22
349.0
 32
0.0
 13
80.0
 23
349.0
 33
0.0
  0
SOLID
  5
9FE
  8
3
  6
CONTINUOUS
 62
     0
 10
79.333333333333314
 20
239.0
 30
0.0
 11
80.666666666666657
 21
239.0
 31
0.0
 12
79.999999999999986
 22
235.0
 32
0.0
 13
79.999999999999986
 23
235.0
 33
0.0
  0
POINT
  5
9FF
  8
DEFPOINTS
  6
CONTINUOUS
 62
     0
 10
98.400000000000006
 20
349.0
 30
0.0
  0
POINT
  5
A00
  8
DEFPOINTS
  6
CONTINUOUS
 62
     0
 10
80.0
 20
235.0
 30
0.0
  0
POINT
  5
A01
  8
DEFPOINTS
  6
CONTINUOUS
 62
     0
 10
79.999999999999986
 20
235.0
 30
0.0
  0
ENDBLK
  5
966
  8
0
  0
BLOCK
  8
0
  2
*D128
 70
     1
 10
0.0
 20
0.0
 30
0.0
  3
*D128
  1

  0
LINE
  5
B05
  8
3
  6
CONTINUOUS
 62
     0
 10
88.400000000000006
 20
220.0
 30
0.0
 11
80.0
 21
220.0
 31
0.0
  0
LINE
  5
B06
  8
3
  6
CONTINUOUS
 62
     0
 10
98.400000000000006
 20
235.0
 30
0.0
 11
80.000000000000014
 21
235.0
 31
0.0
  0
LINE
  5
B07
  8
3
  6
CONTINUOUS
 62
     0
 10
80.000000000000014
 20
224.0
 30
0.0
 11
80.000000000000014
 21
226.41
 31
0.0
  0
LINE
  5
B08
  8
3
  6
CONTINUOUS
 62
     0
 10
80.000000000000014
 20
231.0
 30
0.0
 11
80.000000000000014
 21
228.59
 31
0.0
  0
SOLID
  5
B09
  8
3
  6
CONTINUOUS
 62
     0
 10
79.333333333333343
 20
224.0
 30
0.0
 11
80.666666666666686
 21
224.0
 31
0.0
 12
80.0
 22
220.0
 32
0.0
 13
80.0
 23
220.0
 33
0.0
  0
SOLID
  5
B0A
  8
3
  6
CONTINUOUS
 62
     0
 10
79.333333333333343
 20
231.0
 30
0.0
 11
80.666666666666686
 21
231.0
 31
0.0
 12
80.000000000000014
 22
235.0
 32
0.0
 13
80.000000000000014
 23
235.0
 33
0.0
  0
INSERT
  5
B0B
  8
2
  2
*U150
 10
0.0
 20
0.0
 30
0.0
  0
POINT
  5
B0C
  8
DEFPOINTS
  6
CONTINUOUS
 62
     0
 10
88.400000000000006
 20
220.0
 30
0.0
  0
POINT
  5
B0D
  8
DEFPOINTS
  6
CONTINUOUS
 62
     0
 10
98.400000000000006
 20
235.0
 30
0.0
  0
POINT
  5
B0E
  8
DEFPOINTS
  6
CONTINUOUS
 62
     0
 10
80.000000000000014
 20
235.0
 30
0.0
  0
ENDBLK
  5
973
  8
0
  0
BLOCK
  8
0
  2
*D129
 70
     1
 10
0.0
 20
0.0
 30
0.0
  3
*D129
  1

  0
LINE
  5
ABD
  8
3
  6
CONTINUOUS
 62
     0
 10
102.0
 20
366.0
 30
0.0
 11
102.0
 21
390.0
 31
0.0
  0
LINE
  5
ABE
  8
3
  6
CONTINUOUS
 62
     0
 10
198.0
 20
366.0
 30
0.0
 11
198.0
 21
390.0
 31
0.0
  0
LINE
  5
ABF
  8
3
  6
CONTINUOUS
 62
     0
 10
106.0
 20
390.0
 30
0.0
 11
148.24333333333331
 21
390.0
 31
0.0
  0
LINE
  5
AC0
  8
3
  6
CONTINUOUS
 62
     0
 10
194.0
 20
390.0
 30
0.0
 11
151.7566666666666
 21
390.0
 31
0.0
  0
SOLID
  5
AC1
  8
3
  6
CONTINUOUS
 62
     0
 10
106.0
 20
390.66666666666669
 30
0.0
 11
106.0
 21
389.33333333333331
 31
0.0
 12
102.0
 22
390.0
 32
0.0
 13
102.0
 23
390.0
 33
0.0
  0
SOLID
  5
AC2
  8
3
  6
CONTINUOUS
 62
     0
 10
194.0
 20
390.66666666666669
 30
0.0
 11
194.0
 21
389.33333333333331
 31
0.0
 12
198.0
 22
390.0
 32
0.0
 13
198.0
 23
390.0
 33
0.0
  0
INSERT
  5
AC3
  8
2
  2
*U146
 10
0.0
 20
0.0
 30
0.0
  0
POINT
  5
AC4
  8
DEFPOINTS
  6
CONTINUOUS
 62
     0
 10
102.0
 20
366.0
 30
0.0
  0
POINT
  5
AC5
  8
DEFPOINTS
  6
CONTINUOUS
 62
     0
 10
198.0
 20
366.0
 30
0.0
  0
POINT
  5
AC6
  8
DEFPOINTS
  6
CONTINUOUS
 62
     0
 10
198.0
 20
390.0
 30
0.0
  0
ENDBLK
  5
980
  8
0
  0
BLOCK
  8
0
  2
*D130
 70
     1
 10
0.0
 20
0.0
 30
0.0
  3
*D130
  1

  0
LINE
  5
AB3
  8
3
  6
CONTINUOUS
 62
     0
 10
95.400000000000006
 20
232.0
 30
0.0
 11
95.40000000000002
 21
395.0
 31
0.0
  0
LINE
  5
AB4
  8
3
  6
CONTINUOUS
 62
     0
 10
204.59999999999999
 20
232.0
 30
0.0
 11
204.59999999999999
 21
395.0
 31
0.0
  0
LINE
  5
AB5
  8
3
  6
CONTINUOUS
 62
     0
 10
99.400000000000034
 20
395.0
 30
0.0
 11
146.41
 21
395.0
 31
0.0
  0
LINE
  5
AB6
  8
3
  6
CONTINUOUS
 62
     0
 10
200.59999999999999
 20
395.0
 30
0.0
 11
153.59
 21
395.0
 31
0.0
  0
SOLID
  5
AB7
  8
3
  6
CONTINUOUS
 62
     0
 10
99.400000000000034
 20
395.66666666666669
 30
0.0
 11
99.400000000000034
 21
394.33333333333331
 31
0.0
 12
95.40000000000002
 22
395.0
 32
0.0
 13
95.40000000000002
 23
395.0
 33
0.0
  0
SOLID
  5
AB8
  8
3
  6
CONTINUOUS
 62
     0
 10
200.59999999999999
 20
395.66666666666669
 30
0.0
 11
200.59999999999999
 21
394.33333333333331
 31
0.0
 12
204.59999999999999
 22
395.0
 32
0.0
 13
204.59999999999999
 23
395.0
 33
0.0
  0
INSERT
  5
AB9
  8
2
  2
*U145
 10
0.0
 20
0.0
 30
0.0
  0
POINT
  5
ABA
  8
DEFPOINTS
  6
CONTINUOUS
 62
     0
 10
95.400000000000006
 20
232.0
 30
0.0
  0
POINT
  5
ABB
  8
DEFPOINTS
  6
CONTINUOUS
 62
     0
 10
204.59999999999999
 20
232.0
 30
0.0
  0
POINT
  5
ABC
  8
DEFPOINTS
  6
CONTINUOUS
 62
     0
 10
204.59999999999999
 20
395.0
 30
0.0
  0
ENDBLK
  5
98D
  8
0
  0
BLOCK
  8
0
  2
*D131
 70
     1
 10
0.0
 20
0.0
 30
0.0
  3
*D131
  1

  0
LINE
  5
AA9
  8
3
  6
CONTINUOUS
 62
     0
 10
90.400000000000006
 20
366.0
 30
0.0
 11
90.400000000000006
 21
400.0
 31
0.0
  0
LINE
  5
AAA
  8
3
  6
CONTINUOUS
 62
     0
 10
209.59999999999999
 20
366.0
 30
0.0
 11
209.59999999999999
 21
400.0
 31
0.0
  0
LINE
  5
AAB
  8
3
  6
CONTINUOUS
 62
     0
 10
94.400000000000006
 20
400.0
 30
0.0
 11
146.5766666666666
 21
400.0
 31
0.0
  0
LINE
  5
AAC
  8
3
  6
CONTINUOUS
 62
     0
 10
205.59999999999999
 20
400.0
 30
0.0
 11
153.42333333333329
 21
400.0
 31
0.0
  0
SOLID
  5
AAD
  8
3
  6
CONTINUOUS
 62
     0
 10
94.400000000000006
 20
400.66666666666657
 30
0.0
 11
94.400000000000006
 21
399.33333333333331
 31
0.0
 12
90.400000000000006
 22
400.0
 32
0.0
 13
90.400000000000006
 23
400.0
 33
0.0
  0
SOLID
  5
AAE
  8
3
  6
CONTINUOUS
 62
     0
 10
205.59999999999999
 20
400.66666666666657
 30
0.0
 11
205.59999999999999
 21
399.33333333333331
 31
0.0
 12
209.59999999999999
 22
400.0
 32
0.0
 13
209.59999999999999
 23
400.0
 33
0.0
  0
INSERT
  5
AAF
  8
2
  2
*U144
 10
0.0
 20
0.0
 30
0.0
  0
POINT
  5
AB0
  8
DEFPOINTS
  6
CONTINUOUS
 62
     0
 10
90.400000000000006
 20
366.0
 30
0.0
  0
POINT
  5
AB1
  8
DEFPOINTS
  6
CONTINUOUS
 62
     0
 10
209.59999999999999
 20
366.0
 30
0.0
  0
POINT
  5
AB2
  8
DEFPOINTS
  6
CONTINUOUS
 62
     0
 10
209.59999999999999
 20
400.0
 30
0.0
  0
ENDBLK
  5
99A
  8
0
  0
BLOCK
  8
0
  2
*D132
 70
     1
 10
0.0
 20
0.0
 30
0.0
  3
*D132
  1

  0
LINE
  5
AC7
  8
3
  6
CONTINUOUS
 62
     0
 10
110.0
 20
237.0
 30
0.0
 11
110.0
 21
385.0
 31
0.0
  0
LINE
  5
AC8
  8
3
  6
CONTINUOUS
 62
     0
 10
190.0
 20
237.0
 30
0.0
 11
190.0
 21
385.0
 31
0.0
  0
LINE
  5
AC9
  8
3
  6
CONTINUOUS
 62
     0
 10
114.0
 20
385.0
 30
0.0
 11
148.41
 21
385.0
 31
0.0
  0
LINE
  5
ACA
  8
3
  6
CONTINUOUS
 62
     0
 10
186.0
 20
385.0
 30
0.0
 11
151.59
 21
385.0
 31
0.0
  0
SOLID
  5
ACB
  8
3
  6
CONTINUOUS
 62
     0
 10
114.0
 20
385.66666666666669
 30
0.0
 11
114.0
 21
384.33333333333331
 31
0.0
 12
110.0
 22
385.0
 32
0.0
 13
110.0
 23
385.0
 33
0.0
  0
SOLID
  5
ACC
  8
3
  6
CONTINUOUS
 62
     0
 10
186.0
 20
385.66666666666669
 30
0.0
 11
186.0
 21
384.33333333333331
 31
0.0
 12
190.0
 22
385.0
 32
0.0
 13
190.0
 23
385.0
 33
0.0
  0
INSERT
  5
ACD
  8
2
  2
*U147
 10
0.0
 20
0.0
 30
0.0
  0
POINT
  5
ACE
  8
DEFPOINTS
  6
CONTINUOUS
 62
     0
 10
110.0
 20
237.0
 30
0.0
  0
POINT
  5
ACF
  8
DEFPOINTS
  6
CONTINUOUS
 62
     0
 10
190.0
 20
237.0
 30
0.0
  0
POINT
  5
AD0
  8
DEFPOINTS
  6
CONTINUOUS
 62
     0
 10
190.0
 20
385.0
 30
0.0
  0
ENDBLK
  5
9A7
  8
0
  0
BLOCK
  8
0
  2
*D133
 70
     1
 10
0.0
 20
0.0
 30
0.0
  3
*D133
  1

  0
LINE
  5
AD1
  8
3
  6
CONTINUOUS
 62
     0
 10
120.0
 20
222.0
 30
0.0
 11
120.0
 21
380.0
 31
0.0
  0
LINE
  5
AD2
  8
3
  6
CONTINUOUS
 62
     0
 10
180.0
 20
222.0
 30
0.0
 11
180.0
 21
380.0
 31
0.0
  0
LINE
  5
AD3
  8
3
  6
CONTINUOUS
 62
     0
 10
124.0
 20
380.0
 30
0.0
 11
148.41
 21
380.0
 31
0.0
  0
LINE
  5
AD4
  8
3
  6
CONTINUOUS
 62
     0
 10
176.0
 20
380.0
 30
0.0
 11
151.59
 21
380.0
 31
0.0
  0
SOLID
  5
AD5
  8
3
  6
CONTINUOUS
 62
     0
 10
124.0
 20
380.66666666666669
 30
0.0
 11
124.0
 21
379.33333333333331
 31
0.0
 12
120.0
 22
380.0
 32
0.0
 13
120.0
 23
380.0
 33
0.0
  0
SOLID
  5
AD6
  8
3
  6
CONTINUOUS
 62
     0
 10
176.0
 20
380.66666666666669
 30
0.0
 11
176.0
 21
379.33333333333331
 31
0.0
 12
180.0
 22
380.0
 32
0.0
 13
180.0
 23
380.0
 33
0.0
  0
INSERT
  5
AD7
  8
2
  2
*U148
 10
0.0
 20
0.0
 30
0.0
  0
POINT
  5
AD8
  8
DEFPOINTS
  6
CONTINUOUS
 62
     0
 10
120.0
 20
222.0
 30
0.0
  0
POINT
  5
AD9
  8
DEFPOINTS
  6
CONTINUOUS
 62
     0
 10
180.0
 20
222.0
 30
0.0
  0
POINT
  5
ADA
  8
DEFPOINTS
  6
CONTINUOUS
 62
     0
 10
180.0
 20
380.0
 30
0.0
  0
ENDBLK
  5
9B4
  8
0
  0
BLOCK
  8
0
  2
A$C09BC7932
 70
     0
 10
0.0
 20
0.0
 30
0.0
  3
A$C09BC7932
  1

  0
LINE
  5
D86
  8
2
  6
CONTINUOUS
 62
   134
 10
-0.0000007957010837
 20
37.100000053750591
 30
0.0
 11
-0.0000007957010837
 21
6.9000000537505448
 31
0.0
  0
LINE
  5
D87
  8
2
  6
CONTINUOUS
 62
   134
 10
-0.0000007957010837
 20
0.0000000537505684
 30
0.0
 11
-0.0000007957010837
 21
44.000000053750568
 31
0.0
  0
ENDBLK
  5
D89
  8
0
  0
BLOCK
  8
0
  2
*U136
 70
     1
 10
0.0
 20
0.0
 30
0.0
  3
*U136
  1

  0
TEXT
  5
E38
  8
3
 62
     0
 10
72.666666666666629
 20
291.0
 30
0.0
 40
2.0
  1
144
  0
ENDBLK
  5
E3A
  8
0
  0
BLOCK
  8
0
  2
*U137
 70
     1
 10
0.0
 20
0.0
 30
0.0
  3
*U137
  1

  0
TEXT
  5
E3C
  8
3
 62
     0
 10
78.0
 20
286.6837938389607
 30
0.0
 40
2.0
  1
114
  0
ENDBLK
  5
E3E
  8
0
  0
BLOCK
  8
0
  2
*U138
 70
     1
 10
0.0
 20
0.0
 30
0.0
  3
*U138
  1

  0
TEXT
  5
E40
  8
3
 62
     0
 10
218.6666666666666
 20
322.00000000000011
 30
0.0
 40
2.0
  1
31
  0
ENDBLK
  5
E42
  8
0
  0
BLOCK
  8
0
  2
*U139
 70
     1
 10
0.0
 20
0.0
 30
0.0
  3
*U139
  1

  0
TEXT
  5
E44
  8
3
 62
     0
 10
218.6666666666666
 20
291.00000000000011
 30
0.0
 40
2.0
  1
31
  0
ENDBLK
  5
E46
  8
0
  0
BLOCK
  8
0
  2
*U140
 70
     1
 10
0.0
 20
0.0
 30
0.0
  3
*U140
  1

  0
TEXT
  5
E48
  8
3
 62
     0
 10
218.6666666666666
 20
260.0
 30
0.0
 40
2.0
  1
31
  0
ENDBLK
  5
E4A
  8
0
  0
BLOCK
  8
0
  2
*U141
 70
     1
 10
0.0
 20
0.0
 30
0.0
  3
*U141
  1

  0
TEXT
  5
E4C
  8
3
 62
     0
 10
227.0
 20
231.75000000000011
 30
0.0
 40
2.0
  1
25.5
  0
ENDBLK
  5
E4E
  8
0
  0
BLOCK
  8
0
  2
*U142
 70
     1
 10
0.0
 20
0.0
 30
0.0
  3
*U142
  1

  0
TEXT
  5
E50
  8
3
 62
     0
 10
213.30787699999999
 20
348.0
 30
0.0
 40
2.0
  1
4.5
  0
ENDBLK
  5
E52
  8
0
  0
BLOCK
  8
0
  2
*U143
 70
     1
 10
0.0
 20
0.0
 30
0.0
  3
*U143
  1

  0
TEXT
  5
E54
  8
3
 62
     0
 10
219.33333333333329
 20
360.5
 30
0.0
 40
2.0
  1
5
  0
ENDBLK
  5
E56
  8
0
  0
BLOCK
  8
0
  2
*U144
 70
     1
 10
0.0
 20
0.0
 30
0.0
  3
*U144
  1

  0
TEXT
  5
E58
  8
3
 62
     0
 10
146.6666666666666
 20
399.0
 30
0.0
 40
2.0
  1
119.2
  0
ENDBLK
  5
E5A
  8
0
  0
BLOCK
  8
0
  2
*U145
 70
     1
 10
0.0
 20
0.0
 30
0.0
  3
*U145
  1

  0
TEXT
  5
E5C
  8
3
 62
     0
 10
146.5
 20
394.0
 30
0.0
 40
2.0
  1
109.2
  0
ENDBLK
  5
E5E
  8
0
  0
BLOCK
  8
0
  2
*U146
 70
     1
 10
0.0
 20
0.0
 30
0.0
  3
*U146
  1

  0
TEXT
  5
E60
  8
3
 62
     0
 10
148.33333333333329
 20
389.0
 30
0.0
 40
2.0
  1
96
  0
ENDBLK
  5
E62
  8
0
  0
BLOCK
  8
0
  2
*U147
 70
     1
 10
0.0
 20
0.0
 30
0.0
  3
*U147
  1

  0
TEXT
  5
E64
  8
3
 62
     0
 10
148.5
 20
384.0
 30
0.0
 40
2.0
  1
80
  0
ENDBLK
  5
E66
  8
0
  0
BLOCK
  8
0
  2
*U148
 70
     1
 10
0.0
 20
0.0
 30
0.0
  3
*U148
  1

  0
TEXT
  5
E68
  8
3
 62
     0
 10
148.5
 20
379.0
 30
0.0
 40
2.0
  1
60
  0
ENDBLK
  5
E6A
  8
0
  0
BLOCK
  8
0
  2
*U149
 70
     1
 10
0.0
 20
0.0
 30
0.0
  3
*U149
  1

  0
TEXT
  5
E6C
  8
3
 62
     0
 10
219.33333333333329
 20
221.50000000000011
 30
0.0
 40
2.0
  1
5
  0
ENDBLK
  5
E6E
  8
0
  0
BLOCK
  8
0
  2
*U150
 70
     1
 10
0.0
 20
0.0
 30
0.0
  3
*U150
  1

  0
TEXT
  5
E70
  8
3
 62
     0
 10
78.666666666666643
 20
226.5
 30
0.0
 40
2.0
  1
15
  0
ENDBLK
  5
E72
  8
0
  0
BLOCK
  8
0
  2
*U151
 70
     1
 10
0.0
 20
0.0
 30
0.0
  3
*U151
  1

  0
TEXT
  5
E74
  8
3
 62
     0
 10
-44.833333333333329
 20
114.0
 30
0.0
 40
2.0
  1
30.2
  0
ENDBLK
  5
E76
  8
0
  0
BLOCK
  8
0
  2
*U152
 70
     1
 10
0.0
 20
0.0
 30
0.0
  3
*U152
  1

  0
TEXT
  5
E78
  8
3
 62
     0
 10
-43.666666666666657
 20
119.0
 30
0.0
 40
2.0
  1
36
  0
ENDBLK
  5
E7A
  8
0
  0
BLOCK
  8
0
  2
*U153
 70
     1
 10
0.0
 20
0.0
 30
0.0
  3
*U153
  1

  0
TEXT
  5
E7C
  8
3
 62
     0
 10
6.833333333333333
 20
124.0
 30
0.0
 40
2.0
  1
102
  0
ENDBLK
  5
E7E
  8
0
  0
BLOCK
  8
0
  2
*U154
 70
     1
 10
0.0
 20
0.0
 30
0.0
  3
*U154
  1

  0
TEXT
  5
E80
  8
3
 62
     0
 10
16.833333333333329
 20
119.0
 30
0.0
 40
2.0
  1
25
  0
ENDBLK
  5
E82
  8
0
  0
BLOCK
  8
0
  2
*U155
 70
     1
 10
0.0
 20
0.0
 30
0.0
  3
*U155
  1

  0
TEXT
  5
E84
  8
3
 62
     0
 10
43.833333333333329
 20
119.0
 30
0.0
 40
2.0
  1
29
  0
ENDBLK
  5
E86
  8
0
  0
BLOCK
  8
0
  2
*U156
 70
     1
 10
0.0
 20
0.0
 30
0.0
  3
*U156
  1

  0
TEXT
  5
E88
  8
3
 62
     0
 10
75.0
 20
123.3
 30
0.0
 40
2.0
  1
(124.6)
  0
ENDBLK
  5
E8A
  8
0
  0
BLOCK
  8
0
  2
*U157
 70
     1
 10
0.0
 20
0.0
 30
0.0
  3
*U157
  1

  0
TEXT
  5
E8C
  8
3
 62
     0
 10
68.583333333333314
 20
75.0
 30
0.0
 40
2.0
  1
28
  0
ENDBLK
  5
E8E
  8
0
  0
BLOCK
  8
0
  2
*U158
 70
     1
 10
0.0
 20
0.0
 30
0.0
  3
*U158
  1

  0
TEXT
  5
E90
  8
3
 62
     0
 10
73.333333333333314
 20
84.0
 30
0.0
 40
2.0
  1
46
  0
ENDBLK
  5
E92
  8
0
  0
BLOCK
  8
0
  2
*U159
 70
     1
 10
0.0
 20
0.0
 30
0.0
  3
*U159
  1

  0
TEXT
  5
E94
  8
3
 62
     0
 10
44.740000000000002
 20
94.0
 30
0.0
 40
2.0
  1
φ11.3
  0
ENDBLK
  5
E96
  8
0
  0
BLOCK
  8
0
  2
*U160
 70
     1
 10
0.0
 20
0.0
 30
0.0
  3
*U160
  1

  0
TEXT
  5
E98
  8
3
 62
     0
 10
-94.668115851172885
 20
129.73451162270109
 30
0.0
 40
2.0
  1
4-R3.5
  0
ENDBLK
  5
E9A
  8
0
  0
BLOCK
  8
0
  2
*U161
 70
     1
 10
0.0
 20
0.0
 30
0.0
  3
*U161
  1

  0
TEXT
  5
E9C
  8
3
 62
     0
 10
18.690000000000001
 20
94.0
 30
0.0
 40
2.0
  1
φ9.2
  0
ENDBLK
  5
E9E
  8
0
  0
BLOCK
  8
0
  2
*U162
 70
     1
 10
0.0
 20
0.0
 30
0.0
  3
*U162
  1

  0
TEXT
  5
EA0
  8
3
 62
     0
 10
217.6666666666666
 20
122.5
 30
0.0
 40
2.0
  1
123
  0
ENDBLK
  5
EA2
  8
0
  0
BLOCK
  8
0
  2
*U163
 70
     1
 10
0.0
 20
0.0
 30
0.0
  3
*U163
  1

  0
TEXT
  5
EA4
  8
3
 62
     0
 10
239.8666666666667
 20
79.0
 30
0.0
 40
2.0
  1
16
  0
ENDBLK
  5
EA6
  8
0
  0
BLOCK
  8
0
  2
*U164
 70
     1
 10
0.0
 20
0.0
 30
0.0
  3
*U164
  1

  0
TEXT
  5
EA8
  8
3
 62
     0
 10
303.19999999999999
 20
79.0
 30
0.0
 40
2.0
  1
112
  0
ENDBLK
  5
EAA
  8
0
  0
BLOCK
  8
0
  2
*U165
 70
     1
 10
0.0
 20
0.0
 30
0.0
  3
*U165
  1

  0
TEXT
  5
EAC
  8
3
 62
     0
 10
384.33333333333331
 20
65.000000000000057
 30
0.0
 40
2.0
  1
8
  0
ENDBLK
  5
EAE
  8
0
  0
BLOCK
  8
0
  2
*U166
 70
     1
 10
0.0
 20
0.0
 30
0.0
  3
*U166
  1

  0
TEXT
  5
EB0
  8
3
 62
     0
 10
383.33333333333331
 20
108.0
 30
0.0
 40
2.0
  1
78
  0
ENDBLK
  5
EB2
  8
0
  0
BLOCK
  8
0
  2
*U167
 70
     1
 10
0.0
 20
0.0
 30
0.0
  3
*U167
  1

  0
TEXT
  5
EB4
  8
3
 62
     0
 10
-16.666666666666671
 20
92.125262349668006
 30
0.0
 40
2.0
  1
33
  0
ENDBLK
  5
EB6
  8
0
  0
BLOCK
  8
0
  2
*U168
 70
     1
 10
0.0
 20
0.0
 30
0.0
  3
*U168
  1

  0
TEXT
  5
EB8
  8
3
 62
     0
 10
64.917070491400764
 20
377.77385053281398
 30
0.0
 40
2.0
  1
4-C1
  0
ENDBLK
  5
EBA
  8
0
  0
BLOCK
  8
0
  2
*U169
 70
     1
 10
0.0
 20
0.0
 30
0.0
  3
*U169
  1

  0
TEXT
  5
EBC
  8
0
 10
289.38726595500179
 20
242.86947933397681
 30
0.0
 40
4.0
  1
EM-800 
  0
TEXT
  5
EBD
  8
0
 10
316.05393262166848
 20
242.86947933397681
 30
0.0
 40
4.0
  1
外観図
  0
TEXT
  5
EBE
  8
0
 10
289.38726595500179
 20
236.2028126673101
 30
0.0
 40
4.0
  1
　　　　　　　
  0
TEXT
  5
EBF
  8
0
 10
316.43272050045641
 20
236.2028126673101
 30
0.0
 40
4.0
  1
OutLine
  0
TEXT
  5
EC0
  8
0
 10
341.76605383378973
 20
236.2028126673101
 30
0.0
 40
4.0
  1
 
  0
TEXT
  5
EC1
  8
0
 10
343.53878110651692
 20
236.2028126673101
 30
0.0
 40
4.0
  1
Drawing
  0
ENDBLK
  5
EC3
  8
0
  0
ENDSEC
  0
SECTION
  2
ENTITIES
  0
LINE
  5
28A
  8
1
  6
CONTINUOUS
 62
     7
 10
90.400000000000006
 20
62.0
 30
0.0
 11
90.400000000000006
 21
63.600000000000001
 31
0.0
  0
LINE
  5
28B
  8
1
  6
CONTINUOUS
 62
     7
 10
209.59999999999999
 20
63.600000000000001
 30
0.0
 11
209.59999999999999
 21
62.0
 31
0.0
  0
ARC
  5
28C
  8
1
  6
CONTINUOUS
 62
     7
 10
103.0
 20
184.0
 30
0.0
 40
1.0
 50
90.0
 51
180.0
  0
LINE
  5
28D
  8
1
  6
CONTINUOUS
 62
     7
 10
197.0
 20
185.0
 30
0.0
 11
103.0
 21
185.0
 31
0.0
  0
ARC
  5
28E
  8
1
  6
CONTINUOUS
 62
     7
 10
197.0
 20
184.0
 30
0.0
 40
1.0
 50
0.0
 51
90.0
  0
LINE
  5
28F
  8
1
  6
CONTINUOUS
 62
     7
 10
90.400000000000006
 20
63.600000000000001
 30
0.0
 11
99.400000000000006
 21
63.600000000000001
 31
0.0
  0
ARC
  5
290
  8
1
  6
CONTINUOUS
 62
     7
 10
99.400000000000006
 20
64.599999999999994
 30
0.0
 40
1.0
 50
270.0
 51
0.0
  0
LINE
  5
291
  8
1
  6
CONTINUOUS
 62
     7
 10
200.59999999999999
 20
63.600000000000001
 30
0.0
 11
209.59999999999999
 21
63.600000000000001
 31
0.0
  0
ARC
  5
292
  8
1
  6
CONTINUOUS
 62
     7
 10
200.59999999999999
 20
64.599999999999994
 30
0.0
 40
1.0
 50
180.0
 51
270.0
  0
LINE
  5
293
  8
1
  6
CONTINUOUS
 62
     7
 10
100.40000000000001
 20
64.599999999999994
 30
0.0
 11
100.40000000000001
 21
184.59999999999999
 31
0.0
  0
ARC
  5
294
  8
1
  6
CONTINUOUS
 62
     7
 10
102.40000000000001
 20
184.59999999999999
 30
0.0
 40
2.0
 50
90.0
 51
180.0
  0
LINE
  5
295
  8
1
  6
CONTINUOUS
 62
     7
 10
102.40000000000001
 20
186.59999999999999
 30
0.0
 11
197.59999999999999
 21
186.59999999999999
 31
0.0
  0
LINE
  5
296
  8
1
  6
CONTINUOUS
 62
     7
 10
199.59999999999999
 20
184.59999999999999
 30
0.0
 11
199.59999999999999
 21
64.599999999999994
 31
0.0
  0
ARC
  5
297
  8
1
  6
CONTINUOUS
 62
     7
 10
197.59999999999999
 20
184.59999999999999
 30
0.0
 40
2.0
 50
0.0
 51
90.0
  0
LINE
  5
298
  8
1
  6
CONTINUOUS
 62
     7
 10
100.0
 20
62.0
 30
0.0
 11
90.400000000000006
 21
62.0
 31
0.0
  0
LINE
  5
299
  8
1
  6
CONTINUOUS
 62
     7
 10
102.0
 20
184.0
 30
0.0
 11
102.0
 21
64.0
 31
0.0
  0
ARC
  5
29A
  8
1
  6
CONTINUOUS
 62
     7
 10
100.0
 20
64.0
 30
0.0
 40
2.0
 50
270.0
 51
0.0
  0
LINE
  5
29B
  8
1
  6
CONTINUOUS
 62
     7
 10
198.0
 20
64.0
 30
0.0
 11
198.0
 21
184.0
 31
0.0
  0
LINE
  5
29C
  8
1
  6
CONTINUOUS
 62
     7
 10
209.59999999999999
 20
62.0
 30
0.0
 11
200.0
 21
62.0
 31
0.0
  0
ARC
  5
29D
  8
1
  6
CONTINUOUS
 62
     7
 10
200.0
 20
64.0
 30
0.0
 40
2.0
 50
180.0
 51
270.0
  0
LINE
  5
29E
  8
1
  6
CONTINUOUS
 62
     7
 10
100.40000000000001
 20
364.0
 30
0.0
 11
100.40000000000001
 21
220.0
 31
0.0
  0
LINE
  5
29F
  8
1
  6
CONTINUOUS
 62
     7
 10
100.40000000000001
 20
220.0
 30
0.0
 11
199.59999999999999
 21
220.0
 31
0.0
  0
LINE
  5
2A0
  8
1
  6
CONTINUOUS
 62
     7
 10
199.59999999999999
 20
220.0
 30
0.0
 11
199.59999999999999
 21
364.0
 31
0.0
  0
LINE
  5
2A1
  8
1
  6
CONTINUOUS
 62
     7
 10
199.59999999999999
 20
364.0
 30
0.0
 11
100.40000000000001
 21
364.0
 31
0.0
  0
LINE
  5
2A2
  8
1
  6
CONTINUOUS
 62
     7
 10
100.40000000000001
 20
364.0
 30
0.0
 11
91.400000000000006
 21
364.0
 31
0.0
  0
LINE
  5
2A3
  8
1
  6
CONTINUOUS
 62
     7
 10
91.400000000000006
 20
364.0
 30
0.0
 11
90.400000000000006
 21
363.0
 31
0.0
  0
LINE
  5
2A4
  8
1
  6
CONTINUOUS
 62
     7
 10
199.59999999999999
 20
364.0
 30
0.0
 11
208.59999999999999
 21
364.0
 31
0.0
  0
LINE
  5
2A5
  8
1
  6
CONTINUOUS
 62
     7
 10
208.59999999999999
 20
364.0
 30
0.0
 11
209.59999999999999
 21
363.0
 31
0.0
  0
LINE
  5
2A6
  8
1
  6
CONTINUOUS
 62
     7
 10
100.40000000000001
 20
220.0
 30
0.0
 11
91.400000000000006
 21
220.0
 31
0.0
  0
LINE
  5
2A7
  8
1
  6
CONTINUOUS
 62
     7
 10
90.400000000000006
 20
221.0
 30
0.0
 11
91.400000000000006
 21
220.0
 31
0.0
  0
LINE
  5
2A8
  8
1
  6
CONTINUOUS
 62
     7
 10
199.59999999999999
 20
220.0
 30
0.0
 11
208.59999999999999
 21
220.0
 31
0.0
  0
LINE
  5
2A9
  8
1
  6
CONTINUOUS
 62
     7
 10
208.59999999999999
 20
220.0
 30
0.0
 11
209.59999999999999
 21
221.0
 31
0.0
  0
LINE
  5
2AA
  8
1
  6
CONTINUOUS
 62
     7
 10
233.19999999999999
 20
186.59999999999999
 30
0.0
 11
377.19999999999999
 21
186.59999999999999
 31
0.0
  0
LINE
  5
2AB
  8
1
  6
CONTINUOUS
 62
     7
 10
377.19999999999999
 20
186.59999999999999
 30
0.0
 11
377.19999999999999
 21
63.600000000000001
 31
0.0
  0
LINE
  5
2AC
  8
1
  6
CONTINUOUS
 62
     7
 10
377.19999999999999
 20
63.600000000000001
 30
0.0
 11
233.19999999999999
 21
63.600000000000001
 31
0.0
  0
LINE
  5
2AD
  8
1
  6
CONTINUOUS
 62
     7
 10
233.19999999999999
 20
186.59999999999999
 30
0.0
 11
233.19999999999999
 21
63.600000000000001
 31
0.0
  0
LINE
  5
2AE
  8
1
  6
CONTINUOUS
 62
     7
 10
233.19999999999999
 20
63.600000000000001
 30
0.0
 11
233.19999999999999
 21
62.0
 31
0.0
  0
LINE
  5
2AF
  8
1
  6
CONTINUOUS
 62
     7
 10
233.19999999999999
 20
62.0
 30
0.0
 11
377.19999999999999
 21
62.0
 31
0.0
  0
LINE
  5
2B0
  8
1
  6
CONTINUOUS
 62
     7
 10
377.19999999999999
 20
62.0
 30
0.0
 11
377.19999999999999
 21
63.600000000000001
 31
0.0
  0
LINE
  5
2D6
  8
2
  6
CONTINUOUS
 62
   134
 10
90.400000000000006
 20
114.0
 30
0.0
 11
90.400000000000006
 21
102.0
 31
0.0
  0
LINE
  5
2D7
  8
2
  6
CONTINUOUS
 62
   134
 10
90.400000000000006
 20
102.0
 30
0.0
 11
100.40000000000001
 21
102.0
 31
0.0
  0
LINE
  5
2D9
  8
2
  6
CONTINUOUS
 62
   134
 10
100.40000000000001
 20
114.0
 30
0.0
 11
90.400000000000006
 21
114.0
 31
0.0
  0
LINE
  5
2DA
  8
1
  6
CONTINUOUS
 62
     7
 10
60.0
 20
62.0
 30
0.0
 11
60.0
 21
186.59999999999999
 31
0.0
  0
LINE
  5
2DB
  8
1
  6
CONTINUOUS
 62
     7
 10
60.0
 20
186.59999999999999
 30
0.0
 11
-84.0
 21
186.59999999999999
 31
0.0
  0
LINE
  5
2DC
  8
1
  6
CONTINUOUS
 62
     7
 10
-84.0
 20
186.59999999999999
 30
0.0
 11
-84.0
 21
62.0
 31
0.0
  0
LINE
  5
2DD
  8
1
  6
CONTINUOUS
 62
     7
 10
-84.0
 20
62.0
 30
0.0
 11
60.0
 21
62.0
 31
0.0
  0
LINE
  5
2DF
  8
1
  6
CONTINUOUS
 62
     7
 10
60.0
 20
63.600000000000001
 30
0.0
 11
-84.0
 21
63.600000000000001
 31
0.0
  0
LINE
  5
2E0
  8
2
  6
CONTINUOUS
 62
   134
 10
102.0
 20
105.40000000000001
 30
0.0
 11
102.0
 21
74.59999999999998
 31
0.0
  0
LINE
  5
2E4
  8
2
  6
CONTINUOUS
 62
   134
 10
94.400000000000006
 20
108.5
 30
0.0
 11
94.400000000000006
 21
71.5
 31
0.0
  0
LINE
  5
2E5
  8
2
  6
CONTINUOUS
 62
   134
 10
94.400000000000006
 20
71.5
 30
0.0
 11
100.40000000000001
 21
71.5
 31
0.0
  0
LINE
  5
2E6
  8
2
  6
CONTINUOUS
 62
   134
 10
100.40000000000001
 20
71.5
 30
0.0
 11
100.40000000000001
 21
108.5
 31
0.0
  0
LINE
  5
2E7
  8
2
  6
CONTINUOUS
 62
   134
 10
100.40000000000001
 20
108.5
 30
0.0
 11
94.400000000000006
 21
108.5
 31
0.0
  0
LINE
  5
2E8
  8
1
  6
CONTINUOUS
 62
     7
 10
90.400000000000006
 20
351.25
 30
0.0
 11
95.400000000000006
 21
351.25
 31
0.0
  0
LINE
  5
2E9
  8
1
  6
CONTINUOUS
 62
     7
 10
95.400000000000006
 20
346.75
 30
0.0
 11
90.400000000000006
 21
346.75
 31
0.0
  0
ARC
  5
2EA
  8
1
  6
CONTINUOUS
 62
     7
 10
95.400000000000006
 20
349.0
 30
0.0
 40
2.25
 50
270.0
 51
90.0
  0
LINE
  5
2EB
  8
1
  6
CONTINUOUS
 62
     7
 10
90.400000000000006
 20
351.25
 30
0.0
 11
90.400000000000006
 21
363.0
 31
0.0
  0
LINE
  5
2EE
  8
2
  6
CONTINUOUS
 62
   134
 10
100.40000000000001
 20
300.25
 30
0.0
 11
100.40000000000001
 21
344.25
 31
0.0
  0
LINE
  5
2F0
  8
2
  6
CONTINUOUS
 62
   134
 10
100.40000000000001
 20
337.35000000000002
 30
0.0
 11
100.40000000000001
 21
307.14999999999998
 31
0.0
  0
LINE
  5
2FC
  8
1
  6
CONTINUOUS
 62
     7
 10
95.400000000000006
 20
232.75
 30
0.0
 11
90.400000000000006
 21
232.75
 31
0.0
  0
LINE
  5
2FD
  8
1
  6
CONTINUOUS
 62
     7
 10
95.400000000000006
 20
237.25
 30
0.0
 11
90.400000000000006
 21
237.25
 31
0.0
  0
ARC
  5
2FE
  8
1
  6
CONTINUOUS
 62
     7
 10
95.400000000000006
 20
235.0
 30
0.0
 40
2.25
 50
270.0
 51
90.0
  0
LINE
  5
2FF
  8
1
  6
CONTINUOUS
 62
     7
 10
90.400000000000006
 20
346.75
 30
0.0
 11
90.400000000000006
 21
237.25
 31
0.0
  0
LINE
  5
300
  8
1
  6
CONTINUOUS
 62
     7
 10
90.400000000000006
 20
221.0
 30
0.0
 11
90.400000000000006
 21
232.75
 31
0.0
  0
LINE
  5
301
  8
1
  6
CONTINUOUS
 62
     7
 10
204.59999999999999
 20
351.25
 30
0.0
 11
209.59999999999999
 21
351.25
 31
0.0
  0
LINE
  5
302
  8
1
  6
CONTINUOUS
 62
     7
 10
204.59999999999999
 20
346.75
 30
0.0
 11
209.59999999999999
 21
346.75
 31
0.0
  0
ARC
  5
303
  8
1
  6
CONTINUOUS
 62
     7
 10
204.59999999999999
 20
349.0
 30
0.0
 40
2.25
 50
90.0
 51
270.0
  0
LINE
  5
304
  8
1
  6
CONTINUOUS
 62
     7
 10
204.59999999999999
 20
237.25
 30
0.0
 11
209.59999999999999
 21
237.25
 31
0.0
  0
LINE
  5
305
  8
1
  6
CONTINUOUS
 62
     7
 10
204.59999999999999
 20
232.75
 30
0.0
 11
209.59999999999999
 21
232.75
 31
0.0
  0
ARC
  5
306
  8
1
  6
CONTINUOUS
 62
     7
 10
204.59999999999999
 20
235.0
 30
0.0
 40
2.25
 50
90.0
 51
270.0
  0
LINE
  5
307
  8
1
  6
CONTINUOUS
 62
     7
 10
209.59999999999999
 20
221.0
 30
0.0
 11
209.59999999999999
 21
232.75
 31
0.0
  0
LINE
  5
308
  8
1
  6
CONTINUOUS
 62
     7
 10
209.59999999999999
 20
237.25
 30
0.0
 11
209.59999999999999
 21
346.75
 31
0.0
  0
LINE
  5
309
  8
1
  6
CONTINUOUS
 62
     7
 10
209.59999999999999
 20
351.25
 30
0.0
 11
209.59999999999999
 21
363.0
 31
0.0
  0
LINE
  5
30E
  8
2
  6
CONTINUOUS
 62
   134
 10
-55.75
 20
108.5
 30
0.0
 11
-55.75
 21
71.5
 31
0.0
  0
LINE
  5
30F
  8
2
  6
CONTINUOUS
 62
   134
 10
-55.75
 20
71.5
 30
0.0
 11
-28.75
 21
71.5
 31
0.0
  0
LINE
  5
310
  8
2
  6
CONTINUOUS
 62
   134
 10
-28.75
 20
71.5
 30
0.0
 11
-28.75
 21
108.5
 31
0.0
  0
LINE
  5
311
  8
2
  6
CONTINUOUS
 62
   134
 10
-28.75
 20
108.5
 30
0.0
 11
-55.75
 21
108.5
 31
0.0
  0
LINE
  5
312
  8
2
  6
CONTINUOUS
 62
   134
 10
-55.75
 20
108.5
 30
0.0
 11
-64.25
 21
90.0
 31
0.0
  0
LINE
  5
313
  8
2
  6
CONTINUOUS
 62
   134
 10
-64.25
 20
90.0
 30
0.0
 11
-55.75
 21
71.5
 31
0.0
  0
LINE
  5
314
  8
2
  6
CONTINUOUS
 62
   134
 10
-28.75
 20
108.5
 30
0.0
 11
-20.25
 21
90.0
 31
0.0
  0
LINE
  5
315
  8
2
  6
CONTINUOUS
 62
   134
 10
-20.25
 20
90.0
 30
0.0
 11
-28.75
 21
71.5
 31
0.0
  0
CIRCLE
  5
316
  8
2
  6
CONTINUOUS
 62
   134
 10
-60.25
 20
90.0
 30
0.0
 40
1.75
  0
CIRCLE
  5
317
  8
2
  6
CONTINUOUS
 62
   134
 10
-24.25
 20
90.0
 30
0.0
 40
1.75
  0
CIRCLE
  5
318
  8
2
  6
CONTINUOUS
 62
   134
 10
31.0
 20
108.0
 30
0.0
 40
7.5
  0
CIRCLE
  5
319
  8
2
  6
CONTINUOUS
 62
   134
 10
31.0
 20
108.0
 30
0.0
 40
7.25
  0
CIRCLE
  5
31A
  8
2
  6
CONTINUOUS
 62
   134
 10
6.0
 20
108.0
 30
0.0
 40
6.0
  0
LINE
  5
31B
  8
2
  6
CONTINUOUS
 62
   134
 10
90.400000000000006
 20
255.0
 30
0.0
 11
90.400000000000006
 21
243.0
 31
0.0
  0
LINE
  5
31F
  8
2
  6
CONTINUOUS
 62
   134
 10
90.400000000000006
 20
280.0
 30
0.0
 11
90.400000000000006
 21
268.0
 31
0.0
  0
LINE
  5
323
  8
1
  6
CONTINUOUS
 62
     7
 10
245.94999999999999
 20
63.600000000000001
 30
0.0
 11
245.94999999999999
 21
62.0
 31
0.0
  0
LINE
  5
324
  8
1
  6
CONTINUOUS
 62
     7
 10
250.44999999999999
 20
63.600000000000001
 30
0.0
 11
250.44999999999999
 21
62.0
 31
0.0
  0
LINE
  5
325
  8
1
  6
CONTINUOUS
 62
     7
 10
359.94999999999999
 20
63.600000000000001
 30
0.0
 11
359.94999999999999
 21
62.0
 31
0.0
  0
LINE
  5
326
  8
1
  6
CONTINUOUS
 62
     7
 10
364.44999999999999
 20
63.600000000000001
 30
0.0
 11
364.44999999999999
 21
62.0
 31
0.0
  0
CIRCLE
  5
327
  8
1
  6
CONTINUOUS
 62
     7
 10
31.0
 20
108.0
 30
0.0
 40
5.6500000000000004
  0
CIRCLE
  5
328
  8
1
  6
CONTINUOUS
 62
     7
 10
6.0
 20
108.0
 30
0.0
 40
4.5999999999999979
  0
CIRCLE
  5
32A
  8
2
  6
CONTINUOUS
 62
   134
 10
150.0
 20
150.0
 30
0.0
 40
12.5
  0
CIRCLE
  5
34B
  8
1
  6
CONTINUOUS
 62
     7
 10
110.0
 20
245.5
 30
0.0
 40
2.75
  0
CIRCLE
  5
34C
  8
1
  6
CONTINUOUS
 62
     7
 10
190.0
 20
245.5
 30
0.0
 40
2.75
  0
CIRCLE
  5
34D
  8
1
  6
CONTINUOUS
 62
     7
 10
190.0
 20
276.5
 30
0.0
 40
2.75
  0
CIRCLE
  5
34E
  8
1
  6
CONTINUOUS
 62
     7
 10
190.0
 20
307.5
 30
0.0
 40
2.75
  0
CIRCLE
  5
34F
  8
1
  6
CONTINUOUS
 62
     7
 10
190.0
 20
338.5
 30
0.0
 40
2.7530000000000001
  0
CIRCLE
  5
350
  8
1
  6
CONTINUOUS
 62
     7
 10
110.0
 20
338.5
 30
0.0
 40
2.75
  0
CIRCLE
  5
351
  8
1
  6
CONTINUOUS
 62
     7
 10
110.0
 20
307.5
 30
0.0
 40
2.75
  0
CIRCLE
  5
352
  8
1
  6
CONTINUOUS
 62
     7
 10
110.0
 20
276.5
 30
0.0
 40
2.75
  0
CIRCLE
  5
353
  8
1
  6
CONTINUOUS
 62
     7
 10
120.0
 20
225.0
 30
0.0
 40
1.75
  0
CIRCLE
  5
354
  8
1
  6
CONTINUOUS
 62
     7
 10
180.0
 20
225.0
 30
0.0
 40
1.75
  0
CIRCLE
  5
355
  8
1
  6
CONTINUOUS
 62
     7
 10
120.0
 20
359.0
 30
0.0
 40
1.75
  0
CIRCLE
  5
356
  8
1
  6
CONTINUOUS
 62
     7
 10
180.0
 20
359.0
 30
0.0
 40
1.75
  0
CIRCLE
  5
357
  8
1
  6
CONTINUOUS
 62
     7
 10
361.19999999999999
 20
70.0
 30
0.0
 40
1.75
  0
CIRCLE
  5
358
  8
1
  6
CONTINUOUS
 62
     7
 10
249.19999999999999
 20
70.0
 30
0.0
 40
1.75
  0
LINE
  5
359
  8
2
  6
CONTINUOUS
 62
   134
 10
102.0
 20
64.0
 30
0.0
 11
102.0
 21
62.399999999999999
 31
0.0
  0
LINE
  5
35A
  8
2
  6
CONTINUOUS
 62
   134
 10
102.0
 20
62.399999999999999
 30
0.0
 11
198.0
 21
62.399999999999999
 31
0.0
  0
LINE
  5
35B
  8
2
  6
CONTINUOUS
 62
   134
 10
198.0
 20
62.399999999999999
 30
0.0
 11
198.0
 21
64.0
 31
0.0
  0
LINE
  5
35C
  8
2
  6
CONTINUOUS
 62
   134
 10
198.0
 20
64.0
 30
0.0
 11
102.0
 21
64.0
 31
0.0
  0
DIMENSION
  5
35F
  8
3
  6
CONTINUOUS
 62
     0
  2
*D131
 10
209.59999999999999
 20
400.0
 30
0.0
 11
150.0
 21
400.0
 31
0.0
 70
     0
  1
119.2
 13
90.400000000000006
 23
366.0
 33
0.0
 14
209.59999999999999
 24
366.0
 34
0.0
1001
ACAD
1000
DSTYLE
1002
{
1070
   140
1040
2.0
1070
    41
1040
4.0
1070
    42
1040
0.0
1070
    43
1040
0.5
1070
    44
1040
0.0
1070
   141
1040
0.0
1070
   171
1070
     0
1002
}
  0
DIMENSION
  5
360
  8
3
  6
CONTINUOUS
 62
     0
  2
*D130
 10
204.59999999999999
 20
395.0
 30
0.0
 11
150.0
 21
395.0
 31
0.0
 70
     0
  1
109.2
 13
95.400000000000006
 23
232.0
 33
0.0
 14
204.59999999999999
 24
232.0
 34
0.0
1001
ACAD
1000
DSTYLE
1002
{
1070
   140
1040
2.0
1070
    41
1040
4.0
1070
    42
1040
0.0
1070
    43
1040
0.5
1070
    44
1040
0.0
1070
   141
1040
0.0
1070
   171
1070
     0
1002
}
  0
DIMENSION
  5
362
  8
3
  6
CONTINUOUS
 62
     0
  2
*D128
 10
80.000000000000014
 20
235.0
 30
0.0
 11
79.999999999999972
 21
227.5
 31
0.0
 70
     0
  1
15
 13
88.400000000000006
 23
220.0
 33
0.0
 14
98.400000000000006
 24
235.0
 34
0.0
 50
90.0
1001
ACAD
1000
DSTYLE
1002
{
1070
   140
1040
2.0
1070
    41
1040
4.0
1070
    42
1040
0.0
1070
    43
1040
0.5
1070
    44
1040
0.0
1070
   141
1040
0.0
1070
   171
1070
     0
1002
}
  0
DIMENSION
  5
363
  8
3
  6
CONTINUOUS
 62
     0
  2
*D127
 10
79.999999999999986
 20
235.0
 30
0.0
 11
80.0
 21
287.6837938389607
 31
0.0
 70
   128
  1
114
 13
98.400000000000006
 23
349.0
 33
0.0
 14
80.0
 24
235.0
 34
0.0
 50
270.0
1001
ACAD
1000
DSTYLE
1002
{
1070
   140
1040
2.0
1070
    41
1040
4.0
1070
    42
1040
0.0
1070
    43
1040
0.5
1070
    44
1040
0.0
1070
   141
1040
0.0
1070
   171
1070
     0
1002
}
  0
DIMENSION
  5
364
  8
3
  6
CONTINUOUS
 62
     0
  2
*D126
 10
75.000000000000028
 20
364.0
 30
0.0
 11
74.999999999999957
 21
292.0
 31
0.0
 70
     0
  1
144
 13
88.400000000000006
 23
220.0
 33
0.0
 14
88.400000000000006
 24
364.0
 34
0.0
 50
90.0
1001
ACAD
1000
DSTYLE
1002
{
1070
   140
1040
2.0
1070
    41
1040
4.0
1070
    42
1040
0.0
1070
    43
1040
0.5
1070
    44
1040
0.0
1070
   141
1040
0.0
1070
   171
1070
     0
1002
}
  0
DIMENSION
  5
36B
  8
3
  6
CONTINUOUS
 62
     0
  2
*D119
 10
215.30787699999999
 20
346.75
 30
0.0
 11
215.30787699999999
 21
349.00000000000011
 31
0.0
 70
     0
  1
4.5
 13
211.59999999999999
 23
351.25
 33
0.0
 14
211.59999999999999
 24
346.75
 34
0.0
 50
270.0
1001
ACAD
1000
DSTYLE
1002
{
1070
   140
1040
2.0
1070
    41
1040
4.0
1070
    42
1040
0.0
1070
    43
1040
0.5
1070
    44
1040
0.0
1070
   141
1040
0.0
1070
   171
1070
     0
1002
}
  0
DIMENSION
  5
372
  8
3
  6
CONTINUOUS
 62
     0
  2
*D114
 10
80.000000000000028
 20
186.59999999999991
 30
0.0
 11
80.0
 21
124.3
 31
0.0
 70
     0
  1
(124.6)
 13
62.0
 23
62.0
 33
0.0
 14
62.0
 24
186.59999999999999
 34
0.0
 50
90.0
1001
ACAD
1000
DSTYLE
1002
{
1070
   140
1040
2.0
1070
    41
1040
4.0
1070
    42
1040
0.0
1070
    43
1040
0.5
1070
    44
1040
0.0
1070
   141
1040
0.0
1070
   171
1070
     0
1002
}
  0
CIRCLE
  5
373
  8
1
  6
CONTINUOUS
 62
     7
 10
-60.0
 20
90.0
 30
0.0
 40
1.5
  0
CIRCLE
  5
374
  8
1
  6
CONTINUOUS
 62
     7
 10
-24.0
 20
90.0
 30
0.0
 40
1.5
  0
DIMENSION
  5
3A2
  8
3
  6
CONTINUOUS
 62
     0
  2
*D105
 10
90.900000000000034
 20
363.49999999999977
 30
0.0
 11
68.250403824734093
 21
378.77385053281398
 31
0.0
 70
     4
  1
4-C1
 15
81.321758446627385
 25
373.108177093233
 35
0.0
 40
0.0
1001
ACAD
1000
DSTYLE
1002
{
1070
   140
1040
2.0
1070
    41
1040
4.0
1070
    42
1040
0.0
1070
    43
1040
0.5
1070
    44
1040
0.0
1070
   141
1040
0.0
1070
   171
1070
     0
1002
}
  0
CIRCLE
  5
3B3
  8
1
  6
CONTINUOUS
 62
     7
 10
249.19999999999999
 20
148.0
 30
0.0
 40
1.75
  0
CIRCLE
  5
3B4
  8
1
  6
CONTINUOUS
 62
     7
 10
361.19999999999999
 20
148.0
 30
0.0
 40
1.75
  0
CIRCLE
  5
3B6
  8
1
  6
CONTINUOUS
 62
     7
 10
249.19999999999999
 20
148.0
 30
0.0
 40
3.0
  0
CIRCLE
  5
3B7
  8
1
  6
CONTINUOUS
 62
     7
 10
361.19999999999999
 20
148.0
 30
0.0
 40
3.0
  0
CIRCLE
  5
3B8
  8
1
  6
CONTINUOUS
 62
     7
 10
249.19999999999999
 20
70.0
 30
0.0
 40
3.0
  0
CIRCLE
  5
3C2
  8
1
  6
CONTINUOUS
 62
     7
 10
361.19999999999999
 20
70.0
 30
0.0
 40
3.0
  0
INSERT
  5
CEA
  8
2
  2
*U169
 10
0.0
 20
0.0
 30
0.0
  0
LINE
  5
D83
  8
2
 10
100.40000000000001
 20
344.25
 30
0.0
 11
93.549813863314057
 21
344.25
 31
0.0
  0
LINE
  5
D91
  8
2
  6
CONTINUOUS
 62
   134
 10
93.573857401614219
 20
300.25
 30
0.0
 11
93.573857401614219
 21
344.25
 31
0.0
  0
LINE
  5
D92
  8
2
 10
93.573857401614219
 20
300.25
 30
0.0
 11
100.40000000000001
 21
300.25
 31
0.0
  0
LINE
  5
D93
  8
2
 10
90.400000000000006
 20
280.0
 30
0.0
 11
100.40000000000001
 21
280.0
 31
0.0
  0
LINE
  5
D94
  8
2
 10
90.400000000000006
 20
268.0
 30
0.0
 11
100.40000000000001
 21
268.0
 31
0.0
  0
LINE
  5
D95
  8
2
 10
90.400000000000006
 20
255.0
 30
0.0
 11
100.40000000000001
 21
255.0
 31
0.0
  0
LINE
  5
D96
  8
2
 10
90.400000000000006
 20
243.0
 30
0.0
 11
100.40000000000001
 21
243.0
 31
0.0
  0
ENDSEC
  0
EOF
