  0
SECTION
  2
HEADER
  9
$ACADVER
  1
AC1024
  9
$ACADMAINTVER
 70
   226
  9
$DWGCODEPAGE
  3
ANSI_932
  9
$LASTSAVEDBY
  1
design100
  9
$INSBASE
 10
0.0
 20
0.0
 30
0.0
  9
$EXTMIN
 10
-0.0329861655550303
 20
-22.52524224317085
 30
-0.0000000000112498
  9
$EXTMAX
 10
891.0279252813673
 20
630.0364450540228
 30
0.0000000000002956
  9
$LIMMIN
 10
0.0
 20
0.0
  9
$LIMMAX
 10
420.0
 20
297.0
  9
$ORTHOMODE
 70
     0
  9
$REGENMODE
 70
     1
  9
$FILLMODE
 70
     1
  9
$QTEXTMODE
 70
     0
  9
$MIRRTEXT
 70
     0
  9
$LTSCALE
 40
0.75
  9
$ATTMODE
 70
     1
  9
$TEXTSIZE
 40
0.2
  9
$TRACEWID
 40
1.0
  9
$TEXTSTYLE
  7
Text
  9
$CLAYER
  8
0
  9
$CELTYPE
  6
ByLayer
  9
$CECOLOR
 62
   256
  9
$CELTSCALE
 40
1.0
  9
$DISPSILH
 70
     0
  9
$DIMSCALE
 40
3.0
  9
$DIMASZ
 40
2.5
  9
$DIMEXO
 40
0.75
  9
$DIMDLI
 40
4.5
  9
$DIMRND
 40
0.0
  9
$DIMDLE
 40
0.0
  9
$DIMEXE
 40
1.25
  9
$DIMTP
 40
0.0
  9
$DIMTM
 40
0.0
  9
$DIMTXT
 40
2.5
  9
$DIMCEN
 40
2.5
  9
$DIMTSZ
 40
0.0
  9
$DIMTOL
 70
     0
  9
$DIMLIM
 70
     0
  9
$DIMTIH
 70
     0
  9
$DIMTOH
 70
     0
  9
$DIMSE1
 70
     0
  9
$DIMSE2
 70
     0
  9
$DIMTAD
 70
     1
  9
$DIMZIN
 70
     8
  9
$DIMBLK
  1

  9
$DIMASO
 70
     1
  9
$DIMSHO
 70
     1
  9
$DIMPOST
  1

  9
$DIMAPOST
  1

  9
$DIMALT
 70
     0
  9
$DIMALTD
 70
     3
  9
$DIMALTF
 40
0.03937007874016
  9
$DIMLFAC
 40
1.0
  9
$DIMTOFL
 70
     1
  9
$DIMTVP
 40
0.0
  9
$DIMTIX
 70
     0
  9
$DIMSOXD
 70
     0
  9
$DIMSAH
 70
     0
  9
$DIMBLK1
  1

  9
$DIMBLK2
  1

  9
$DIMSTYLE
  2
DIM-3
  9
$DIMCLRD
 70
   256
  9
$DIMCLRE
 70
     0
  9
$DIMCLRT
 70
   256
  9
$DIMTFAC
 40
1.0
  9
$DIMGAP
 40
0.8
  9
$DIMJUST
 70
     0
  9
$DIMSD1
 70
     0
  9
$DIMSD2
 70
     0
  9
$DIMTOLJ
 70
     0
  9
$DIMTZIN
 70
     8
  9
$DIMALTZ
 70
     0
  9
$DIMALTTZ
 70
     0
  9
$DIMUPT
 70
     0
  9
$DIMDEC
 70
     2
  9
$DIMTDEC
 70
     2
  9
$DIMALTU
 70
     2
  9
$DIMALTTD
 70
     3
  9
$DIMTXSTY
  7
Text
  9
$DIMAUNIT
 70
     0
  9
$DIMADEC
 70
     0
  9
$DIMALTRND
 40
0.0
  9
$DIMAZIN
 70
     0
  9
$DIMDSEP
 70
    46
  9
$DIMATFIT
 70
     3
  9
$DIMFRAC
 70
     0
  9
$DIMLDRBLK
  1

  9
$DIMLUNIT
 70
     2
  9
$DIMLWD
 70
    -1
  9
$DIMLWE
 70
    -2
  9
$DIMTMOVE
 70
     2
  9
$DIMFXL
 40
1.0
  9
$DIMFXLON
 70
     0
  9
$DIMJOGANG
 40
0.7853981633974483
  9
$DIMTFILL
 70
     0
  9
$DIMTFILLCLR
 70
     0
  9
$DIMARCSYM
 70
     0
  9
$DIMLTYPE
  6
ByLayer
  9
$DIMLTEX1
  6

  9
$DIMLTEX2
  6

  9
$DIMTXTDIRECTION
 70
     0
  9
$LUNITS
 70
     2
  9
$LUPREC
 70
     4
  9
$SKETCHINC
 40
1.0
  9
$FILLETRAD
 40
0.0
  9
$AUNITS
 70
     0
  9
$AUPREC
 70
     0
  9
$MENU
  1
.
  9
$ELEVATION
 40
0.0
  9
$PELEVATION
 40
0.0
  9
$THICKNESS
 40
0.0
  9
$LIMCHECK
 70
     0
  9
$CHAMFERA
 40
0.0
  9
$CHAMFERB
 40
0.0
  9
$CHAMFERC
 40
0.0
  9
$CHAMFERD
 40
0.0
  9
$SKPOLY
 70
     0
  9
$TDCREATE
 40
2459766.661585648
  9
$TDUCREATE
 40
2459766.286585648
  9
$TDUPDATE
 40
2459802.629953704
  9
$TDUUPDATE
 40
2459802.254953704
  9
$TDINDWG
 40
0.1828356481
  9
$TDUSRTIMER
 40
0.1828356481
  9
$USRTIMER
 70
     1
  9
$ANGBASE
 50
0.0
  9
$ANGDIR
 70
     0
  9
$PDMODE
 70
     0
  9
$PDSIZE
 40
0.0
  9
$PLINEWID
 40
0.0
  9
$SPLFRAME
 70
     0
  9
$SPLINETYPE
 70
     6
  9
$SPLINESEGS
 70
     8
  9
$HANDSEED
  5
3AE7
  9
$SURFTAB1
 70
     6
  9
$SURFTAB2
 70
     6
  9
$SURFTYPE
 70
     6
  9
$SURFU
 70
     6
  9
$SURFV
 70
     6
  9
$UCSBASE
  2

  9
$UCSNAME
  2

  9
$UCSORG
 10
0.0
 20
0.0
 30
0.0
  9
$UCSXDIR
 10
1.0
 20
0.0
 30
0.0
  9
$UCSYDIR
 10
0.0
 20
1.0
 30
0.0
  9
$UCSORTHOREF
  2

  9
$UCSORTHOVIEW
 70
     0
  9
$UCSORGTOP
 10
0.0
 20
0.0
 30
0.0
  9
$UCSORGBOTTOM
 10
0.0
 20
0.0
 30
0.0
  9
$UCSORGLEFT
 10
0.0
 20
0.0
 30
0.0
  9
$UCSORGRIGHT
 10
0.0
 20
0.0
 30
0.0
  9
$UCSORGFRONT
 10
0.0
 20
0.0
 30
0.0
  9
$UCSORGBACK
 10
0.0
 20
0.0
 30
0.0
  9
$PUCSBASE
  2

  9
$PUCSNAME
  2

  9
$PUCSORG
 10
0.0
 20
0.0
 30
0.0
  9
$PUCSXDIR
 10
1.0
 20
0.0
 30
0.0
  9
$PUCSYDIR
 10
0.0
 20
1.0
 30
0.0
  9
$PUCSORTHOREF
  2

  9
$PUCSORTHOVIEW
 70
     0
  9
$PUCSORGTOP
 10
0.0
 20
0.0
 30
0.0
  9
$PUCSORGBOTTOM
 10
0.0
 20
0.0
 30
0.0
  9
$PUCSORGLEFT
 10
0.0
 20
0.0
 30
0.0
  9
$PUCSORGRIGHT
 10
0.0
 20
0.0
 30
0.0
  9
$PUCSORGFRONT
 10
0.0
 20
0.0
 30
0.0
  9
$PUCSORGBACK
 10
0.0
 20
0.0
 30
0.0
  9
$USERI1
 70
     0
  9
$USERI2
 70
     0
  9
$USERI3
 70
     0
  9
$USERI4
 70
     0
  9
$USERI5
 70
     0
  9
$USERR1
 40
0.0
  9
$USERR2
 40
0.0
  9
$USERR3
 40
0.0
  9
$USERR4
 40
0.0
  9
$USERR5
 40
0.0
  9
$WORLDVIEW
 70
     1
  9
$SHADEDGE
 70
     3
  9
$SHADEDIF
 70
    70
  9
$TILEMODE
 70
     1
  9
$MAXACTVP
 70
    64
  9
$PINSBASE
 10
0.0
 20
0.0
 30
0.0
  9
$PLIMCHECK
 70
     0
  9
$PEXTMIN
 10
0.0
 20
0.0
 30
0.0
  9
$PEXTMAX
 10
0.0
 20
0.0
 30
0.0
  9
$PLIMMIN
 10
0.0
 20
0.0
  9
$PLIMMAX
 10
12.0
 20
9.0
  9
$UNITMODE
 70
     0
  9
$VISRETAIN
 70
     1
  9
$PLINEGEN
 70
     0
  9
$PSLTSCALE
 70
     1
  9
$TREEDEPTH
 70
  3020
  9
$CMLSTYLE
  2
Standard
  9
$CMLJUST
 70
     0
  9
$CMLSCALE
 40
20.0
  9
$PROXYGRAPHICS
 70
     1
  9
$MEASUREMENT
 70
     1
  9
$CELWEIGHT
370
    -1
  9
$ENDCAPS
280
     0
  9
$JOINSTYLE
280
     0
  9
$LWDISPLAY
290
     0
  9
$INSUNITS
 70
     4
  9
$HYPERLINKBASE
  1

  9
$STYLESHEET
  1
monochrome.ctb
  9
$XEDIT
290
     1
  9
$CEPSNTYPE
380
     0
  9
$PSTYLEMODE
290
     1
  9
$FINGERPRINTGUID
  2
{51FA1041-EE32-534A-AF75-64211A401B84}
  9
$VERSIONGUID
  2
{6719B8A7-850D-B04B-868E-D5073BEB57D8}
  9
$EXTNAMES
290
     1
  9
$PSVPSCALE
 40
0.0
  9
$OLESTARTUP
290
     0
  9
$SORTENTS
280
   127
  9
$INDEXCTL
280
     0
  9
$HIDETEXT
280
     1
  9
$XCLIPFRAME
280
     2
  9
$HALOGAP
280
     0
  9
$OBSCOLOR
 70
   257
  9
$OBSLTYPE
280
     0
  9
$INTERSECTIONDISPLAY
280
     0
  9
$INTERSECTIONCOLOR
 70
   257
  9
$DIMASSOC
280
     2
  9
$PROJECTNAME
  1

  9
$CAMERADISPLAY
290
     0
  9
$LENSLENGTH
 40
50.0
  9
$CAMERAHEIGHT
 40
0.0
  9
$STEPSPERSEC
 40
2.0
  9
$STEPSIZE
 40
6.0
  9
$3DDWFPREC
 40
2.0
  9
$PSOLWIDTH
 40
5.0
  9
$PSOLHEIGHT
 40
80.0
  9
$LOFTANG1
 40
1.570796326794896
  9
$LOFTANG2
 40
1.570796326794896
  9
$LOFTMAG1
 40
0.0
  9
$LOFTMAG2
 40
0.0
  9
$LOFTPARAM
 70
     7
  9
$LOFTNORMALS
280
     1
  9
$LATITUDE
 40
37.795
  9
$LONGITUDE
 40
-122.394
  9
$NORTHDIRECTION
 40
0.0
  9
$TIMEZONE
 70
 -8000
  9
$LIGHTGLYPHDISPLAY
280
     1
  9
$TILEMODELIGHTSYNCH
280
     1
  9
$CMATERIAL
347
EC
  9
$SOLIDHIST
280
     0
  9
$SHOWHIST
280
     1
  9
$DWFFRAME
280
     2
  9
$DGNFRAME
280
     0
  9
$REALWORLDSCALE
290
     1
  9
$INTERFERECOLOR
 62
     1
  9
$INTERFEREOBJVS
345
F9
  9
$INTERFEREVPVS
346
F6
  9
$CSHADOW
280
     0
  9
$SHADOWPLANELOCATION
 40
0.0
  0
ENDSEC
  0
SECTION
  2
CLASSES
  0
CLASS
  1
ACDBDICTIONARYWDFLT
  2
AcDbDictionaryWithDefault
  3
ObjectDBX Classes
 90
        0
 91
        1
280
     0
281
     0
  0
CLASS
  1
DICTIONARYVAR
  2
AcDbDictionaryVar
  3
ObjectDBX Classes
 90
        0
 91
       14
280
     0
281
     0
  0
CLASS
  1
TABLESTYLE
  2
AcDbTableStyle
  3
ObjectDBX Classes
 90
     4095
 91
        1
280
     0
281
     0
  0
CLASS
  1
MATERIAL
  2
AcDbMaterial
  3
ObjectDBX Classes
 90
     1153
 91
        3
280
     0
281
     0
  0
CLASS
  1
VISUALSTYLE
  2
AcDbVisualStyle
  3
ObjectDBX Classes
 90
     4095
 91
       24
280
     0
281
     0
  0
CLASS
  1
SCALE
  2
AcDbScale
  3
ObjectDBX Classes
 90
     1153
 91
        3
280
     0
281
     0
  0
CLASS
  1
MLEADERSTYLE
  2
AcDbMLeaderStyle
  3
ACDB_MLEADERSTYLE_CLASS
 90
     4095
 91
        1
280
     0
281
     0
  0
CLASS
  1
CELLSTYLEMAP
  2
AcDbCellStyleMap
  3
ObjectDBX Classes
 90
     1152
 91
        1
280
     0
281
     0
  0
CLASS
  1
EXACXREFPANELOBJECT
  2
ExAcXREFPanelObject
  3
EXAC_ESW
 90
     1025
 91
        0
280
     0
281
     0
  0
CLASS
  1
NPOCOLLECTION
  2
AcDbImpNonPersistentObjectsCollection
  3
ObjectDBX Classes
 90
     1153
 91
        0
280
     0
281
     0
  0
CLASS
  1
LAYER_INDEX
  2
AcDbLayerIndex
  3
ObjectDBX Classes
 90
        0
 91
        0
280
     0
281
     0
  0
CLASS
  1
SPATIAL_INDEX
  2
AcDbSpatialIndex
  3
ObjectDBX Classes
 90
        0
 91
        0
280
     0
281
     0
  0
CLASS
  1
IDBUFFER
  2
AcDbIdBuffer
  3
ObjectDBX Classes
 90
        0
 91
        0
280
     0
281
     0
  0
CLASS
  1
ACDBSECTIONVIEWSTYLE
  2
AcDbSectionViewStyle
  3
ObjectDBX Classes
 90
     1025
 91
        2
280
     0
281
     0
  0
CLASS
  1
ACDBDETAILVIEWSTYLE
  2
AcDbDetailViewStyle
  3
ObjectDBX Classes
 90
     1025
 91
        2
280
     0
281
     0
  0
CLASS
  1
SORTENTSTABLE
  2
AcDbSortentsTable
  3
ObjectDBX Classes
 90
        0
 91
        1
280
     0
281
     0
  0
CLASS
  1
ACDB_TEXTOBJECTCONTEXTDATA_CLASS
  2
AcDbTextObjectContextData
  3
ObjectDBX Classes
 90
     1153
 91
        0
280
     0
281
     0
  0
CLASS
  1
DIMASSOC
  2
AcDbDimAssoc
  3
"AcDbDimAssoc|Product Desc:     AcDim ARX App For Dimension|Company:          Autodesk, Inc.|WEB Address:      www.autodesk.com"
 90
        0
 91
        0
280
     0
281
     0
  0
CLASS
  1
RAPIDRTRENDERSETTINGS
  2
AcDbRapidRTRenderSettings
  3
ObjectDBX Classes
 90
     1024
 91
        6
280
     0
281
     0
  0
ENDSEC
  0
SECTION
  2
TABLES
  0
TABLE
  2
VPORT
  5
8
330
0
100
AcDbSymbolTable
 70
     1
  0
VPORT
  5
EA
330
8
100
AcDbSymbolTableRecord
100
AcDbViewportTableRecord
  2
*Active
 70
     0
 10
0.0
 20
0.0
 11
1.0
 21
1.0
 12
445.4974674833698
 22
303.7555998861549
 13
0.0
 23
0.0
 14
10.0
 24
10.0
 15
10.0
 25
10.0
 16
0.0
 26
0.0
 36
1.0
 17
0.0
 27
0.0
 37
0.0
 40
673.7229886892166
 41
1.329710144927536
 42
50.0
 43
0.0
 44
0.0
 50
0.0
 51
0.0
 71
     0
 72
  1000
 73
     1
 74
     3
 75
     0
 76
     0
 77
     0
 78
     0
281
     0
 65
     1
110
0.0
120
0.0
130
0.0
111
1.0
121
0.0
131
0.0
112
0.0
122
1.0
132
0.0
 79
     0
146
0.0
348
F5
 60
     3
 61
     5
292
     1
282
     1
141
0.0
142
0.0
 63
   250
421
  3355443
1001
ACAD_NAV_VCDISPLAY
1070
     3
  0
ENDTAB
  0
TABLE
  2
LTYPE
  5
5
330
0
100
AcDbSymbolTable
 70
     9
  0
LTYPE
  5
14
330
5
100
AcDbSymbolTableRecord
100
AcDbLinetypeTableRecord
  2
ByBlock
 70
     0
  3

 72
    65
 73
     0
 40
0.0
  0
LTYPE
  5
15
330
5
100
AcDbSymbolTableRecord
100
AcDbLinetypeTableRecord
  2
ByLayer
 70
     0
  3

 72
    65
 73
     0
 40
0.0
  0
LTYPE
  5
16
330
5
100
AcDbSymbolTableRecord
100
AcDbLinetypeTableRecord
  2
Continuous
 70
     0
  3
Solid line
 72
    65
 73
     0
 40
0.0
  0
LTYPE
  5
27AA
330
5
100
AcDbSymbolTableRecord
100
AcDbLinetypeTableRecord
  2
CENTER
 70
     0
  3
Center ____ _ ____ _ ____ _ ____ _ ____ _ ____
 72
    65
 73
     4
 40
50.8
 49
31.75
 74
     0
 49
-6.349999999999999
 74
     0
 49
6.349999999999999
 74
     0
 49
-6.349999999999999
 74
     0
  0
LTYPE
  5
27AB
330
5
100
AcDbSymbolTableRecord
100
AcDbLinetypeTableRecord
  2
DASHED
 70
     0
  3
Dashed __ __ __ __ __ __ __ __ __ __ __ __ __ _
 72
    65
 73
     2
 40
19.05
 49
12.7
 74
     0
 49
-6.349999999999999
 74
     0
  0
LTYPE
  5
2B30
330
5
100
AcDbSymbolTableRecord
100
AcDbLinetypeTableRecord
  2
HIDDEN
 70
     0
  3
Hidden __ __ __ __ __ __ __ __ __ __ __ __ __ _
 72
    65
 73
     2
 40
9.524999999999998
 49
6.349999999999999
 74
     0
 49
-3.174999999999999
 74
     0
  0
LTYPE
  5
2B31
330
5
100
AcDbSymbolTableRecord
100
AcDbLinetypeTableRecord
  2
CENTER2
 70
     0
  3
Center (.5x) ___ _ ___ _ ___ _ ___ _ ___ _ ___
 72
    65
 73
     4
 40
28.575
 49
19.05
 74
     0
 49
-3.174999999999999
 74
     0
 49
3.174999999999999
 74
     0
 49
-3.174999999999999
 74
     0
  0
LTYPE
  5
2B32
330
5
100
AcDbSymbolTableRecord
100
AcDbLinetypeTableRecord
  2
HIDDEN2
 70
     0
  3
Hidden (.5x) _ _ _ _ _ _ _ _ _ _ _ _ _ _ _ _ _
 72
    65
 73
     2
 40
4.762499999999999
 49
3.174999999999999
 74
     0
 49
-1.587499999999999
 74
     0
  0
LTYPE
  5
2B33
330
5
100
AcDbSymbolTableRecord
100
AcDbLinetypeTableRecord
  2
PHANTOM
 70
     0
  3
Phantom ______  __  __  ______  __  __  ______
 72
    65
 73
     6
 40
63.5
 49
31.75
 74
     0
 49
-6.349999999999999
 74
     0
 49
6.349999999999999
 74
     0
 49
-6.349999999999999
 74
     0
 49
6.349999999999999
 74
     0
 49
-6.349999999999999
 74
     0
  0
LTYPE
  5
2B34
330
5
100
AcDbSymbolTableRecord
100
AcDbLinetypeTableRecord
  2
PHANTOM2
 70
     0
  3
Phantom (.5x) ___ _ _ ___ _ _ ___ _ _ ___ _ _
 72
    65
 73
     6
 40
31.75
 49
15.875
 74
     0
 49
-3.174999999999999
 74
     0
 49
3.174999999999999
 74
     0
 49
-3.174999999999999
 74
     0
 49
3.174999999999999
 74
     0
 49
-3.174999999999999
 74
     0
  0
LTYPE
  5
2D27
330
5
100
AcDbSymbolTableRecord
100
AcDbLinetypeTableRecord
  2
DASHDOT
 70
     0
  3
DASHDOT
 72
    65
 73
     4
 40
14.5
 49
30.0
 74
     0
 49
-9.0
 74
     0
 49
2.5
 74
     0
 49
-9.0
 74
     0
  0
ENDTAB
  0
TABLE
  2
LAYER
  5
2
102
{ACAD_XDICTIONARY
360
1FF
102
}
330
0
100
AcDbSymbolTable
 70
    15
  0
LAYER
  5
10
102
{ACAD_XDICTIONARY
360
13C
102
}
330
2
100
AcDbSymbolTableRecord
100
AcDbLayerTableRecord
  2
0
 70
     0
 62
     7
  6
Continuous
370
    -3
390
F
347
EE
  0
LAYER
  5
73A
330
2
100
AcDbSymbolTableRecord
100
AcDbLayerTableRecord
  2
Defpoints
 70
     0
 62
     7
  6
Continuous
290
     0
370
    -3
390
F
347
EE
  0
LAYER
  5
27AC
102
{ACAD_XDICTIONARY
360
27AD
102
}
330
2
100
AcDbSymbolTableRecord
100
AcDbLayerTableRecord
  2
Dimension
 70
     0
 62
     2
  6
Continuous
370
    20
390
F
347
EE
  0
LAYER
  5
27AE
330
2
100
AcDbSymbolTableRecord
100
AcDbLayerTableRecord
  2
Continuous
 70
     0
 62
     7
  6
Continuous
370
    25
390
F
347
EE
1001
AcAecLayerStandard
1000

1000

1001
AcCmTransparency
1071
        0
  0
LAYER
  5
27AF
330
2
100
AcDbSymbolTableRecord
100
AcDbLayerTableRecord
  2
Center
 70
     0
 62
     3
  6
CENTER
370
    15
390
F
347
EE
1001
AcAecLayerStandard
1000

1000

1001
AcCmTransparency
1071
        0
  0
LAYER
  5
27B0
330
2
100
AcDbSymbolTableRecord
100
AcDbLayerTableRecord
  2
Text
 70
     0
 62
     2
  6
Continuous
370
    20
390
F
347
EE
1001
AcAecLayerStandard
1000

1000

1001
AcCmTransparency
1071
        0
  0
LAYER
  5
27B1
330
2
100
AcDbSymbolTableRecord
100
AcDbLayerTableRecord
  2
Text2
 70
     0
 62
     4
  6
Continuous
370
    20
390
F
347
EE
1001
AcAecLayerStandard
1000

1000

1001
AcCmTransparency
1071
        0
  0
LAYER
  5
27B2
330
2
100
AcDbSymbolTableRecord
100
AcDbLayerTableRecord
  2
Def
 70
     0
 62
    31
  6
Continuous
290
     0
370
    15
390
F
347
EE
1001
AcAecLayerStandard
1000

1000

1001
AcCmTransparency
1071
        0
  0
LAYER
  5
2B35
330
2
100
AcDbSymbolTableRecord
100
AcDbLayerTableRecord
  2
Center2
 70
     0
 62
     3
  6
CENTER2
370
    15
390
F
347
EE
1001
AcAecLayerStandard
1000

1000

1001
AcCmTransparency
1071
        0
  0
LAYER
  5
2B36
330
2
100
AcDbSymbolTableRecord
100
AcDbLayerTableRecord
  2
Hidden2
 70
     0
 62
     9
  6
HIDDEN2
370
    18
390
F
347
EE
1001
AcAecLayerStandard
1000

1000

1001
AcCmTransparency
1071
        0
  0
LAYER
  5
2B37
330
2
100
AcDbSymbolTableRecord
100
AcDbLayerTableRecord
  2
Hidden
 70
     0
 62
     9
  6
HIDDEN
370
    18
390
F
347
EE
1001
AcAecLayerStandard
1000

1000

1001
AcCmTransparency
1071
        0
  0
LAYER
  5
2B38
330
2
100
AcDbSymbolTableRecord
100
AcDbLayerTableRecord
  2
Continuous2
 70
     0
 62
     8
  6
Continuous
370
    13
390
F
347
EE
1001
AcAecLayerStandard
1000

1000

1001
AcCmTransparency
1071
        0
  0
LAYER
  5
2B39
330
2
100
AcDbSymbolTableRecord
100
AcDbLayerTableRecord
  2
Phantom
 70
     0
 62
     1
  6
PHANTOM
370
    15
390
F
347
EE
1001
AcAecLayerStandard
1000

1000

1001
AcCmTransparency
1071
        0
  0
LAYER
  5
2B3A
330
2
100
AcDbSymbolTableRecord
100
AcDbLayerTableRecord
  2
Phantom2
 70
     0
 62
     1
  6
PHANTOM2
370
    15
390
F
347
EE
1001
AcAecLayerStandard
1000

1000

1001
AcCmTransparency
1071
        0
  0
LAYER
  5
2B3B
330
2
100
AcDbSymbolTableRecord
100
AcDbLayerTableRecord
  2
Continuous3
 70
     0
 62
   251
  6
Continuous
370
     9
390
F
347
EE
1001
AcAecLayerStandard
1000

1000

1001
AcCmTransparency
1071
        0
  0
ENDTAB
  0
TABLE
  2
STYLE
  5
3
330
0
100
AcDbSymbolTable
 70
     5
  0
STYLE
  5
11
330
3
100
AcDbSymbolTableRecord
100
AcDbTextStyleTableRecord
  2
Standard
 70
     0
 40
0.0
 41
0.8
 50
0.0
 71
     0
 42
2.5
  3
txt.shx
  4
bigfont.shx
  0
STYLE
  5
27B3
330
3
100
AcDbSymbolTableRecord
100
AcDbTextStyleTableRecord
  2
Text
 70
     0
 40
0.0
 41
0.8
 50
0.0
 71
     0
 42
0.2
  3
TXT.shx
  4
extfont.shx
  0
STYLE
  5
2D2A
330
3
100
AcDbSymbolTableRecord
100
AcDbTextStyleTableRecord
  2
ＭＳ Ｐゴシック
 70
     0
 40
0.0
 41
1.0
 50
0.0
 71
     0
 42
5.0
  3
MS PGothic.ttf
  4

1001
ACAD
1000
ＭＳ Ｐゴシック
1071
      256
  0
STYLE
  5
2D2B
330
3
100
AcDbSymbolTableRecord
100
AcDbTextStyleTableRecord
  2
ＭＳ ゴシック
 70
     0
 40
0.0
 41
1.0
 50
0.0
 71
     0
 42
5.0
  3
MS Gothic.ttf
  4

1001
ACAD
1000
ＭＳ ゴシック
1071
      256
  0
ENDTAB
  0
TABLE
  2
VIEW
  5
6
330
0
100
AcDbSymbolTable
 70
     0
  0
ENDTAB
  0
TABLE
  2
UCS
  5
7
330
0
100
AcDbSymbolTable
 70
     0
  0
ENDTAB
  0
TABLE
  2
APPID
  5
9
330
0
100
AcDbSymbolTable
 70
    14
  0
APPID
  5
12
330
9
100
AcDbSymbolTableRecord
100
AcDbRegAppTableRecord
  2
ACAD
 70
     0
  0
APPID
  5
9E
330
9
100
AcDbSymbolTableRecord
100
AcDbRegAppTableRecord
  2
ACAD_PSEXT
 70
     0
  0
APPID
  5
133
330
9
100
AcDbSymbolTableRecord
100
AcDbRegAppTableRecord
  2
AcadAnnoPO
 70
     0
  0
APPID
  5
134
330
9
100
AcDbSymbolTableRecord
100
AcDbRegAppTableRecord
  2
AcadAnnotative
 70
     0
  0
APPID
  5
135
330
9
100
AcDbSymbolTableRecord
100
AcDbRegAppTableRecord
  2
ACAD_DSTYLE_DIMJAG
 70
     0
  0
APPID
  5
136
330
9
100
AcDbSymbolTableRecord
100
AcDbRegAppTableRecord
  2
ACAD_DSTYLE_DIMTALN
 70
     0
  0
APPID
  5
165
330
9
100
AcDbSymbolTableRecord
100
AcDbRegAppTableRecord
  2
ACAD_MLEADERVER
 70
     0
  0
APPID
  5
217
330
9
100
AcDbSymbolTableRecord
100
AcDbRegAppTableRecord
  2
ACAD_NAV_VCDISPLAY
 70
     0
  0
APPID
  5
5AE
330
9
100
AcDbSymbolTableRecord
100
AcDbRegAppTableRecord
  2
ACAD_EXEMPT_FROM_CAD_STANDARDS
 70
     0
  0
APPID
  5
72F
330
9
100
AcDbSymbolTableRecord
100
AcDbRegAppTableRecord
  2
AcAecLayerStandard
 70
     0
  0
APPID
  5
730
330
9
100
AcDbSymbolTableRecord
100
AcDbRegAppTableRecord
  2
AcCmTransparency
 70
     0
  0
APPID
  5
1A18
330
9
100
AcDbSymbolTableRecord
100
AcDbRegAppTableRecord
  2
ACAD_DSTYLE_DIMBREAK
 70
     0
  0
APPID
  5
2168
330
9
100
AcDbSymbolTableRecord
100
AcDbRegAppTableRecord
  2
AcLayerTools
 70
     0
  0
APPID
  5
3513
330
9
100
AcDbSymbolTableRecord
100
AcDbRegAppTableRecord
  2
AcadAnnoMonitorAlertIconDisabled
 70
     0
  0
ENDTAB
  0
TABLE
  2
DIMSTYLE
  5
A
330
0
100
AcDbSymbolTable
 70
     4
100
AcDbDimStyleTable
 71
     2
340
1A17
340
1B0
  0
DIMSTYLE
105
1B0
330
A
100
AcDbSymbolTableRecord
100
AcDbDimStyleTableRecord
  2
Standard
 70
     0
 73
     0
 74
     0
340
11
1001
ACAD_DSTYLE_DIMJAG
1070
   388
1040
1.5
1001
ACAD_DSTYLE_DIMTALN
1070
   392
1070
     0
  0
DIMSTYLE
105
1A17
102
{ACAD_REACTORS
330
294B
330
294C
330
294D
330
2950
330
2951
330
2953
330
2954
330
2961
330
2964
330
2967
330
297D
330
2984
330
2987
330
298A
330
298D
102
}
330
A
100
AcDbSymbolTableRecord
100
AcDbDimStyleTableRecord
  2
DIM-3
 70
     0
 40
3.0
 41
2.5
 42
0.75
 43
4.5
 44
1.25
 73
     0
 74
     0
 77
     1
 78
     8
140
2.5
141
2.5
143
0.03937007874016
147
0.8
171
     3
172
     1
176
   256
178
   256
271
     2
272
     2
274
     3
279
     2
283
     0
284
     8
340
27B3
345
15
371
    -1
1001
ACAD_DSTYLE_DIMBREAK
1070
   391
1040
3.75
1001
ACAD_DSTYLE_DIMJAG
1070
   388
1040
1.5
1001
ACAD_DSTYLE_DIMTALN
1070
   392
1070
     0
  0
DIMSTYLE
105
2B3C
330
A
100
AcDbSymbolTableRecord
100
AcDbDimStyleTableRecord
  2
DIM-1
 70
     0
 41
2.5
 42
1.0
 43
4.5
 44
1.25
 73
     0
 74
     0
 77
     1
 78
     8
140
2.5
141
2.5
143
0.03937007874016
147
0.8
171
     3
172
     1
176
   256
178
   256
271
     2
272
     2
274
     3
279
     2
283
     0
284
     8
340
27B3
345
15
371
    -1
1001
ACAD_DSTYLE_DIMBREAK
1070
   391
1040
3.75
1001
ACAD_DSTYLE_DIMJAG
1070
   388
1040
1.5
1001
ACAD_DSTYLE_DIMTALN
1070
   392
1070
     0
  0
ENDTAB
  0
TABLE
  2
BLOCK_RECORD
  5
1
330
0
100
AcDbSymbolTable
 70
    17
  0
BLOCK_RECORD
  5
1F
102
{ACAD_XDICTIONARY
360
1CE
102
}
330
1
100
AcDbSymbolTableRecord
100
AcDbBlockTableRecord
  2
*Model_Space
340
22
 70
     0
280
     1
281
     0
  0
BLOCK_RECORD
  5
D2
330
1
100
AcDbSymbolTableRecord
100
AcDbBlockTableRecord
  2
*Paper_Space
340
D3
 70
     0
280
     1
281
     0
  0
BLOCK_RECORD
  5
D6
330
1
100
AcDbSymbolTableRecord
100
AcDbBlockTableRecord
  2
*Paper_Space0
340
D7
 70
     0
280
     1
281
     0
  0
BLOCK_RECORD
  5
29A4
330
1
100
AcDbSymbolTableRecord
100
AcDbBlockTableRecord
  2
*D1
340
0
 70
     0
280
     1
281
     0
  0
BLOCK_RECORD
  5
29B0
330
1
100
AcDbSymbolTableRecord
100
AcDbBlockTableRecord
  2
*D2
340
0
 70
     0
280
     1
281
     0
  0
BLOCK_RECORD
  5
29BE
330
1
100
AcDbSymbolTableRecord
100
AcDbBlockTableRecord
  2
*D3
340
0
 70
     0
280
     1
281
     0
  0
BLOCK_RECORD
  5
29CA
330
1
100
AcDbSymbolTableRecord
100
AcDbBlockTableRecord
  2
*D4
340
0
 70
     0
280
     1
281
     0
  0
BLOCK_RECORD
  5
29D8
330
1
100
AcDbSymbolTableRecord
100
AcDbBlockTableRecord
  2
*D5
340
0
 70
     0
280
     1
281
     0
  0
BLOCK_RECORD
  5
29E4
330
1
100
AcDbSymbolTableRecord
100
AcDbBlockTableRecord
  2
*D6
340
0
 70
     0
280
     1
281
     0
  0
BLOCK_RECORD
  5
2A04
330
1
100
AcDbSymbolTableRecord
100
AcDbBlockTableRecord
  2
*D7
340
0
 70
     0
280
     1
281
     0
  0
BLOCK_RECORD
  5
2A36
330
1
100
AcDbSymbolTableRecord
100
AcDbBlockTableRecord
  2
*D8
340
0
 70
     0
280
     1
281
     0
  0
BLOCK_RECORD
  5
2A42
330
1
100
AcDbSymbolTableRecord
100
AcDbBlockTableRecord
  2
*D9
340
0
 70
     0
280
     1
281
     0
  0
BLOCK_RECORD
  5
2A4E
330
1
100
AcDbSymbolTableRecord
100
AcDbBlockTableRecord
  2
*D10
340
0
 70
     0
280
     1
281
     0
  0
BLOCK_RECORD
  5
2A5C
330
1
100
AcDbSymbolTableRecord
100
AcDbBlockTableRecord
  2
*D11
340
0
 70
     0
280
     1
281
     0
  0
BLOCK_RECORD
  5
2A68
330
1
100
AcDbSymbolTableRecord
100
AcDbBlockTableRecord
  2
*D12
340
0
 70
     0
280
     1
281
     0
  0
BLOCK_RECORD
  5
2A74
330
1
100
AcDbSymbolTableRecord
100
AcDbBlockTableRecord
  2
*D13
340
0
 70
     0
280
     1
281
     0
  0
BLOCK_RECORD
  5
2A80
330
1
100
AcDbSymbolTableRecord
100
AcDbBlockTableRecord
  2
*D14
340
0
 70
     0
280
     1
281
     0
  0
BLOCK_RECORD
  5
2A8C
330
1
100
AcDbSymbolTableRecord
100
AcDbBlockTableRecord
  2
*D15
340
0
 70
     0
280
     1
281
     0
  0
ENDTAB
  0
ENDSEC
  0
SECTION
  2
BLOCKS
  0
BLOCK
  5
20
330
1F
100
AcDbEntity
  8
0
100
AcDbBlockBegin
  2
*Model_Space
 70
     0
 10
0.0
 20
0.0
 30
0.0
  3
*Model_Space
  1

  0
ENDBLK
  5
21
330
1F
100
AcDbEntity
  8
0
100
AcDbBlockEnd
  0
BLOCK
  5
D4
330
D2
100
AcDbEntity
 67
     1
  8
0
100
AcDbBlockBegin
  2
*Paper_Space
 70
     0
 10
0.0
 20
0.0
 30
0.0
  3
*Paper_Space
  1

  0
ENDBLK
  5
D5
330
D2
100
AcDbEntity
 67
     1
  8
0
100
AcDbBlockEnd
  0
BLOCK
  5
D8
330
D6
100
AcDbEntity
 67
     1
  8
0
100
AcDbBlockBegin
  2
*Paper_Space0
 70
     0
 10
0.0
 20
0.0
 30
0.0
  3
*Paper_Space0
  1

  0
ENDBLK
  5
D9
330
D6
100
AcDbEntity
 67
     1
  8
0
100
AcDbBlockEnd
  0
BLOCK
  5
29A5
330
29A4
100
AcDbEntity
  8
0
100
AcDbBlockBegin
  2
*D1
 70
     1
 10
0.0
 20
0.0
 30
0.0
  3
*D1
  1

  0
LINE
  5
3A6C
330
29A4
100
AcDbEntity
  8
Dimension
 62
     0
440
 16777216
370
    -2
100
AcDbLine
 10
391.9709723323279
 20
559.4653976044894
 30
0.0
 11
322.8002511093937
 21
559.4653976044894
 31
0.0
  0
LINE
  5
3A6D
330
29A4
100
AcDbEntity
  8
Dimension
 62
     0
440
 16777216
370
    -2
100
AcDbLine
 10
391.9709723323279
 20
409.4653976044894
 30
0.0
 11
322.8002511093937
 21
409.4653976044893
 31
0.0
  0
LINE
  5
3A6E
330
29A4
100
AcDbEntity
  8
Dimension
440
 16777216
100
AcDbLine
 10
326.5502511093937
 20
551.9653976044894
 30
0.0
 11
326.5502511093937
 21
416.9653976044894
 31
0.0
  0
SOLID
  5
3A6F
330
29A4
100
AcDbEntity
  8
Dimension
440
 16777216
100
AcDbTrace
 10
325.3002511093937
 20
551.9653976044894
 30
0.0
 11
327.8002511093937
 21
551.9653976044894
 31
0.0
 12
326.5502511093937
 22
559.4653976044894
 32
0.0
 13
326.5502511093937
 23
559.4653976044894
 33
0.0
  0
SOLID
  5
3A70
330
29A4
100
AcDbEntity
  8
Dimension
440
 16777216
100
AcDbTrace
 10
325.3002511093937
 20
416.9653976044894
 30
0.0
 11
327.8002511093937
 21
416.9653976044894
 31
0.0
 12
326.5502511093937
 22
409.4653976044893
 32
0.0
 13
326.5502511093937
 23
409.4653976044893
 33
0.0
  0
MTEXT
  5
3A71
330
29A4
100
AcDbEntity
  8
Dimension
440
 16777216
100
AcDbMText
 10
320.4002511093938
 20
484.4653976044892
 30
0.0
 40
7.5
 41
0.0
 46
0.0
 71
     5
 72
     1
  1
150
  7
Text
 11
0.0000000000000001
 21
1.0
 31
0.0
 73
     1
 44
1.0
  0
POINT
  5
3A72
330
29A4
100
AcDbEntity
  8
Defpoints
 62
     0
440
 16777216
100
AcDbPoint
 10
394.220972332328
 20
559.4653976044894
 30
0.0
  0
POINT
  5
3A73
330
29A4
100
AcDbEntity
  8
Defpoints
 62
     0
440
 16777216
100
AcDbPoint
 10
394.220972332328
 20
409.4653976044894
 30
0.0
  0
POINT
  5
3A74
330
29A4
100
AcDbEntity
  8
Defpoints
 62
     0
440
 16777216
100
AcDbPoint
 10
326.5502511093937
 20
409.4653976044893
 30
0.0
  0
ENDBLK
  5
29A6
330
29A4
100
AcDbEntity
  8
0
100
AcDbBlockEnd
  0
BLOCK
  5
29B1
330
29B0
100
AcDbEntity
  8
0
100
AcDbBlockBegin
  2
*D2
 70
     1
 10
0.0
 20
0.0
 30
0.0
  3
*D2
  1

  0
LINE
  5
3A61
330
29B0
100
AcDbEntity
  8
Dimension
 62
     0
440
 16777216
370
    -2
100
AcDbLine
 10
394.2209723323277
 20
407.2153976044892
 30
0.0
 11
394.2209723323277
 21
383.5349587988696
 31
0.0
  0
LINE
  5
3A62
330
29B0
100
AcDbEntity
  8
Dimension
 62
     0
440
 16777216
370
    -2
100
AcDbLine
 10
404.2209723323277
 20
407.2153976044892
 30
0.0
 11
404.2209723323277
 21
383.5349587988696
 31
0.0
  0
LINE
  5
3A63
330
29B0
100
AcDbEntity
  8
Dimension
440
 16777216
100
AcDbLine
 10
386.7209723323277
 20
387.2849587988696
 30
0.0
 11
379.2209723323277
 21
387.2849587988696
 31
0.0
  0
LINE
  5
3A64
330
29B0
100
AcDbEntity
  8
Dimension
440
 16777216
100
AcDbLine
 10
411.7209723323277
 20
387.2849587988696
 30
0.0
 11
419.2209723323277
 21
387.2849587988696
 31
0.0
  0
MTEXT
  5
3A65
330
29B0
100
AcDbEntity
  8
Dimension
440
 16777216
100
AcDbMText
 10
399.2209723323277
 20
394.5752547522404
 30
0.0
 40
7.5
 41
0.0
 46
0.0
 71
     5
 72
     1
  1
10
  7
Text
 73
     1
 44
1.0
  0
LINE
  5
3A66
330
29B0
100
AcDbEntity
  8
Dimension
440
 16777216
100
AcDbLine
 10
394.2209723323277
 20
387.2849587988696
 30
0.0
 11
404.2209723323277
 21
387.2849587988696
 31
0.0
  0
SOLID
  5
3A67
330
29B0
100
AcDbEntity
  8
Dimension
440
 16777216
100
AcDbTrace
 10
386.7209723323277
 20
388.5349587988697
 30
0.0
 11
386.7209723323277
 21
386.0349587988697
 31
0.0
 12
394.2209723323277
 22
387.2849587988696
 32
0.0
 13
394.2209723323277
 23
387.2849587988696
 33
0.0
  0
SOLID
  5
3A68
330
29B0
100
AcDbEntity
  8
Dimension
440
 16777216
100
AcDbTrace
 10
411.7209723323277
 20
388.5349587988697
 30
0.0
 11
411.7209723323277
 21
386.0349587988697
 31
0.0
 12
404.2209723323277
 22
387.2849587988696
 32
0.0
 13
404.2209723323277
 23
387.2849587988696
 33
0.0
  0
POINT
  5
3A69
330
29B0
100
AcDbEntity
  8
Defpoints
 62
     0
440
 16777216
100
AcDbPoint
 10
394.2209723323277
 20
409.4653976044892
 30
0.0
  0
POINT
  5
3A6A
330
29B0
100
AcDbEntity
  8
Defpoints
 62
     0
440
 16777216
100
AcDbPoint
 10
404.2209723323277
 20
409.4653976044892
 30
0.0
  0
POINT
  5
3A6B
330
29B0
100
AcDbEntity
  8
Defpoints
 62
     0
440
 16777216
100
AcDbPoint
 10
404.2209723323277
 20
387.2849587988696
 30
0.0
  0
ENDBLK
  5
29B2
330
29B0
100
AcDbEntity
  8
0
100
AcDbBlockEnd
  0
BLOCK
  5
29BF
330
29BE
100
AcDbEntity
  8
0
100
AcDbBlockBegin
  2
*D3
 70
     1
 10
0.0
 20
0.0
 30
0.0
  3
*D3
  1

  0
LINE
  5
3A4F
330
29BE
100
AcDbEntity
  8
Dimension
 62
     0
440
 16777216
370
    -2
100
AcDbLine
 10
511.242445174594
 20
464.4653970502267
 30
0.0
 11
561.1831072090738
 21
464.4653970502267
 31
0.0
  0
LINE
  5
3A50
330
29BE
100
AcDbEntity
  8
Dimension
 62
     0
440
 16777216
370
    -2
100
AcDbLine
 10
511.242445174594
 20
504.4653970502268
 30
0.0
 11
561.1831072090738
 21
504.4653970502268
 31
0.0
  0
LINE
  5
3A51
330
29BE
100
AcDbEntity
  8
Dimension
440
 16777216
100
AcDbLine
 10
557.4331072090737
 20
471.9653970502267
 30
0.0
 11
557.4331072090737
 21
496.9653970502267
 31
0.0
  0
SOLID
  5
3A52
330
29BE
100
AcDbEntity
  8
Dimension
440
 16777216
100
AcDbTrace
 10
556.1831072090738
 20
471.9653970502267
 30
0.0
 11
558.6831072090737
 21
471.9653970502267
 31
0.0
 12
557.4331072090737
 22
464.4653970502267
 32
0.0
 13
557.4331072090737
 23
464.4653970502267
 33
0.0
  0
SOLID
  5
3A53
330
29BE
100
AcDbEntity
  8
Dimension
440
 16777216
100
AcDbTrace
 10
556.1831072090738
 20
496.9653970502267
 30
0.0
 11
558.6831072090737
 21
496.9653970502267
 31
0.0
 12
557.4331072090737
 22
504.4653970502268
 32
0.0
 13
557.4331072090737
 23
504.4653970502268
 33
0.0
  0
MTEXT
  5
3A54
330
29BE
100
AcDbEntity
  8
Dimension
440
 16777216
100
AcDbMText
 10
551.2831072090738
 20
484.4653970502265
 30
0.0
 40
7.5
 41
0.0
 46
0.0
 71
     5
 72
     1
  1
40
  7
Text
 11
0.0000000000000001
 21
1.0
 31
0.0
 73
     1
 44
1.0
  0
POINT
  5
3A55
330
29BE
100
AcDbEntity
  8
Defpoints
 62
     0
440
 16777216
100
AcDbPoint
 10
508.992445174594
 20
464.4653970502267
 30
0.0
  0
POINT
  5
3A56
330
29BE
100
AcDbEntity
  8
Defpoints
 62
     0
440
 16777216
100
AcDbPoint
 10
508.992445174594
 20
504.4653970502268
 30
0.0
  0
POINT
  5
3A57
330
29BE
100
AcDbEntity
  8
Defpoints
 62
     0
440
 16777216
100
AcDbPoint
 10
557.4331072090737
 20
504.4653970502268
 30
0.0
  0
ENDBLK
  5
29C0
330
29BE
100
AcDbEntity
  8
0
100
AcDbBlockEnd
  0
BLOCK
  5
29CB
330
29CA
100
AcDbEntity
  8
0
100
AcDbBlockBegin
  2
*D4
 70
     1
 10
0.0
 20
0.0
 30
0.0
  3
*D4
  1

  0
LINE
  5
3A44
330
29CA
100
AcDbEntity
  8
Dimension
 62
     0
440
 16777216
370
    -2
100
AcDbLine
 10
489.9757799727049
 20
486.7320622521181
 30
0.0
 11
489.9757799727049
 21
531.4340821320461
 31
0.0
  0
LINE
  5
3A45
330
29CA
100
AcDbEntity
  8
Dimension
 62
     0
440
 16777216
370
    -2
100
AcDbLine
 10
497.9757799727049
 20
486.7320622521181
 30
0.0
 11
497.9757799727049
 21
531.4340821320461
 31
0.0
  0
LINE
  5
3A46
330
29CA
100
AcDbEntity
  8
Dimension
440
 16777216
100
AcDbLine
 10
482.4757799727048
 20
527.6840821320461
 30
0.0
 11
474.9757799727048
 21
527.6840821320461
 31
0.0
  0
LINE
  5
3A47
330
29CA
100
AcDbEntity
  8
Dimension
440
 16777216
100
AcDbLine
 10
505.4757799727049
 20
527.6840821320461
 30
0.0
 11
512.9757799727049
 21
527.6840821320461
 31
0.0
  0
MTEXT
  5
3A48
330
29CA
100
AcDbEntity
  8
Dimension
440
 16777216
100
AcDbMText
 10
493.9757799727049
 20
538.7840821320461
 30
0.0
 40
7.5
 41
0.0
 46
0.0
 71
     5
 72
     1
  1
Φ8
  7
Text
 73
     1
 44
1.0
  0
LINE
  5
3A49
330
29CA
100
AcDbEntity
  8
Dimension
440
 16777216
100
AcDbLine
 10
489.9757799727049
 20
527.6840821320461
 30
0.0
 11
497.9757799727049
 21
527.6840821320461
 31
0.0
  0
SOLID
  5
3A4A
330
29CA
100
AcDbEntity
  8
Dimension
440
 16777216
100
AcDbTrace
 10
482.4757799727048
 20
528.9340821320461
 30
0.0
 11
482.4757799727048
 21
526.4340821320461
 31
0.0
 12
489.9757799727049
 22
527.6840821320461
 32
0.0
 13
489.9757799727049
 23
527.6840821320461
 33
0.0
  0
SOLID
  5
3A4B
330
29CA
100
AcDbEntity
  8
Dimension
440
 16777216
100
AcDbTrace
 10
505.4757799727049
 20
528.9340821320461
 30
0.0
 11
505.4757799727049
 21
526.4340821320461
 31
0.0
 12
497.9757799727049
 22
527.6840821320461
 32
0.0
 13
497.9757799727049
 23
527.6840821320461
 33
0.0
  0
POINT
  5
3A4C
330
29CA
100
AcDbEntity
  8
Defpoints
 62
     0
440
 16777216
100
AcDbPoint
 10
489.9757799727049
 20
484.4820622521181
 30
0.0
  0
POINT
  5
3A4D
330
29CA
100
AcDbEntity
  8
Defpoints
 62
     0
440
 16777216
100
AcDbPoint
 10
497.9757799727049
 20
484.4820622521181
 30
0.0
  0
POINT
  5
3A4E
330
29CA
100
AcDbEntity
  8
Defpoints
 62
     0
440
 16777216
100
AcDbPoint
 10
497.9757799727049
 20
527.6840821320461
 30
0.0
  0
ENDBLK
  5
29CC
330
29CA
100
AcDbEntity
  8
0
100
AcDbBlockEnd
  0
BLOCK
  5
29D9
330
29D8
100
AcDbEntity
  8
0
100
AcDbBlockBegin
  2
*D5
 70
     1
 10
0.0
 20
0.0
 30
0.0
  3
*D5
  1

  0
LINE
  5
3A3B
330
29D8
100
AcDbEntity
  8
Dimension
 62
     0
440
 16777216
370
    -2
100
AcDbLine
 10
511.1480977051517
 20
177.3899791375559
 30
0.0
 11
541.593323576764
 21
177.3899791375559
 31
0.0
  0
LINE
  5
3A3C
330
29D8
100
AcDbEntity
  8
Dimension
 62
     0
440
 16777216
370
    -2
100
AcDbLine
 10
511.1480977051517
 20
227.389979137556
 30
0.0
 11
541.593323576764
 21
227.389979137556
 31
0.0
  0
LINE
  5
3A3D
330
29D8
100
AcDbEntity
  8
Dimension
440
 16777216
100
AcDbLine
 10
537.8433235767641
 20
184.8899791375559
 30
0.0
 11
537.8433235767641
 21
219.889979137556
 31
0.0
  0
SOLID
  5
3A3E
330
29D8
100
AcDbEntity
  8
Dimension
440
 16777216
100
AcDbTrace
 10
536.5933235767641
 20
184.8899791375559
 30
0.0
 11
539.093323576764
 21
184.8899791375559
 31
0.0
 12
537.8433235767641
 22
177.3899791375559
 32
0.0
 13
537.8433235767641
 23
177.3899791375559
 33
0.0
  0
SOLID
  5
3A3F
330
29D8
100
AcDbEntity
  8
Dimension
440
 16777216
100
AcDbTrace
 10
536.5933235767641
 20
219.889979137556
 30
0.0
 11
539.093323576764
 21
219.889979137556
 31
0.0
 12
537.8433235767641
 22
227.389979137556
 32
0.0
 13
537.8433235767641
 23
227.389979137556
 33
0.0
  0
MTEXT
  5
3A40
330
29D8
100
AcDbEntity
  8
Dimension
440
 16777216
100
AcDbMText
 10
531.6933235767639
 20
202.3899791375558
 30
0.0
 40
7.5
 41
0.0
 46
0.0
 71
     5
 72
     1
  1
50
  7
Text
 11
0.0000000000000001
 21
1.0
 31
0.0
 73
     1
 44
1.0
  0
POINT
  5
3A41
330
29D8
100
AcDbEntity
  8
Defpoints
 62
     0
440
 16777216
100
AcDbPoint
 10
508.8980977051517
 20
177.3899791375559
 30
0.0
  0
POINT
  5
3A42
330
29D8
100
AcDbEntity
  8
Defpoints
 62
     0
440
 16777216
100
AcDbPoint
 10
508.8980977051517
 20
227.389979137556
 30
0.0
  0
POINT
  5
3A43
330
29D8
100
AcDbEntity
  8
Defpoints
 62
     0
440
 16777216
100
AcDbPoint
 10
537.8433235767641
 20
227.389979137556
 30
0.0
  0
ENDBLK
  5
29DA
330
29D8
100
AcDbEntity
  8
0
100
AcDbBlockEnd
  0
BLOCK
  5
29E5
330
29E4
100
AcDbEntity
  8
0
100
AcDbBlockBegin
  2
*D6
 70
     1
 10
0.0
 20
0.0
 30
0.0
  3
*D6
  1

  0
LINE
  5
3A32
330
29E4
100
AcDbEntity
  8
Dimension
 62
     0
440
 16777216
370
    -2
100
AcDbLine
 10
503.2235557121555
 20
330.389979137556
 30
0.0
 11
560.4545800513403
 21
330.389979137556
 31
0.0
  0
LINE
  5
3A33
330
29E4
100
AcDbEntity
  8
Dimension
 62
     0
440
 16777216
370
    -2
100
AcDbLine
 10
503.2235557121555
 20
74.38997913755597
 30
0.0
 11
560.4545800513403
 21
74.38997913755598
 31
0.0
  0
LINE
  5
3A34
330
29E4
100
AcDbEntity
  8
Dimension
440
 16777216
100
AcDbLine
 10
556.7045800513402
 20
322.889979137556
 30
0.0
 11
556.7045800513404
 21
81.88997913755597
 31
0.0
  0
SOLID
  5
3A35
330
29E4
100
AcDbEntity
  8
Dimension
440
 16777216
100
AcDbTrace
 10
555.4545800513402
 20
322.889979137556
 30
0.0
 11
557.9545800513402
 21
322.889979137556
 31
0.0
 12
556.7045800513402
 22
330.389979137556
 32
0.0
 13
556.7045800513402
 23
330.389979137556
 33
0.0
  0
SOLID
  5
3A36
330
29E4
100
AcDbEntity
  8
Dimension
440
 16777216
100
AcDbTrace
 10
555.4545800513404
 20
81.88997913755597
 30
0.0
 11
557.9545800513403
 21
81.88997913755597
 31
0.0
 12
556.7045800513404
 22
74.38997913755598
 32
0.0
 13
556.7045800513404
 23
74.38997913755598
 33
0.0
  0
MTEXT
  5
3A37
330
29E4
100
AcDbEntity
  8
Dimension
440
 16777216
100
AcDbMText
 10
550.5545800513402
 20
202.3899791375558
 30
0.0
 40
7.5
 41
0.0
 46
0.0
 71
     5
 72
     1
  1
256
  7
Text
 11
0.0000000000000001
 21
1.0
 31
0.0
 73
     1
 44
1.0
  0
POINT
  5
3A38
330
29E4
100
AcDbEntity
  8
Defpoints
 62
     0
440
 16777216
100
AcDbPoint
 10
500.9735557121555
 20
330.389979137556
 30
0.0
  0
POINT
  5
3A39
330
29E4
100
AcDbEntity
  8
Defpoints
 62
     0
440
 16777216
100
AcDbPoint
 10
500.9735557121555
 20
74.38997913755597
 30
0.0
  0
POINT
  5
3A3A
330
29E4
100
AcDbEntity
  8
Defpoints
 62
     0
440
 16777216
100
AcDbPoint
 10
556.7045800513404
 20
74.38997913755598
 30
0.0
  0
ENDBLK
  5
29E6
330
29E4
100
AcDbEntity
  8
0
100
AcDbBlockEnd
  0
BLOCK
  5
2A05
330
2A04
100
AcDbEntity
  8
0
100
AcDbBlockBegin
  2
*D7
 70
     1
 10
0.0
 20
0.0
 30
0.0
  3
*D7
  1

  0
LINE
  5
3A7C
330
2A04
100
AcDbEntity
  8
Dimension
 62
     0
440
 16777216
370
    -2
100
AcDbLine
 10
479.9924451745936
 20
482.2153970502265
 30
0.0
 11
479.9924451745936
 21
437.5227535762585
 31
0.0
  0
LINE
  5
3A7D
330
2A04
100
AcDbEntity
  8
Dimension
 62
     0
440
 16777216
370
    -2
100
AcDbLine
 10
507.9924209543823
 20
482.241438658078
 30
0.0
 11
507.9924209543823
 21
437.5227535762585
 31
0.0
  0
LINE
  5
3A7E
330
2A04
100
AcDbEntity
  8
Dimension
440
 16777216
100
AcDbLine
 10
487.4924451745936
 20
441.2727535762585
 30
0.0
 11
500.4924209543823
 21
441.2727535762585
 31
0.0
  0
SOLID
  5
3A7F
330
2A04
100
AcDbEntity
  8
Dimension
440
 16777216
100
AcDbTrace
 10
487.4924451745936
 20
442.5227535762585
 30
0.0
 11
487.4924451745936
 21
440.0227535762585
 31
0.0
 12
479.9924451745936
 22
441.2727535762585
 32
0.0
 13
479.9924451745936
 23
441.2727535762585
 33
0.0
  0
SOLID
  5
3A80
330
2A04
100
AcDbEntity
  8
Dimension
440
 16777216
100
AcDbTrace
 10
500.4924209543823
 20
442.5227535762585
 30
0.0
 11
500.4924209543823
 21
440.0227535762585
 31
0.0
 12
507.9924209543823
 22
441.2727535762585
 32
0.0
 13
507.9924209543823
 23
441.2727535762585
 33
0.0
  0
MTEXT
  5
3A81
330
2A04
100
AcDbEntity
  8
Dimension
440
 16777216
100
AcDbMText
 10
493.9924330644879
 20
447.4227535762585
 30
0.0
 40
7.5
 41
0.0
 46
0.0
 71
     5
 72
     1
  1
Φ28
  7
Text
 73
     1
 44
1.0
  0
POINT
  5
3A82
330
2A04
100
AcDbEntity
  8
Defpoints
 62
     0
440
 16777216
100
AcDbPoint
 10
479.9924451745936
 20
484.4653970502265
 30
0.0
  0
POINT
  5
3A83
330
2A04
100
AcDbEntity
  8
Defpoints
 62
     0
440
 16777216
100
AcDbPoint
 10
507.9924209543823
 20
484.491438658078
 30
0.0
  0
POINT
  5
3A84
330
2A04
100
AcDbEntity
  8
Defpoints
 62
     0
440
 16777216
100
AcDbPoint
 10
507.9924209543823
 20
441.2727535762585
 30
0.0
  0
ENDBLK
  5
2A06
330
2A04
100
AcDbEntity
  8
0
100
AcDbBlockEnd
  0
BLOCK
  5
2A37
330
2A36
100
AcDbEntity
  8
0
100
AcDbBlockBegin
  2
*D8
 70
     1
 10
0.0
 20
0.0
 30
0.0
  3
*D8
  1

  0
LINE
  5
3A29
330
2A36
100
AcDbEntity
  8
Dimension
 62
     0
440
 16777216
370
    -2
100
AcDbLine
 10
479.9924451745937
 20
229.6399791375559
 30
0.0
 11
479.9924451745937
 21
257.1402880434443
 31
0.0
  0
LINE
  5
3A2A
330
2A36
100
AcDbEntity
  8
Dimension
 62
     0
440
 16777216
370
    -2
100
AcDbLine
 10
403.4924451745937
 20
219.6399791375559
 30
0.0
 11
403.4924451745937
 21
257.1402880434443
 31
0.0
  0
LINE
  5
3A2B
330
2A36
100
AcDbEntity
  8
Dimension
440
 16777216
100
AcDbLine
 10
472.4924451745937
 20
253.3902880434443
 30
0.0
 11
410.9924451745937
 21
253.3902880434443
 31
0.0
  0
SOLID
  5
3A2C
330
2A36
100
AcDbEntity
  8
Dimension
440
 16777216
100
AcDbTrace
 10
472.4924451745937
 20
254.6402880434444
 30
0.0
 11
472.4924451745937
 21
252.1402880434443
 31
0.0
 12
479.9924451745937
 22
253.3902880434443
 32
0.0
 13
479.9924451745937
 23
253.3902880434443
 33
0.0
  0
SOLID
  5
3A2D
330
2A36
100
AcDbEntity
  8
Dimension
440
 16777216
100
AcDbTrace
 10
410.9924451745937
 20
254.6402880434444
 30
0.0
 11
410.9924451745937
 21
252.1402880434443
 31
0.0
 12
403.4924451745937
 22
253.3902880434443
 32
0.0
 13
403.4924451745937
 23
253.3902880434443
 33
0.0
  0
MTEXT
  5
3A2E
330
2A36
100
AcDbEntity
  8
Dimension
440
 16777216
100
AcDbMText
 10
441.7424451745937
 20
260.7902880434443
 30
0.0
 40
7.5
 41
0.0
 46
0.0
 71
     5
 72
     1
  1
adjustable
  7
Text
 73
     1
 44
1.0
  0
POINT
  5
3A2F
330
2A36
100
AcDbEntity
  8
Defpoints
 62
     0
440
 16777216
100
AcDbPoint
 10
479.9924451745937
 20
227.3899791375559
 30
0.0
  0
POINT
  5
3A30
330
2A36
100
AcDbEntity
  8
Defpoints
 62
     0
440
 16777216
100
AcDbPoint
 10
403.4924451745937
 20
217.3899791375559
 30
0.0
  0
POINT
  5
3A31
330
2A36
100
AcDbEntity
  8
Defpoints
 62
     0
440
 16777216
100
AcDbPoint
 10
403.4924451745937
 20
253.3902880434443
 30
0.0
  0
ENDBLK
  5
2A38
330
2A36
100
AcDbEntity
  8
0
100
AcDbBlockEnd
  0
BLOCK
  5
2A43
330
2A42
100
AcDbEntity
  8
0
100
AcDbBlockBegin
  2
*D9
 70
     1
 10
0.0
 20
0.0
 30
0.0
  3
*D9
  1

  0
LINE
  5
3A20
330
2A42
100
AcDbEntity
  8
Dimension
 62
     0
440
 16777216
370
    -2
100
AcDbLine
 10
507.9924451745937
 20
330.7531916983716
 30
0.0
 11
507.9924451745937
 21
362.8787578396896
 31
0.0
  0
LINE
  5
3A21
330
2A42
100
AcDbEntity
  8
Dimension
 62
     0
440
 16777216
370
    -2
100
AcDbLine
 10
343.9924451745937
 20
208.6399791375559
 30
0.0
 11
343.9924451745937
 21
362.8787578396896
 31
0.0
  0
LINE
  5
3A22
330
2A42
100
AcDbEntity
  8
Dimension
440
 16777216
100
AcDbLine
 10
500.4924451745937
 20
359.1287578396896
 30
0.0
 11
351.4924451745937
 21
359.1287578396896
 31
0.0
  0
SOLID
  5
3A23
330
2A42
100
AcDbEntity
  8
Dimension
440
 16777216
100
AcDbTrace
 10
500.4924451745937
 20
360.3787578396896
 30
0.0
 11
500.4924451745937
 21
357.8787578396896
 31
0.0
 12
507.9924451745937
 22
359.1287578396896
 32
0.0
 13
507.9924451745937
 23
359.1287578396896
 33
0.0
  0
SOLID
  5
3A24
330
2A42
100
AcDbEntity
  8
Dimension
440
 16777216
100
AcDbTrace
 10
351.4924451745937
 20
360.3787578396896
 30
0.0
 11
351.4924451745937
 21
357.8787578396896
 31
0.0
 12
343.9924451745937
 22
359.1287578396896
 32
0.0
 13
343.9924451745937
 23
359.1287578396896
 33
0.0
  0
MTEXT
  5
3A25
330
2A42
100
AcDbEntity
  8
Dimension
440
 16777216
100
AcDbMText
 10
425.9924451745937
 20
365.2787578396896
 30
0.0
 40
7.5
 41
0.0
 46
0.0
 71
     5
 72
     1
  1
164
  7
Text
 73
     1
 44
1.0
  0
POINT
  5
3A26
330
2A42
100
AcDbEntity
  8
Defpoints
 62
     0
440
 16777216
100
AcDbPoint
 10
507.9924451745937
 20
328.5031916983716
 30
0.0
  0
POINT
  5
3A27
330
2A42
100
AcDbEntity
  8
Defpoints
 62
     0
440
 16777216
100
AcDbPoint
 10
343.9924451745937
 20
206.3899791375559
 30
0.0
  0
POINT
  5
3A28
330
2A42
100
AcDbEntity
  8
Defpoints
 62
     0
440
 16777216
100
AcDbPoint
 10
343.9924451745937
 20
359.1287578396896
 30
0.0
  0
ENDBLK
  5
2A44
330
2A42
100
AcDbEntity
  8
0
100
AcDbBlockEnd
  0
BLOCK
  5
2A4F
330
2A4E
100
AcDbEntity
  8
0
100
AcDbBlockBegin
  2
*D10
 70
     1
 10
0.0
 20
0.0
 30
0.0
  3
*D10
  1

  0
LINE
  5
3A15
330
2A4E
100
AcDbEntity
  8
Dimension
 62
     0
440
 16777216
370
    -2
100
AcDbLine
 10
507.9924451745937
 20
330.7531916983716
 30
0.0
 11
507.9924451745937
 21
362.8787578396896
 31
0.0
  0
LINE
  5
3A16
330
2A4E
100
AcDbEntity
  8
Dimension
 62
     0
440
 16777216
370
    -2
100
AcDbLine
 10
513.9924451745937
 20
224.5456316681138
 30
0.0
 11
513.9924451745937
 21
362.8787578396896
 31
0.0
  0
LINE
  5
3A17
330
2A4E
100
AcDbEntity
  8
Dimension
440
 16777216
100
AcDbLine
 10
500.4924451745937
 20
359.1287578396896
 30
0.0
 11
492.9924451745937
 21
359.1287578396896
 31
0.0
  0
LINE
  5
3A18
330
2A4E
100
AcDbEntity
  8
Dimension
440
 16777216
100
AcDbLine
 10
521.4924451745937
 20
359.1287578396896
 30
0.0
 11
528.9924451745937
 21
359.1287578396896
 31
0.0
  0
MTEXT
  5
3A19
330
2A4E
100
AcDbEntity
  8
Dimension
440
 16777216
100
AcDbMText
 10
510.9924451745937
 20
370.2287578396896
 30
0.0
 40
7.5
 41
0.0
 46
0.0
 71
     5
 72
     1
  1
6
  7
Text
 73
     1
 44
1.0
  0
LINE
  5
3A1A
330
2A4E
100
AcDbEntity
  8
Dimension
440
 16777216
100
AcDbLine
 10
507.9924451745937
 20
359.1287578396896
 30
0.0
 11
513.9924451745937
 21
359.1287578396896
 31
0.0
  0
SOLID
  5
3A1B
330
2A4E
100
AcDbEntity
  8
Dimension
440
 16777216
100
AcDbTrace
 10
500.4924451745937
 20
360.3787578396896
 30
0.0
 11
500.4924451745937
 21
357.8787578396896
 31
0.0
 12
507.9924451745937
 22
359.1287578396896
 32
0.0
 13
507.9924451745937
 23
359.1287578396896
 33
0.0
  0
SOLID
  5
3A1C
330
2A4E
100
AcDbEntity
  8
Dimension
440
 16777216
100
AcDbTrace
 10
521.4924451745937
 20
360.3787578396896
 30
0.0
 11
521.4924451745937
 21
357.8787578396896
 31
0.0
 12
513.9924451745937
 22
359.1287578396896
 32
0.0
 13
513.9924451745937
 23
359.1287578396896
 33
0.0
  0
POINT
  5
3A1D
330
2A4E
100
AcDbEntity
  8
Defpoints
 62
     0
440
 16777216
100
AcDbPoint
 10
507.9924451745937
 20
328.5031916983716
 30
0.0
  0
POINT
  5
3A1E
330
2A4E
100
AcDbEntity
  8
Defpoints
 62
     0
440
 16777216
100
AcDbPoint
 10
513.9924451745937
 20
222.2956316681138
 30
0.0
  0
POINT
  5
3A1F
330
2A4E
100
AcDbEntity
  8
Defpoints
 62
     0
440
 16777216
100
AcDbPoint
 10
513.9924451745937
 20
359.1287578396896
 30
0.0
  0
ENDBLK
  5
2A50
330
2A4E
100
AcDbEntity
  8
0
100
AcDbBlockEnd
  0
BLOCK
  5
2A5D
330
2A5C
100
AcDbEntity
  8
0
100
AcDbBlockBegin
  2
*D11
 70
     1
 10
0.0
 20
0.0
 30
0.0
  3
*D11
  1

  0
LINE
  5
3A0C
330
2A5C
100
AcDbEntity
  8
Dimension
 62
     0
440
 16777216
370
    -2
100
AcDbLine
 10
120.0310850272958
 20
204.6399791375559
 30
0.0
 11
120.0310850272958
 21
233.7301568087796
 31
0.0
  0
LINE
  5
3A0D
330
2A5C
100
AcDbEntity
  8
Dimension
 62
     0
440
 16777216
370
    -2
100
AcDbLine
 10
149.0310850272958
 20
204.6399791375559
 30
0.0
 11
149.0310850272958
 21
233.7301568087796
 31
0.0
  0
LINE
  5
3A0E
330
2A5C
100
AcDbEntity
  8
Dimension
440
 16777216
100
AcDbLine
 10
127.5310850272958
 20
229.9801568087796
 30
0.0
 11
141.5310850272958
 21
229.9801568087796
 31
0.0
  0
MTEXT
  5
3A0F
330
2A5C
100
AcDbEntity
  8
Dimension
440
 16777216
100
AcDbMText
 10
142.4311794401928
 20
236.1301568087796
 30
0.0
 40
7.5
 41
0.0
 46
0.0
 71
     5
 72
     1
  1
29
  7
Text
 73
     1
 44
1.0
  0
SOLID
  5
3A10
330
2A5C
100
AcDbEntity
  8
Dimension
440
 16777216
100
AcDbTrace
 10
127.5310850272958
 20
231.2301568087796
 30
0.0
 11
127.5310850272958
 21
228.7301568087796
 31
0.0
 12
120.0310850272958
 22
229.9801568087796
 32
0.0
 13
120.0310850272958
 23
229.9801568087796
 33
0.0
  0
SOLID
  5
3A11
330
2A5C
100
AcDbEntity
  8
Dimension
440
 16777216
100
AcDbTrace
 10
141.5310850272958
 20
231.2301568087796
 30
0.0
 11
141.5310850272958
 21
228.7301568087796
 31
0.0
 12
149.0310850272958
 22
229.9801568087796
 32
0.0
 13
149.0310850272958
 23
229.9801568087796
 33
0.0
  0
POINT
  5
3A12
330
2A5C
100
AcDbEntity
  8
Defpoints
 62
     0
440
 16777216
100
AcDbPoint
 10
120.0310850272958
 20
202.3899791375559
 30
0.0
  0
POINT
  5
3A13
330
2A5C
100
AcDbEntity
  8
Defpoints
 62
     0
440
 16777216
100
AcDbPoint
 10
149.0310850272958
 20
202.3899791375559
 30
0.0
  0
POINT
  5
3A14
330
2A5C
100
AcDbEntity
  8
Defpoints
 62
     0
440
 16777216
100
AcDbPoint
 10
149.0310850272958
 20
229.9801568087796
 30
0.0
  0
ENDBLK
  5
2A5E
330
2A5C
100
AcDbEntity
  8
0
100
AcDbBlockEnd
  0
BLOCK
  5
2A69
330
2A68
100
AcDbEntity
  8
0
100
AcDbBlockBegin
  2
*D12
 70
     1
 10
0.0
 20
0.0
 30
0.0
  3
*D12
  1

  0
LINE
  5
3A03
330
2A68
100
AcDbEntity
  8
Dimension
 62
     0
440
 16777216
370
    -2
100
AcDbLine
 10
254.0310850272958
 20
204.6399791375559
 30
0.0
 11
254.0310850272958
 21
233.7301568087796
 31
0.0
  0
LINE
  5
3A04
330
2A68
100
AcDbEntity
  8
Dimension
 62
     0
440
 16777216
370
    -2
100
AcDbLine
 10
225.0310850272958
 20
204.6399791375559
 30
0.0
 11
225.0310850272958
 21
233.7301568087796
 31
0.0
  0
LINE
  5
3A05
330
2A68
100
AcDbEntity
  8
Dimension
440
 16777216
100
AcDbLine
 10
246.5310850272958
 20
229.9801568087796
 30
0.0
 11
232.5310850272958
 21
229.9801568087796
 31
0.0
  0
MTEXT
  5
3A06
330
2A68
100
AcDbEntity
  8
Dimension
440
 16777216
100
AcDbMText
 10
248.19334704016
 20
236.1301568087796
 30
0.0
 40
7.5
 41
0.0
 46
0.0
 71
     5
 72
     1
  1
29
  7
Text
 73
     1
 44
1.0
  0
SOLID
  5
3A07
330
2A68
100
AcDbEntity
  8
Dimension
440
 16777216
100
AcDbTrace
 10
246.5310850272958
 20
231.2301568087796
 30
0.0
 11
246.5310850272958
 21
228.7301568087796
 31
0.0
 12
254.0310850272958
 22
229.9801568087796
 32
0.0
 13
254.0310850272958
 23
229.9801568087796
 33
0.0
  0
SOLID
  5
3A08
330
2A68
100
AcDbEntity
  8
Dimension
440
 16777216
100
AcDbTrace
 10
232.5310850272958
 20
231.2301568087796
 30
0.0
 11
232.5310850272958
 21
228.7301568087796
 31
0.0
 12
225.0310850272958
 22
229.9801568087796
 32
0.0
 13
225.0310850272958
 23
229.9801568087796
 33
0.0
  0
POINT
  5
3A09
330
2A68
100
AcDbEntity
  8
Defpoints
 62
     0
440
 16777216
100
AcDbPoint
 10
254.0310850272958
 20
202.3899791375559
 30
0.0
  0
POINT
  5
3A0A
330
2A68
100
AcDbEntity
  8
Defpoints
 62
     0
440
 16777216
100
AcDbPoint
 10
225.0310850272958
 20
202.3899791375559
 30
0.0
  0
POINT
  5
3A0B
330
2A68
100
AcDbEntity
  8
Defpoints
 62
     0
440
 16777216
100
AcDbPoint
 10
225.0310850272958
 20
229.9801568087796
 30
0.0
  0
ENDBLK
  5
2A6A
330
2A68
100
AcDbEntity
  8
0
100
AcDbBlockEnd
  0
BLOCK
  5
2A75
330
2A74
100
AcDbEntity
  8
0
100
AcDbBlockBegin
  2
*D13
 70
     1
 10
0.0
 20
0.0
 30
0.0
  3
*D13
  1

  0
LINE
  5
39FA
330
2A74
100
AcDbEntity
  8
Dimension
 62
     0
440
 16777216
370
    -2
100
AcDbLine
 10
134.5310850272958
 20
207.6399791375559
 30
0.0
 11
134.5310850272958
 21
262.4590046687142
 31
0.0
  0
LINE
  5
39FB
330
2A74
100
AcDbEntity
  8
Dimension
 62
     0
440
 16777216
370
    -2
100
AcDbLine
 10
239.5310850272958
 20
207.6399791375559
 30
0.0
 11
239.5310850272958
 21
262.4590046687142
 31
0.0
  0
LINE
  5
39FC
330
2A74
100
AcDbEntity
  8
Dimension
440
 16777216
100
AcDbLine
 10
142.0310850272958
 20
258.7090046687142
 30
0.0
 11
232.0310850272958
 21
258.7090046687142
 31
0.0
  0
MTEXT
  5
39FD
330
2A74
100
AcDbEntity
  8
Dimension
440
 16777216
100
AcDbMText
 10
209.8386349220263
 20
264.8590046687142
 30
0.0
 40
7.5
 41
0.0
 46
0.0
 71
     5
 72
     1
  1
105
  7
Text
 73
     1
 44
1.0
  0
SOLID
  5
39FE
330
2A74
100
AcDbEntity
  8
Dimension
440
 16777216
100
AcDbTrace
 10
142.0310850272958
 20
259.9590046687142
 30
0.0
 11
142.0310850272958
 21
257.4590046687142
 31
0.0
 12
134.5310850272958
 22
258.7090046687142
 32
0.0
 13
134.5310850272958
 23
258.7090046687142
 33
0.0
  0
SOLID
  5
39FF
330
2A74
100
AcDbEntity
  8
Dimension
440
 16777216
100
AcDbTrace
 10
232.0310850272958
 20
259.9590046687142
 30
0.0
 11
232.0310850272958
 21
257.4590046687142
 31
0.0
 12
239.5310850272958
 22
258.7090046687142
 32
0.0
 13
239.5310850272958
 23
258.7090046687142
 33
0.0
  0
POINT
  5
3A00
330
2A74
100
AcDbEntity
  8
Defpoints
 62
     0
440
 16777216
100
AcDbPoint
 10
134.5310850272958
 20
205.3899791375559
 30
0.0
  0
POINT
  5
3A01
330
2A74
100
AcDbEntity
  8
Defpoints
 62
     0
440
 16777216
100
AcDbPoint
 10
239.5310850272958
 20
205.3899791375559
 30
0.0
  0
POINT
  5
3A02
330
2A74
100
AcDbEntity
  8
Defpoints
 62
     0
440
 16777216
100
AcDbPoint
 10
239.5310850272958
 20
258.7090046687142
 30
0.0
  0
ENDBLK
  5
2A76
330
2A74
100
AcDbEntity
  8
0
100
AcDbBlockEnd
  0
BLOCK
  5
2A81
330
2A80
100
AcDbEntity
  8
0
100
AcDbBlockBegin
  2
*D14
 70
     1
 10
0.0
 20
0.0
 30
0.0
  3
*D14
  1

  0
LINE
  5
39F1
330
2A80
100
AcDbEntity
  8
Dimension
 62
     0
440
 16777216
370
    -2
100
AcDbLine
 10
264.2810850272959
 20
217.389979137556
 30
0.0
 11
290.1023999368435
 21
217.389979137556
 31
0.0
  0
LINE
  5
39F2
330
2A80
100
AcDbEntity
  8
Dimension
 62
     0
440
 16777216
370
    -2
100
AcDbLine
 10
264.2810850272959
 20
187.3899791375559
 30
0.0
 11
290.1023999368435
 21
187.3899791375559
 31
0.0
  0
LINE
  5
39F3
330
2A80
100
AcDbEntity
  8
Dimension
440
 16777216
100
AcDbLine
 10
286.3523999368435
 20
209.889979137556
 30
0.0
 11
286.3523999368435
 21
194.8899791375559
 31
0.0
  0
SOLID
  5
39F4
330
2A80
100
AcDbEntity
  8
Dimension
440
 16777216
100
AcDbTrace
 10
285.1023999368436
 20
209.889979137556
 30
0.0
 11
287.6023999368436
 21
209.889979137556
 31
0.0
 12
286.3523999368435
 22
217.389979137556
 32
0.0
 13
286.3523999368435
 23
217.389979137556
 33
0.0
  0
SOLID
  5
39F5
330
2A80
100
AcDbEntity
  8
Dimension
440
 16777216
100
AcDbTrace
 10
285.1023999368436
 20
194.8899791375559
 30
0.0
 11
287.6023999368436
 21
194.8899791375559
 31
0.0
 12
286.3523999368435
 22
187.3899791375559
 32
0.0
 13
286.3523999368435
 23
187.3899791375559
 33
0.0
  0
MTEXT
  5
39F6
330
2A80
100
AcDbEntity
  8
Dimension
440
 16777216
100
AcDbMText
 10
280.2023999368436
 20
202.3899791375558
 30
0.0
 40
7.5
 41
0.0
 46
0.0
 71
     5
 72
     1
  1
30
  7
Text
 11
0.0000000000000001
 21
1.0
 31
0.0
 73
     1
 44
1.0
  0
POINT
  5
39F7
330
2A80
100
AcDbEntity
  8
Defpoints
 62
     0
440
 16777216
100
AcDbPoint
 10
262.0310850272959
 20
217.389979137556
 30
0.0
  0
POINT
  5
39F8
330
2A80
100
AcDbEntity
  8
Defpoints
 62
     0
440
 16777216
100
AcDbPoint
 10
262.0310850272959
 20
187.3899791375559
 30
0.0
  0
POINT
  5
39F9
330
2A80
100
AcDbEntity
  8
Defpoints
 62
     0
440
 16777216
100
AcDbPoint
 10
286.3523999368435
 20
187.3899791375559
 30
0.0
  0
ENDBLK
  5
2A82
330
2A80
100
AcDbEntity
  8
0
100
AcDbBlockEnd
  0
BLOCK
  5
2A8D
330
2A8C
100
AcDbEntity
  8
0
100
AcDbBlockBegin
  2
*D15
 70
     1
 10
0.0
 20
0.0
 30
0.0
  3
*D15
  1

  0
LINE
  5
39E6
330
2A8C
100
AcDbEntity
  8
Dimension
 62
     0
440
 16777216
370
    -2
100
AcDbLine
 10
241.7810850272959
 20
205.389979137556
 30
0.0
 11
255.6770289879619
 21
205.389979137556
 31
0.0
  0
LINE
  5
39E7
330
2A8C
100
AcDbEntity
  8
Dimension
 62
     0
440
 16777216
370
    -2
100
AcDbLine
 10
241.7810850272959
 20
199.389979137556
 30
0.0
 11
255.6770289879619
 21
199.389979137556
 31
0.0
  0
LINE
  5
39E8
330
2A8C
100
AcDbEntity
  8
Dimension
440
 16777216
100
AcDbLine
 10
251.9270289879619
 20
212.889979137556
 30
0.0
 11
251.9270289879619
 21
220.389979137556
 31
0.0
  0
LINE
  5
39E9
330
2A8C
100
AcDbEntity
  8
Dimension
440
 16777216
100
AcDbLine
 10
251.9270289879619
 20
191.8899791375559
 30
0.0
 11
251.9270289879619
 21
184.3899791375559
 31
0.0
  0
MTEXT
  5
39EA
330
2A8C
100
AcDbEntity
  8
Dimension
440
 16777216
100
AcDbMText
 10
245.3433468507319
 20
211.4763821418051
 30
0.0
 40
7.5
 41
0.0
 46
0.0
 71
     5
 72
     1
  1
6
  7
Text
 11
0.0000000000000001
 21
1.0
 31
0.0
 73
     1
 44
1.0
  0
LINE
  5
39EB
330
2A8C
100
AcDbEntity
  8
Dimension
440
 16777216
100
AcDbLine
 10
251.9270289879619
 20
205.389979137556
 30
0.0
 11
251.9270289879619
 21
199.389979137556
 31
0.0
  0
SOLID
  5
39EC
330
2A8C
100
AcDbEntity
  8
Dimension
440
 16777216
100
AcDbTrace
 10
250.6770289879619
 20
212.889979137556
 30
0.0
 11
253.1770289879619
 21
212.889979137556
 31
0.0
 12
251.9270289879619
 22
205.389979137556
 32
0.0
 13
251.9270289879619
 23
205.389979137556
 33
0.0
  0
SOLID
  5
39ED
330
2A8C
100
AcDbEntity
  8
Dimension
440
 16777216
100
AcDbTrace
 10
250.6770289879619
 20
191.8899791375559
 30
0.0
 11
253.1770289879619
 21
191.8899791375559
 31
0.0
 12
251.9270289879619
 22
199.389979137556
 32
0.0
 13
251.9270289879619
 23
199.389979137556
 33
0.0
  0
POINT
  5
39EE
330
2A8C
100
AcDbEntity
  8
Defpoints
 62
     0
440
 16777216
100
AcDbPoint
 10
239.5310850272959
 20
205.389979137556
 30
0.0
  0
POINT
  5
39EF
330
2A8C
100
AcDbEntity
  8
Defpoints
 62
     0
440
 16777216
100
AcDbPoint
 10
239.5310850272959
 20
199.389979137556
 30
0.0
  0
POINT
  5
39F0
330
2A8C
100
AcDbEntity
  8
Defpoints
 62
     0
440
 16777216
100
AcDbPoint
 10
251.9270289879619
 20
199.389979137556
 30
0.0
  0
ENDBLK
  5
2A8E
330
2A8C
100
AcDbEntity
  8
0
100
AcDbBlockEnd
  0
ENDSEC
  0
SECTION
  2
ENTITIES
  0
TEXT
  5
28B0
330
1F
100
AcDbEntity
  8
Text2
100
AcDbText
 10
656.237353709087
 20
78.21069141420617
 30
0.0
 40
15.0
  1
OutLine Drawing
 50
0.044194
 41
0.8
  7
Text
100
AcDbText
  0
TEXT
  5
28B1
330
1F
100
AcDbEntity
  8
Text2
100
AcDbText
 10
578.9265651964106
 20
103.1660176770103
 30
0.0
 40
15.0
  1
CP-05B
 50
0.044194
 41
0.8
  7
Text
100
AcDbText
  0
TEXT
  5
28B2
330
1F
100
AcDbEntity
  8
Text2
100
AcDbText
 10
657.1978217044233
 20
104.125837302166
 30
0.0
 40
15.0
  1
外形図
 50
0.044194
 41
0.8
  7
Text
100
AcDbText
  0
LWPOLYLINE
  5
28B3
330
1F
100
AcDbEntity
  8
Defpoints
100
AcDbPolyline
 90
        4
 70
     1
 43
0.0
 10
0.0
 20
0.0
 10
891.0
 20
0.0
 10
891.0
 20
630.0
 10
0.0
 20
630.0
  0
TEXT
  5
28B4
330
1F
100
AcDbEntity
  8
Defpoints
100
AcDbText
 10
-0.0000000000000009
 20
-22.5
 30
0.0
 40
15.0
  1
A4 : S=1/3
 41
0.8
  7
Text
 11
0.0
 21
-7.5
 31
0.0
100
AcDbText
 73
     3
  0
LWPOLYLINE
  5
28B5
330
1F
100
AcDbEntity
  8
Defpoints
  6
DASHED
100
AcDbPolyline
 90
        4
 70
     1
 43
0.0
 10
15.0
 20
51.0
 10
876.0
 20
51.0
 10
876.0
 20
579.0
 10
15.0
 20
579.0
  0
DIMENSION
  5
294B
330
1F
100
AcDbEntity
  8
Dimension
100
AcDbDimension
280
     0
  2
*D1
 10
326.5502511093937
 20
409.4653976044893
 30
0.0
 11
320.4002511093938
 21
484.4653976044892
 31
0.0
 70
    32
 71
     5
 42
150.0
 73
     0
 74
     0
 75
     0
  3
DIM-3
100
AcDbAlignedDimension
 13
394.2209723323277
 23
559.4653976044892
 33
0.0
 14
394.2209723323277
 24
409.4653976044892
 34
0.0
 50
90.0
100
AcDbRotatedDimension
  0
DIMENSION
  5
294C
330
1F
100
AcDbEntity
  8
Dimension
100
AcDbDimension
280
     0
  2
*D2
 10
404.2209723323277
 20
387.2849587988696
 30
0.0
 11
399.2209723323277
 21
394.5752547522404
 31
0.0
 70
   160
 71
     5
 42
10.0
 73
     0
 74
     0
 75
     0
  3
DIM-3
100
AcDbAlignedDimension
 13
394.2209723323277
 23
409.4653976044892
 33
0.0
 14
404.2209723323277
 24
409.4653976044892
 34
0.0
100
AcDbRotatedDimension
  0
DIMENSION
  5
294D
330
1F
100
AcDbEntity
  8
Dimension
100
AcDbDimension
280
     0
  2
*D7
 10
507.9924209543823
 20
441.2727535762585
 30
0.0
 11
493.9924330644879
 21
447.4227535762585
 31
0.0
 70
    32
  1
Φ<>
 71
     5
 42
27.99997577978866
 73
     0
 74
     0
 75
     0
  3
DIM-3
100
AcDbAlignedDimension
 13
479.9924451745936
 23
484.4653970502265
 33
0.0
 14
507.9924209543823
 24
484.491438658078
 34
0.0
100
AcDbRotatedDimension
  0
DIMENSION
  5
2950
330
1F
100
AcDbEntity
  8
Dimension
100
AcDbDimension
280
     0
  2
*D3
 10
557.4331072090737
 20
504.4653970502268
 30
0.0
 11
551.2831072090738
 21
484.4653970502265
 31
0.0
 70
    32
 71
     5
 42
40.0
 73
     0
 74
     0
 75
     0
  3
DIM-3
100
AcDbAlignedDimension
 13
508.9924451745937
 23
464.4653970502266
 33
0.0
 14
508.9924451745937
 24
504.4653970502265
 34
0.0
 50
90.0
100
AcDbRotatedDimension
  0
DIMENSION
  5
2951
330
1F
100
AcDbEntity
  8
Dimension
100
AcDbDimension
280
     0
  2
*D4
 10
497.9757799727049
 20
527.6840821320461
 30
0.0
 11
493.9757799727049
 21
538.7840821320461
 31
0.0
 70
    32
  1
Φ<>
 71
     5
 42
8.0
 73
     0
 74
     0
 75
     0
  3
DIM-3
100
AcDbAlignedDimension
 13
489.9757799727049
 23
484.4820622521181
 33
0.0
 14
497.9757799727049
 24
484.4820622521181
 34
0.0
100
AcDbRotatedDimension
  0
TEXT
  5
2952
330
1F
100
AcDbEntity
  8
Text
100
AcDbText
 10
457.6146331396075
 20
547.6804898030982
 30
0.0
 40
7.5
  1
Passing hole DIA.
 41
0.8
  7
Text
100
AcDbText
  0
DIMENSION
  5
2953
330
1F
100
AcDbEntity
  8
Dimension
100
AcDbDimension
280
     0
  2
*D5
 10
537.8433235767641
 20
227.389979137556
 30
0.0
 11
531.6933235767639
 21
202.3899791375558
 31
0.0
 70
    32
 71
     5
 42
50.00000000000003
 73
     0
 74
     0
 75
     0
  3
DIM-3
100
AcDbAlignedDimension
 13
508.8980977051514
 23
177.3899791375559
 33
0.0
 14
508.8980977051514
 24
227.3899791375559
 34
0.0
 50
90.0
100
AcDbRotatedDimension
  0
DIMENSION
  5
2954
330
1F
100
AcDbEntity
  8
Dimension
100
AcDbDimension
280
     0
  2
*D6
 10
556.7045800513404
 20
74.38997913755598
 30
0.0
 11
550.5545800513402
 21
202.3899791375558
 31
0.0
 70
    32
 71
     5
 42
256.0
 73
     0
 74
     0
 75
     0
  3
DIM-3
100
AcDbAlignedDimension
 13
500.9735557121553
 23
330.3899791375559
 33
0.0
 14
500.9735557121553
 24
74.38997913755594
 34
0.0
 50
90.0
100
AcDbRotatedDimension
  0
DIMENSION
  5
2961
330
1F
100
AcDbEntity
  8
Dimension
100
AcDbDimension
280
     0
  2
*D8
 10
403.4924451745937
 20
253.3902880434443
 30
0.0
 11
441.7424451745937
 21
260.7902880434443
 31
0.0
 70
    32
  1
adjustable
 71
     5
 42
76.5
 73
     0
 74
     0
 75
     0
  3
DIM-3
100
AcDbAlignedDimension
 13
479.9924451745937
 23
227.3899791375559
 33
0.0
 14
403.4924451745937
 24
217.3899791375559
 34
0.0
100
AcDbRotatedDimension
  0
DIMENSION
  5
2964
330
1F
100
AcDbEntity
  8
Dimension
100
AcDbDimension
280
     0
  2
*D9
 10
343.9924451745937
 20
359.1287578396896
 30
0.0
 11
425.9924451745937
 21
365.2787578396896
 31
0.0
 70
    32
 71
     5
 42
164.0
 73
     0
 74
     0
 75
     0
  3
DIM-3
100
AcDbAlignedDimension
 13
507.9924451745937
 23
328.5031916983716
 33
0.0
 14
343.9924451745937
 24
206.3899791375559
 34
0.0
100
AcDbRotatedDimension
  0
DIMENSION
  5
2967
330
1F
100
AcDbEntity
  8
Dimension
100
AcDbDimension
280
     0
  2
*D10
 10
513.9924451745937
 20
359.1287578396896
 30
0.0
 11
510.9924451745937
 21
370.2287578396896
 31
0.0
 70
    32
 71
     5
 42
6.0
 73
     0
 74
     0
 75
     0
  3
DIM-3
100
AcDbAlignedDimension
 13
507.9924451745937
 23
328.5031916983716
 33
0.0
 14
513.9924451745937
 24
222.2956316681138
 34
0.0
100
AcDbRotatedDimension
  0
DIMENSION
  5
297D
330
1F
100
AcDbEntity
  8
Dimension
100
AcDbDimension
280
     0
  2
*D11
 10
149.0310850272958
 20
229.9801568087796
 30
0.0
 11
142.4311794401928
 21
236.1301568087796
 31
0.0
 70
   160
 71
     5
 42
29.0
 73
     0
 74
     0
 75
     0
  3
DIM-3
100
AcDbAlignedDimension
 13
120.0310850272958
 23
202.3899791375559
 33
0.0
 14
149.0310850272958
 24
202.3899791375559
 34
0.0
100
AcDbRotatedDimension
  0
DIMENSION
  5
2984
330
1F
100
AcDbEntity
  8
Dimension
100
AcDbDimension
280
     0
  2
*D12
 10
225.0310850272958
 20
229.9801568087796
 30
0.0
 11
248.19334704016
 21
236.1301568087796
 31
0.0
 70
   160
 71
     5
 42
29.0
 73
     0
 74
     0
 75
     0
  3
DIM-3
100
AcDbAlignedDimension
 13
254.0310850272958
 23
202.3899791375559
 33
0.0
 14
225.0310850272958
 24
202.3899791375559
 34
0.0
 50
180.0
100
AcDbRotatedDimension
  0
DIMENSION
  5
2987
330
1F
100
AcDbEntity
  8
Dimension
100
AcDbDimension
280
     0
  2
*D13
 10
239.5310850272958
 20
258.7090046687142
 30
0.0
 11
209.8386349220263
 21
264.8590046687142
 31
0.0
 70
   160
 71
     5
 42
105.0
 73
     0
 74
     0
 75
     0
  3
DIM-3
100
AcDbAlignedDimension
 13
134.5310850272958
 23
205.3899791375559
 33
0.0
 14
239.5310850272958
 24
205.3899791375559
 34
0.0
100
AcDbRotatedDimension
  0
DIMENSION
  5
298A
330
1F
100
AcDbEntity
  8
Dimension
100
AcDbDimension
280
     0
  2
*D14
 10
286.3523999368435
 20
187.3899791375559
 30
0.0
 11
280.2023999368436
 21
202.3899791375558
 31
0.0
 70
    32
 71
     5
 42
30.00000000000003
 73
     0
 74
     0
 75
     0
  3
DIM-3
100
AcDbAlignedDimension
 13
262.0310850272958
 23
217.3899791375559
 33
0.0
 14
262.0310850272958
 24
187.3899791375558
 34
0.0
 50
90.0
100
AcDbRotatedDimension
  0
DIMENSION
  5
298D
330
1F
100
AcDbEntity
  8
Dimension
100
AcDbDimension
280
     0
  2
*D15
 10
251.9270289879619
 20
199.389979137556
 30
0.0
 11
245.3433468507319
 21
211.4763821418051
 31
0.0
 70
   160
 71
     5
 42
6.0
 73
     0
 74
     0
 75
     0
  3
DIM-3
100
AcDbAlignedDimension
 13
239.5310850272958
 23
205.3899791375559
 33
0.0
 14
239.5310850272958
 24
199.3899791375559
 34
0.0
 50
90.0
100
AcDbRotatedDimension
  0
LWPOLYLINE
  5
299C
330
1F
100
AcDbEntity
  8
Text
100
AcDbPolyline
 90
        3
 70
     0
 43
0.0
 10
240.9176802882066
 20
193.6278411341222
 10
239.5280579511082
 20
199.4025584613376
 10
242.7203030987684
 20
194.2764908746145
  0
LINE
  5
299D
330
1F
100
AcDbEntity
  8
Text
100
AcDbLine
 10
239.5213315948513
 20
199.4133595606236
 30
0.0
 11
254.3029229438207
 21
163.9796944061959
 31
0.0
  0
LINE
  5
299E
330
1F
100
AcDbEntity
  8
Text
100
AcDbLine
 10
254.3029229438207
 20
163.9796944061959
 30
0.0
 11
333.2546948794261
 21
163.9796944061959
 31
0.0
  0
TEXT
  5
299F
330
1F
100
AcDbEntity
  8
Text
100
AcDbText
 10
259.5378012486494
 20
166.430577191087
 30
0.0
 40
7.5
  1
Mounting hole
 41
0.8
  7
Text
100
AcDbText
  0
LWPOLYLINE
  5
29A0
330
1F
100
AcDbEntity
  8
Text
100
AcDbPolyline
 90
        3
 70
     0
 43
0.0
 10
133.144489766385
 20
193.6278411341222
 10
134.5341121034837
 20
199.4025584613376
 10
131.3418669558229
 20
194.2764908746145
  0
LINE
  5
29A1
330
1F
100
AcDbEntity
  8
Text
100
AcDbLine
 10
134.5408384597406
 20
199.4133595606236
 30
0.0
 11
119.7592471107707
 21
163.9796944061959
 31
0.0
  0
LINE
  5
29A2
330
1F
100
AcDbEntity
  8
Text
100
AcDbLine
 10
119.7592471107707
 20
163.9796944061959
 30
0.0
 11
40.80747517516556
 21
163.9796944061959
 31
0.0
  0
TEXT
  5
29A3
330
1F
100
AcDbEntity
  8
Text
100
AcDbText
 10
47.92436880594232
 20
166.430577191087
 30
0.0
 40
7.5
  1
Mounting hole
 41
0.8
  7
Text
100
AcDbText
  0
LINE
  5
313B
330
1F
100
AcDbEntity
  8
Continuous
100
AcDbLine
 10
225.0310850272958
 20
205.3899791375559
 30
0.0
 11
254.0310850272958
 21
205.3899791375559
 31
0.0
  0
LINE
  5
313C
330
1F
100
AcDbEntity
  8
Continuous
100
AcDbLine
 10
225.0310850272958
 20
199.3899791375559
 30
0.0
 11
254.0310850272958
 21
199.3899791375559
 31
0.0
  0
ARC
  5
313D
330
1F
100
AcDbEntity
  8
Continuous
100
AcDbCircle
 10
225.0310850272958
 20
202.3899791375559
 30
0.0
 40
3.0
100
AcDbArc
 50
90.0
 51
270.0
  0
ARC
  5
313E
330
1F
100
AcDbEntity
  8
Continuous
100
AcDbCircle
 10
254.0310850272958
 20
202.3899791375559
 30
0.0
 40
3.0
100
AcDbArc
 50
270.0
 51
90.0
  0
LINE
  5
313F
330
1F
100
AcDbEntity
  8
Continuous
100
AcDbLine
 10
120.0310850272958
 20
205.3899791375559
 30
0.0
 11
149.0310850272958
 21
205.3899791375559
 31
0.0
  0
LINE
  5
3140
330
1F
100
AcDbEntity
  8
Continuous
100
AcDbLine
 10
120.0310850272958
 20
199.3899791375559
 30
0.0
 11
149.0310850272958
 21
199.3899791375559
 31
0.0
  0
ARC
  5
3141
330
1F
100
AcDbEntity
  8
Continuous
100
AcDbCircle
 10
120.0310850272958
 20
202.3899791375559
 30
0.0
 40
3.0
100
AcDbArc
 50
90.0
 51
270.0
  0
ARC
  5
3142
330
1F
100
AcDbEntity
  8
Continuous
100
AcDbCircle
 10
149.0310850272958
 20
202.3899791375559
 30
0.0
 40
3.0
100
AcDbArc
 50
270.0
 51
90.0
  0
LINE
  5
3143
330
1F
100
AcDbEntity
  8
Continuous2
100
AcDbLine
 10
201.0310850272958
 20
205.3899791375561
 30
0.0
 11
201.0310850272958
 21
199.3899791375559
 31
0.0
  0
LINE
  5
3144
330
1F
100
AcDbEntity
  8
Continuous2
100
AcDbLine
 10
173.0310850272959
 20
205.3899791375558
 30
0.0
 11
173.0310850272959
 21
199.3899791375559
 31
0.0
  0
LINE
  5
3145
330
1F
100
AcDbEntity
  8
Continuous
100
AcDbLine
 10
194.4472835143915
 20
205.3899791375559
 30
0.0
 11
211.772056938308
 21
205.3899791375559
 31
0.0
  0
LINE
  5
3146
330
1F
100
AcDbEntity
  8
Continuous
100
AcDbLine
 10
162.2901131162837
 20
205.3899791375559
 30
0.0
 11
179.6148865402002
 21
205.3899791375559
 31
0.0
  0
LINE
  5
3147
330
1F
100
AcDbEntity
  8
Continuous
100
AcDbLine
 10
194.4472835143915
 20
199.3899791375559
 30
0.0
 11
211.772056938308
 21
199.3899791375559
 31
0.0
  0
LINE
  5
3148
330
1F
100
AcDbEntity
  8
Continuous
100
AcDbLine
 10
162.2901131162837
 20
199.3899791375559
 30
0.0
 11
179.6148865402002
 21
199.3899791375559
 31
0.0
  0
ARC
  5
3149
330
1F
100
AcDbEntity
  8
Continuous
100
AcDbCircle
 10
211.9532777699397
 20
202.3899791375559
 30
0.0
 40
3.0
100
AcDbArc
 50
270.0
 51
90.0
  0
ARC
  5
314A
330
1F
100
AcDbEntity
  8
Continuous
100
AcDbCircle
 10
162.108892284652
 20
202.3899791375559
 30
0.0
 40
3.0
100
AcDbArc
 50
90.0
 51
270.0
  0
CIRCLE
  5
314B
330
1F
100
AcDbEntity
  8
Continuous
100
AcDbCircle
 10
187.0310850272958
 20
202.3899791375559
 30
0.0
 40
5.0
  0
CIRCLE
  5
314C
330
1F
100
AcDbEntity
  8
Continuous
100
AcDbCircle
 10
187.0310850272958
 20
202.3899791375559
 30
0.0
 40
8.0
  0
ARC
  5
314E
330
1F
100
AcDbEntity
  8
Continuous
100
AcDbCircle
 10
194.0310850272958
 20
329.3899791375559
 30
0.0
 40
1.0
100
AcDbArc
 50
0.0
 51
90.0
  0
LINE
  5
314F
330
1F
100
AcDbEntity
  8
Continuous
100
AcDbLine
 10
194.0310850272958
 20
330.3899791375559
 30
0.0
 11
187.0310850272958
 21
330.3899791375559
 31
0.0
  0
LINE
  5
3150
330
1F
100
AcDbEntity
  8
Continuous
100
AcDbLine
 10
195.0310850272958
 20
328.3899791375559
 30
0.0
 11
195.0310850272958
 21
329.3899791375559
 31
0.0
  0
LINE
  5
3151
330
1F
100
AcDbEntity
  8
Continuous
100
AcDbLine
 10
201.0310850272958
 20
328.3899791375559
 30
0.0
 11
187.0310850272958
 21
328.3899791375559
 31
0.0
  0
ARC
  5
3152
330
1F
100
AcDbEntity
  8
Continuous
100
AcDbCircle
 10
180.0310850272958
 20
329.3899791375559
 30
0.0
 40
1.0
100
AcDbArc
 50
90.0
 51
180.0
  0
LINE
  5
3153
330
1F
100
AcDbEntity
  8
Continuous
100
AcDbLine
 10
180.0310850272958
 20
330.3899791375559
 30
0.0
 11
187.0310850272958
 21
330.3899791375559
 31
0.0
  0
LINE
  5
3154
330
1F
100
AcDbEntity
  8
Continuous
100
AcDbLine
 10
179.0310850272958
 20
328.3899791375559
 30
0.0
 11
179.0310850272958
 21
329.3899791375559
 31
0.0
  0
LINE
  5
3155
330
1F
100
AcDbEntity
  8
Continuous
100
AcDbLine
 10
173.0310850272958
 20
328.3899791375559
 30
0.0
 11
187.0310850272958
 21
328.3899791375559
 31
0.0
  0
ARC
  5
3156
330
1F
100
AcDbEntity
  8
Continuous
100
AcDbCircle
 10
194.0310850272958
 20
75.38997913755583
 30
0.0
 40
1.0
100
AcDbArc
 50
270.0
 51
0.0
  0
LINE
  5
3157
330
1F
100
AcDbEntity
  8
Continuous
100
AcDbLine
 10
194.0310850272958
 20
74.38997913755582
 30
0.0
 11
187.0310850272958
 21
74.38997913755582
 31
0.0
  0
LINE
  5
3158
330
1F
100
AcDbEntity
  8
Continuous
100
AcDbLine
 10
195.0310850272958
 20
76.38997913755583
 30
0.0
 11
195.0310850272958
 21
75.38997913755583
 31
0.0
  0
LINE
  5
3159
330
1F
100
AcDbEntity
  8
Continuous
100
AcDbLine
 10
201.0310850272958
 20
76.38997913755583
 30
0.0
 11
187.0310850272958
 21
76.38997913755583
 31
0.0
  0
ARC
  5
315A
330
1F
100
AcDbEntity
  8
Continuous
100
AcDbCircle
 10
180.0310850272958
 20
75.38997913755583
 30
0.0
 40
1.0
100
AcDbArc
 50
180.0
 51
270.0
  0
LINE
  5
315B
330
1F
100
AcDbEntity
  8
Continuous
100
AcDbLine
 10
180.0310850272958
 20
74.38997913755582
 30
0.0
 11
187.0310850272958
 21
74.38997913755582
 31
0.0
  0
LINE
  5
315C
330
1F
100
AcDbEntity
  8
Continuous
100
AcDbLine
 10
179.0310850272958
 20
76.38997913755583
 30
0.0
 11
179.0310850272958
 21
75.38997913755583
 31
0.0
  0
LINE
  5
315D
330
1F
100
AcDbEntity
  8
Continuous
100
AcDbLine
 10
173.0310850272958
 20
76.38997913755583
 30
0.0
 11
187.0310850272958
 21
76.38997913755583
 31
0.0
  0
LINE
  5
315E
330
1F
100
AcDbEntity
  8
Center
100
AcDbLine
 10
187.0310850272958
 20
62.88822654174137
 30
0.0
 11
187.0310850272958
 21
341.8917317333704
 31
0.0
  0
LINE
  5
315F
330
1F
100
AcDbEntity
  8
Continuous
100
AcDbLine
 10
173.0310850272958
 20
297.3899791375559
 30
0.0
 11
201.0310850272958
 21
297.3899791375559
 31
0.0
  0
LINE
  5
3160
330
1F
100
AcDbEntity
  8
Continuous2
100
AcDbLine
 10
201.0310850272958
 20
107.3899791375559
 30
0.0
 11
173.0310850272958
 21
107.3899791375559
 31
0.0
  0
LINE
  5
3161
330
1F
100
AcDbEntity
  8
Continuous
100
AcDbLine
 10
207.0310850272958
 20
222.3899791375559
 30
0.0
 11
207.0310850272958
 21
217.3899791375557
 31
0.0
  0
LINE
  5
3162
330
1F
100
AcDbEntity
  8
Continuous
100
AcDbLine
 10
202.0310850272958
 20
227.3899791375559
 30
0.0
 11
207.0310850272958
 21
222.3899791375559
 31
0.0
  0
LINE
  5
3163
330
1F
100
AcDbEntity
  8
Continuous
100
AcDbLine
 10
172.0310850272958
 20
227.3899791375559
 30
0.0
 11
202.0310850272958
 21
227.3899791375559
 31
0.0
  0
LINE
  5
3164
330
1F
100
AcDbEntity
  8
Continuous
100
AcDbLine
 10
167.0310850272958
 20
222.3899791375559
 30
0.0
 11
172.0310850272958
 21
227.3899791375559
 31
0.0
  0
LINE
  5
3165
330
1F
100
AcDbEntity
  8
Continuous
100
AcDbLine
 10
167.0310850272958
 20
217.3899791375557
 30
0.0
 11
167.0310850272958
 21
222.3899791375559
 31
0.0
  0
LINE
  5
3166
330
1F
100
AcDbEntity
  8
Continuous
100
AcDbLine
 10
167.0310850272958
 20
199.3899791375559
 30
0.0
 11
167.0310850272958
 21
205.3899791375559
 31
0.0
  0
LINE
  5
3167
330
1F
100
AcDbEntity
  8
Continuous
100
AcDbLine
 10
207.0310850272958
 20
199.3899791375559
 30
0.0
 11
207.0310850272958
 21
205.3899791375559
 31
0.0
  0
LINE
  5
3168
330
1F
100
AcDbEntity
  8
Continuous
100
AcDbLine
 10
207.0310850272958
 20
182.3899791375558
 30
0.0
 11
207.0310850272958
 21
187.3899791375558
 31
0.0
  0
LINE
  5
3169
330
1F
100
AcDbEntity
  8
Continuous
100
AcDbLine
 10
202.0310850272958
 20
177.3899791375559
 30
0.0
 11
207.0310850272958
 21
182.3899791375558
 31
0.0
  0
LINE
  5
316A
330
1F
100
AcDbEntity
  8
Continuous
100
AcDbLine
 10
172.0310850272958
 20
177.3899791375559
 30
0.0
 11
202.0310850272958
 21
177.3899791375559
 31
0.0
  0
LINE
  5
316B
330
1F
100
AcDbEntity
  8
Continuous
100
AcDbLine
 10
167.0310850272958
 20
182.3899791375558
 30
0.0
 11
172.0310850272958
 21
177.3899791375559
 31
0.0
  0
LINE
  5
316C
330
1F
100
AcDbEntity
  8
Continuous
100
AcDbLine
 10
167.0310850272958
 20
187.3899791375558
 30
0.0
 11
167.0310850272958
 21
182.3899791375558
 31
0.0
  0
LINE
  5
316D
330
1F
100
AcDbEntity
  8
Continuous2
100
AcDbLine
 10
172.0310850272958
 20
217.3899791375557
 30
0.0
 11
172.0310850272958
 21
222.3899791375559
 31
0.0
  0
LINE
  5
316E
330
1F
100
AcDbEntity
  8
Continuous2
100
AcDbLine
 10
172.0310850272958
 20
222.3899791375559
 30
0.0
 11
202.0310850272958
 21
222.3899791375559
 31
0.0
  0
LINE
  5
316F
330
1F
100
AcDbEntity
  8
Continuous2
100
AcDbLine
 10
202.0310850272958
 20
222.3899791375559
 30
0.0
 11
202.0310850272958
 21
217.3899791375557
 31
0.0
  0
LINE
  5
3170
330
1F
100
AcDbEntity
  8
Continuous2
100
AcDbLine
 10
172.0310850272958
 20
187.3899791375558
 30
0.0
 11
172.0310850272958
 21
182.3899791375558
 31
0.0
  0
LINE
  5
3171
330
1F
100
AcDbEntity
  8
Continuous2
100
AcDbLine
 10
172.0310850272958
 20
182.3899791375558
 30
0.0
 11
202.0310850272958
 21
182.3899791375558
 31
0.0
  0
LINE
  5
3172
330
1F
100
AcDbEntity
  8
Continuous2
100
AcDbLine
 10
202.0310850272958
 20
182.3899791375558
 30
0.0
 11
202.0310850272958
 21
187.3899791375558
 31
0.0
  0
LINE
  5
3173
330
1F
100
AcDbEntity
  8
Continuous
100
AcDbLine
 10
173.0310850272958
 20
227.3899791375559
 30
0.0
 11
173.0310850272958
 21
328.3899791375559
 31
0.0
  0
LINE
  5
3174
330
1F
100
AcDbEntity
  8
Continuous
100
AcDbLine
 10
201.0310850272958
 20
227.3899791375559
 30
0.0
 11
201.0310850272958
 21
328.3899791375559
 31
0.0
  0
LINE
  5
3175
330
1F
100
AcDbEntity
  8
Continuous
100
AcDbLine
 10
201.0310850272958
 20
177.3899791375559
 30
0.0
 11
201.0310850272958
 21
76.38997913755583
 31
0.0
  0
LINE
  5
3176
330
1F
100
AcDbEntity
  8
Continuous
100
AcDbLine
 10
173.0310850272958
 20
177.3899791375559
 30
0.0
 11
173.0310850272958
 21
76.38997913755583
 31
0.0
  0
LINE
  5
3177
330
1F
100
AcDbEntity
  8
Continuous2
100
AcDbLine
 10
172.0310850272958
 20
182.3899791375558
 30
0.0
 11
167.0310850272958
 21
184.4610475023261
 31
0.0
  0
LINE
  5
3178
330
1F
100
AcDbEntity
  8
Continuous2
100
AcDbLine
 10
172.0310850272958
 20
182.3899791375558
 30
0.0
 11
172.0310850272958
 21
177.3899791375559
 31
0.0
  0
LINE
  5
3179
330
1F
100
AcDbEntity
  8
Continuous2
100
AcDbLine
 10
172.0310850272958
 20
222.3899791375559
 30
0.0
 11
172.0310850272958
 21
227.3899791375559
 31
0.0
  0
LINE
  5
317A
330
1F
100
AcDbEntity
  8
Continuous2
100
AcDbLine
 10
172.0310850272958
 20
222.3899791375559
 30
0.0
 11
167.0310850272958
 21
220.3189112907149
 31
0.0
  0
LINE
  5
317B
330
1F
100
AcDbEntity
  8
Continuous2
100
AcDbLine
 10
202.0310850272958
 20
182.3899791375558
 30
0.0
 11
207.0310850272958
 21
184.4610475023261
 31
0.0
  0
LINE
  5
317C
330
1F
100
AcDbEntity
  8
Continuous2
100
AcDbLine
 10
202.0310850272958
 20
182.3899791375558
 30
0.0
 11
202.0310850272958
 21
177.3899791375559
 31
0.0
  0
LINE
  5
317D
330
1F
100
AcDbEntity
  8
Continuous2
100
AcDbLine
 10
202.0310850272958
 20
222.3899791375559
 30
0.0
 11
207.0310850272958
 21
220.3189112907149
 31
0.0
  0
LINE
  5
317E
330
1F
100
AcDbEntity
  8
Continuous2
100
AcDbLine
 10
202.0310850272958
 20
222.3899791375559
 30
0.0
 11
202.0310850272958
 21
227.3899791375559
 31
0.0
  0
LINE
  5
3186
330
1F
100
AcDbEntity
  8
Center
100
AcDbLine
 10
493.9924451745937
 20
462.1161887545469
 30
0.0
 11
493.9924451745937
 21
506.814605345906
 31
0.0
  0
LINE
  5
3187
330
1F
100
AcDbEntity
  8
Center
100
AcDbLine
 10
339.6143218876548
 20
484.4653970502265
 30
0.0
 11
514.1268087419062
 21
484.4653970502265
 31
0.0
  0
LINE
  5
3188
330
1F
100
AcDbEntity
  8
Continuous
100
AcDbLine
 10
404.2209723323276
 20
409.4653970502267
 30
0.0
 11
404.2209764892968
 21
484.4653970502265
 31
0.0
  0
LINE
  5
3189
330
1F
100
AcDbEntity
  8
Continuous
100
AcDbLine
 10
394.2209723323277
 20
409.4653976044892
 30
0.0
 11
404.2209723323276
 21
409.4653970502267
 31
0.0
  0
LINE
  5
318A
330
1F
100
AcDbEntity
  8
Continuous
100
AcDbLine
 10
394.220976489297
 20
484.4653976044892
 30
0.0
 11
394.2209723323277
 21
409.4653976044892
 31
0.0
  0
LINE
  5
318B
330
1F
100
AcDbEntity
  8
Continuous
100
AcDbLine
 10
404.2209764892969
 20
559.4653970502264
 30
0.0
 11
404.2209764892968
 21
484.4653970502265
 31
0.0
  0
LINE
  5
318C
330
1F
100
AcDbEntity
  8
Continuous
100
AcDbLine
 10
394.220976489297
 20
559.4653970502264
 30
0.0
 11
404.2209764892969
 21
559.4653970502264
 31
0.0
  0
LINE
  5
318D
330
1F
100
AcDbEntity
  8
Continuous
100
AcDbLine
 10
394.220976489297
 20
484.4653970502265
 30
0.0
 11
394.220976489297
 21
559.4653970502264
 31
0.0
  0
CIRCLE
  5
318E
330
1F
100
AcDbEntity
  8
Continuous
100
AcDbCircle
 10
493.9924451745937
 20
484.4653970502265
 30
0.0
 40
14.0
  0
CIRCLE
  5
318F
330
1F
100
AcDbEntity
  8
Continuous2
100
AcDbCircle
 10
493.9924451745937
 20
484.4653970502265
 30
0.0
 40
8.0
  0
CIRCLE
  5
3190
330
1F
100
AcDbEntity
  8
Continuous
100
AcDbCircle
 10
493.9924451745937
 20
484.4653970502265
 30
0.0
 40
4.0
  0
LINE
  5
3191
330
1F
100
AcDbEntity
  8
Continuous
100
AcDbLine
 10
404.2209764892968
 20
187.3899791375558
 30
0.0
 11
404.2209764892968
 21
202.3899791375558
 31
0.0
  0
LINE
  5
3192
330
1F
100
AcDbEntity
  8
Continuous
100
AcDbLine
 10
394.2209764892968
 20
187.3899791375558
 30
0.0
 11
404.2209764892968
 21
187.3899791375558
 31
0.0
  0
LINE
  5
3193
330
1F
100
AcDbEntity
  8
Continuous
100
AcDbLine
 10
394.2209764892968
 20
202.3899791375558
 30
0.0
 11
394.2209764892968
 21
187.3899791375558
 31
0.0
  0
LINE
  5
3194
330
1F
100
AcDbEntity
  8
Continuous
100
AcDbLine
 10
404.2209764892968
 20
217.3899791375558
 30
0.0
 11
404.2209764892968
 21
202.3899791375558
 31
0.0
  0
LINE
  5
3195
330
1F
100
AcDbEntity
  8
Continuous
100
AcDbLine
 10
394.2209764892968
 20
217.3899791375558
 30
0.0
 11
404.2209764892968
 21
217.3899791375558
 31
0.0
  0
LINE
  5
3196
330
1F
100
AcDbEntity
  8
Continuous
100
AcDbLine
 10
394.2209764892968
 20
202.3899791375558
 30
0.0
 11
394.2209764892968
 21
217.3899791375558
 31
0.0
  0
LINE
  5
3197
330
1F
100
AcDbEntity
  8
Continuous
100
AcDbLine
 10
479.9924451745936
 20
328.3899791375558
 30
0.0
 11
507.9924451745936
 21
328.3899791375558
 31
0.0
  0
LINE
  5
3198
330
1F
100
AcDbEntity
  8
Continuous2
100
AcDbLine
 10
479.9924451745936
 20
297.3899791375558
 30
0.0
 11
507.9924451745936
 21
297.3899791375559
 31
0.0
  0
ARC
  5
3199
330
1F
100
AcDbEntity
  8
Continuous
100
AcDbCircle
 10
500.9924451745937
 20
329.3899791375558
 30
0.0
 40
1.0
100
AcDbArc
 50
0.0
 51
90.0
  0
LINE
  5
319A
330
1F
100
AcDbEntity
  8
Continuous
100
AcDbLine
 10
500.9924451745937
 20
330.3899791375558
 30
0.0
 11
493.9924451745937
 21
330.3899791375558
 31
0.0
  0
LINE
  5
319B
330
1F
100
AcDbEntity
  8
Continuous
100
AcDbLine
 10
501.9924451745937
 20
328.3899791375558
 30
0.0
 11
501.9924451745937
 21
329.3899791375558
 31
0.0
  0
ARC
  5
319C
330
1F
100
AcDbEntity
  8
Continuous
100
AcDbCircle
 10
486.9924451745936
 20
329.3899791375558
 30
0.0
 40
1.0
100
AcDbArc
 50
90.0
 51
180.0
  0
LINE
  5
319D
330
1F
100
AcDbEntity
  8
Continuous
100
AcDbLine
 10
486.9924451745936
 20
330.3899791375558
 30
0.0
 11
493.9924451745937
 21
330.3899791375558
 31
0.0
  0
LINE
  5
319E
330
1F
100
AcDbEntity
  8
Continuous
100
AcDbLine
 10
485.9924451745937
 20
328.3899791375558
 30
0.0
 11
485.9924451745937
 21
329.3899791375558
 31
0.0
  0
LINE
  5
319F
330
1F
100
AcDbEntity
  8
Continuous
100
AcDbLine
 10
479.9924451745936
 20
76.38997913755588
 30
0.0
 11
507.9924451745936
 21
76.38997913755588
 31
0.0
  0
LINE
  5
31A0
330
1F
100
AcDbEntity
  8
Continuous2
100
AcDbLine
 10
479.9924451745936
 20
107.3899791375558
 30
0.0
 11
507.9924451745936
 21
107.3899791375557
 31
0.0
  0
ARC
  5
31A1
330
1F
100
AcDbEntity
  8
Continuous
100
AcDbCircle
 10
500.9924451745937
 20
75.38997913755588
 30
0.0
 40
1.0
100
AcDbArc
 50
270.0
 51
0.0
  0
LINE
  5
31A2
330
1F
100
AcDbEntity
  8
Continuous
100
AcDbLine
 10
500.9924451745937
 20
74.38997913755589
 30
0.0
 11
493.9924451745937
 21
74.38997913755589
 31
0.0
  0
LINE
  5
31A3
330
1F
100
AcDbEntity
  8
Continuous
100
AcDbLine
 10
501.9924451745937
 20
76.38997913755588
 30
0.0
 11
501.9924451745937
 21
75.38997913755588
 31
0.0
  0
ARC
  5
31A4
330
1F
100
AcDbEntity
  8
Continuous
100
AcDbCircle
 10
486.9924451745936
 20
75.38997913755588
 30
0.0
 40
1.0
100
AcDbArc
 50
180.0
 51
270.0
  0
LINE
  5
31A5
330
1F
100
AcDbEntity
  8
Continuous
100
AcDbLine
 10
486.9924451745936
 20
74.38997913755589
 30
0.0
 11
493.9924451745937
 21
74.38997913755589
 31
0.0
  0
LINE
  5
31A6
330
1F
100
AcDbEntity
  8
Continuous
100
AcDbLine
 10
485.9924451745937
 20
76.38997913755588
 30
0.0
 11
485.9924451745937
 21
75.38997913755588
 31
0.0
  0
LINE
  5
31A7
330
1F
100
AcDbEntity
  8
Center
100
AcDbLine
 10
493.9924451745937
 20
62.38997913755582
 30
0.0
 11
493.9924451745937
 21
342.3899791375557
 31
0.0
  0
LINE
  5
31A8
330
1F
100
AcDbEntity
  8
Continuous
100
AcDbLine
 10
448.9924451745937
 20
177.3899791375558
 30
0.0
 11
443.9924451745937
 21
182.3899791375558
 31
0.0
  0
LINE
  5
31A9
330
1F
100
AcDbEntity
  8
Continuous
100
AcDbLine
 10
508.9924451745936
 20
177.3899791375558
 30
0.0
 11
448.9924451745937
 21
177.3899791375558
 31
0.0
  0
LINE
  5
31AA
330
1F
100
AcDbEntity
  8
Continuous
100
AcDbLine
 10
513.9924451745937
 20
182.3899791375558
 30
0.0
 11
508.9924451745936
 21
177.3899791375558
 31
0.0
  0
LINE
  5
31AB
330
1F
100
AcDbEntity
  8
Continuous
100
AcDbLine
 10
513.9924451745937
 20
222.3899791375559
 30
0.0
 11
513.9924451745937
 21
182.3899791375558
 31
0.0
  0
LINE
  5
31AC
330
1F
100
AcDbEntity
  8
Continuous
100
AcDbLine
 10
508.9924451745937
 20
227.3899791375558
 30
0.0
 11
513.9924451745937
 21
222.3899791375559
 31
0.0
  0
LINE
  5
31AD
330
1F
100
AcDbEntity
  8
Continuous
100
AcDbLine
 10
448.9924451745937
 20
227.3899791375558
 30
0.0
 11
508.9924451745937
 21
227.3899791375558
 31
0.0
  0
LINE
  5
31AE
330
1F
100
AcDbEntity
  8
Continuous
100
AcDbLine
 10
443.9924451745937
 20
222.3899791375559
 30
0.0
 11
448.9924451745937
 21
227.3899791375558
 31
0.0
  0
LINE
  5
31AF
330
1F
100
AcDbEntity
  8
Continuous
100
AcDbLine
 10
443.9924451745937
 20
182.3899791375558
 30
0.0
 11
443.9924451745937
 21
222.3899791375559
 31
0.0
  0
LINE
  5
31B0
330
1F
100
AcDbEntity
  8
Continuous
100
AcDbLine
 10
479.9924451745936
 20
227.3899791375558
 30
0.0
 11
479.9924451745936
 21
328.3899791375558
 31
0.0
  0
LINE
  5
31B1
330
1F
100
AcDbEntity
  8
Continuous
100
AcDbLine
 10
507.9924451745936
 20
227.3899791375558
 30
0.0
 11
507.9924451745936
 21
328.3899791375558
 31
0.0
  0
LINE
  5
31B2
330
1F
100
AcDbEntity
  8
Continuous
100
AcDbLine
 10
507.9924451745936
 20
177.3899791375559
 30
0.0
 11
507.9924451745936
 21
76.38997913755588
 31
0.0
  0
LINE
  5
31B3
330
1F
100
AcDbEntity
  8
Continuous
100
AcDbLine
 10
479.9924451745936
 20
177.3899791375558
 30
0.0
 11
479.9924451745936
 21
76.38997913755588
 31
0.0
  0
LINE
  5
31B4
330
1F
100
AcDbEntity
  8
Continuous
100
AcDbLine
 10
404.220976489297
 20
194.3899791375558
 30
0.0
 11
443.9924451745937
 21
194.3899791375558
 31
0.0
  0
LINE
  5
31B5
330
1F
100
AcDbEntity
  8
Continuous
100
AcDbLine
 10
404.220976489297
 20
210.3899791375558
 30
0.0
 11
443.9924451745937
 21
210.3899791375558
 31
0.0
  0
LINE
  5
31B6
330
1F
100
AcDbEntity
  8
Continuous2
100
AcDbLine
 10
448.9924451745937
 20
184.4610473999558
 30
0.0
 11
448.9924451745937
 21
220.3189112907149
 31
0.0
  0
LINE
  5
31B7
330
1F
100
AcDbEntity
  8
Continuous2
100
AcDbLine
 10
448.9924451745937
 20
220.3189112907149
 30
0.0
 11
451.0635130642798
 21
222.3899791375559
 31
0.0
  0
LINE
  5
31B8
330
1F
100
AcDbEntity
  8
Continuous2
100
AcDbLine
 10
451.0635130642798
 20
222.3899791375559
 30
0.0
 11
506.9213772814485
 21
222.3899791375559
 31
0.0
  0
LINE
  5
31B9
330
1F
100
AcDbEntity
  8
Continuous2
100
AcDbLine
 10
506.9213772814485
 20
222.3899791375559
 30
0.0
 11
508.9924451745937
 21
220.3189113519929
 31
0.0
  0
LINE
  5
31BA
330
1F
100
AcDbEntity
  8
Continuous2
100
AcDbLine
 10
508.9924451745937
 20
220.3189113519929
 30
0.0
 11
508.9924451745937
 21
184.4610465886519
 31
0.0
  0
LINE
  5
31BB
330
1F
100
AcDbEntity
  8
Continuous2
100
AcDbLine
 10
508.9924451745937
 20
184.4610465886519
 30
0.0
 11
506.9213778186166
 21
182.3899791375558
 31
0.0
  0
LINE
  5
31BC
330
1F
100
AcDbEntity
  8
Continuous2
100
AcDbLine
 10
506.9213778186166
 20
182.3899791375558
 30
0.0
 11
451.0635136350689
 21
182.3899791375558
 31
0.0
  0
LINE
  5
31BD
330
1F
100
AcDbEntity
  8
Continuous2
100
AcDbLine
 10
451.0635136350689
 20
182.3899791375558
 30
0.0
 11
448.9924451745937
 21
184.4610473999558
 31
0.0
  0
LINE
  5
31BE
330
1F
100
AcDbEntity
  8
Continuous2
100
AcDbLine
 10
451.0635130642798
 20
222.3899791375559
 30
0.0
 11
448.9924451745937
 21
227.3899791375558
 31
0.0
  0
LINE
  5
31BF
330
1F
100
AcDbEntity
  8
Continuous2
100
AcDbLine
 10
448.9924451745937
 20
220.3189117189482
 30
0.0
 11
443.9924451745937
 21
222.3899791375559
 31
0.0
  0
LINE
  5
31C0
330
1F
100
AcDbEntity
  8
Continuous2
100
AcDbLine
 10
506.9213773200642
 20
222.3899791375559
 30
0.0
 11
508.9924451745937
 21
227.3899791375558
 31
0.0
  0
LINE
  5
31C1
330
1F
100
AcDbEntity
  8
Continuous2
100
AcDbLine
 10
508.9924451745937
 20
220.3189111175224
 30
0.0
 11
513.9924451745937
 21
222.3899791375559
 31
0.0
  0
LINE
  5
31C2
330
1F
100
AcDbEntity
  8
Continuous2
100
AcDbLine
 10
513.9924451745937
 20
182.3899791375558
 30
0.0
 11
508.9924451745937
 21
184.4610463260356
 31
0.0
  0
LINE
  5
31C3
330
1F
100
AcDbEntity
  8
Continuous2
100
AcDbLine
 10
506.9213778186166
 20
182.3899791375558
 30
0.0
 11
508.9924451745937
 21
177.3899791375559
 31
0.0
  0
LINE
  5
31C4
330
1F
100
AcDbEntity
  8
Continuous2
100
AcDbLine
 10
448.9924451745937
 20
184.4610476077353
 30
0.0
 11
443.9924451745937
 21
182.3899791375558
 31
0.0
  0
LINE
  5
31C5
330
1F
100
AcDbEntity
  8
Continuous2
100
AcDbLine
 10
451.0635136350689
 20
182.3899791375558
 30
0.0
 11
448.9924451745937
 21
177.3899791375558
 31
0.0
  0
LINE
  5
31C6
330
1F
100
AcDbEntity
  8
Continuous
100
AcDbLine
 10
448.9924451745937
 20
464.4653970502266
 30
0.0
 11
443.9924451745937
 21
469.4653970502265
 31
0.0
  0
LINE
  5
31C7
330
1F
100
AcDbEntity
  8
Continuous
100
AcDbLine
 10
508.9924451745937
 20
464.4653970502266
 30
0.0
 11
448.9924451745937
 21
464.4653970502266
 31
0.0
  0
LINE
  5
31C8
330
1F
100
AcDbEntity
  8
Continuous
100
AcDbLine
 10
513.9924451745937
 20
469.4653970502265
 30
0.0
 11
508.9924451745937
 21
464.4653970502266
 31
0.0
  0
LINE
  5
31C9
330
1F
100
AcDbEntity
  8
Continuous
100
AcDbLine
 10
513.9924451745937
 20
499.4653970502265
 30
0.0
 11
513.9924451745937
 21
469.4653970502265
 31
0.0
  0
LINE
  5
31CA
330
1F
100
AcDbEntity
  8
Continuous
100
AcDbLine
 10
508.9924451745937
 20
504.4653970502265
 30
0.0
 11
513.9924451745937
 21
499.4653970502265
 31
0.0
  0
LINE
  5
31CB
330
1F
100
AcDbEntity
  8
Continuous
100
AcDbLine
 10
448.9924451745937
 20
504.4653970502264
 30
0.0
 11
508.9924451745937
 21
504.4653970502265
 31
0.0
  0
LINE
  5
31CC
330
1F
100
AcDbEntity
  8
Continuous
100
AcDbLine
 10
443.9924451745937
 20
499.4653970502265
 30
0.0
 11
448.9924451745937
 21
504.4653970502264
 31
0.0
  0
LINE
  5
31CD
330
1F
100
AcDbEntity
  8
Continuous
100
AcDbLine
 10
443.9924451745937
 20
469.4653970502265
 30
0.0
 11
443.9924451745937
 21
499.4653970502265
 31
0.0
  0
LINE
  5
31CE
330
1F
100
AcDbEntity
  8
Continuous2
100
AcDbLine
 10
448.9924451745937
 20
499.4653970502265
 30
0.0
 11
448.9924451745937
 21
469.4653970502265
 31
0.0
  0
LINE
  5
31CF
330
1F
100
AcDbEntity
  8
Continuous2
100
AcDbLine
 10
448.9924451745937
 20
469.4653970502265
 30
0.0
 11
508.9924451745937
 21
469.4653970502265
 31
0.0
  0
LINE
  5
31D0
330
1F
100
AcDbEntity
  8
Continuous2
100
AcDbLine
 10
508.9924451745937
 20
469.4653970502265
 30
0.0
 11
508.9924451745937
 21
499.4653970502265
 31
0.0
  0
LINE
  5
31D1
330
1F
100
AcDbEntity
  8
Continuous2
100
AcDbLine
 10
508.9924451745937
 20
499.4653970502265
 30
0.0
 11
448.9924451745937
 21
499.4653970502265
 31
0.0
  0
LINE
  5
31D2
330
1F
100
AcDbEntity
  8
Continuous2
100
AcDbLine
 10
448.9924451745937
 20
499.4653970502265
 30
0.0
 11
443.9924451745937
 21
499.4653970502265
 31
0.0
  0
LINE
  5
31D3
330
1F
100
AcDbEntity
  8
Continuous2
100
AcDbLine
 10
443.9924451745937
 20
469.4653970502264
 30
0.0
 11
448.9924451745937
 21
469.4653970502265
 31
0.0
  0
LINE
  5
31D4
330
1F
100
AcDbEntity
  8
Continuous2
100
AcDbLine
 10
513.9924451745937
 20
469.4653970502265
 30
0.0
 11
508.9924451745937
 21
469.4653970502265
 31
0.0
  0
LINE
  5
31D5
330
1F
100
AcDbEntity
  8
Continuous2
100
AcDbLine
 10
508.9924451745937
 20
469.4653970502265
 30
0.0
 11
506.9213773353136
 21
464.4653970502266
 31
0.0
  0
LINE
  5
31D6
330
1F
100
AcDbEntity
  8
Continuous2
100
AcDbLine
 10
513.9924451745937
 20
499.4653970502265
 30
0.0
 11
508.9924451745937
 21
499.4653970502265
 31
0.0
  0
LINE
  5
31D7
330
1F
100
AcDbEntity
  8
Continuous2
100
AcDbLine
 10
508.9924451745937
 20
499.4653970502265
 30
0.0
 11
506.9213773353136
 21
504.4653970502264
 31
0.0
  0
LINE
  5
31D8
330
1F
100
AcDbEntity
  8
Continuous2
100
AcDbLine
 10
451.0635130214725
 20
504.4653970502265
 30
0.0
 11
448.9924451745937
 21
499.4653970502265
 31
0.0
  0
LINE
  5
31D9
330
1F
100
AcDbEntity
  8
Continuous2
100
AcDbLine
 10
448.9924451745937
 20
469.4653970502265
 30
0.0
 11
451.0635130214725
 21
464.4653970502266
 31
0.0
  0
LINE
  5
31DA
330
1F
100
AcDbEntity
  8
Continuous
100
AcDbLine
 10
404.220976489297
 20
492.4653970502265
 30
0.0
 11
443.9924451745937
 21
492.4653970502265
 31
0.0
  0
LINE
  5
31DB
330
1F
100
AcDbEntity
  8
Continuous
100
AcDbLine
 10
404.2209760458868
 20
476.4653970502264
 30
0.0
 11
443.9924451745937
 21
476.4653948458423
 31
0.0
  0
LINE
  5
31DC
330
1F
100
AcDbEntity
  8
Continuous
100
AcDbLine
 10
482.5033229027397
 20
476.4653927113283
 30
0.0
 11
482.5033194381074
 21
476.4653927113284
 31
0.0
  0
LINE
  5
31DE
330
1F
100
AcDbEntity
  8
Center
100
AcDbLine
 10
335.0721190839818
 20
202.3899791375559
 30
0.0
 11
520.5088078688813
 21
202.3899791375559
 31
0.0
  0
LINE
  5
31DF
330
1F
100
AcDbEntity
  8
Continuous2
100
AcDbLine
 10
361.5130701745936
 20
194.3899791375559
 30
0.0
 11
361.5130701745936
 21
202.3899791375559
 31
0.0
  0
LINE
  5
31E0
330
1F
100
AcDbEntity
  8
Continuous
100
AcDbLine
 10
394.2209764892968
 20
194.3899791375558
 30
0.0
 11
351.5130701745936
 21
194.3899791375559
 31
0.0
  0
LINE
  5
31E1
330
1F
100
AcDbEntity
  8
Continuous
100
AcDbLine
 10
351.5130701745936
 20
202.3899791375559
 30
0.0
 11
351.5130701745936
 21
194.3899791375559
 31
0.0
  0
LINE
  5
31E2
330
1F
100
AcDbEntity
  8
Continuous2
100
AcDbLine
 10
361.5130701745936
 20
210.3899791375559
 30
0.0
 11
361.5130701745936
 21
202.3899791375559
 31
0.0
  0
LINE
  5
31E3
330
1F
100
AcDbEntity
  8
Continuous
100
AcDbLine
 10
394.2209764892968
 20
210.3899791375558
 30
0.0
 11
351.5130701745936
 21
210.3899791375559
 31
0.0
  0
LINE
  5
31E4
330
1F
100
AcDbEntity
  8
Continuous
100
AcDbLine
 10
351.5130701745936
 20
202.3899791375559
 30
0.0
 11
351.5130701745936
 21
210.3899791375559
 31
0.0
  0
LINE
  5
31E8
330
1F
100
AcDbEntity
  8
Continuous2
100
AcDbLine
 10
361.4924447311836
 20
476.4653992245174
 30
0.0
 11
361.4924451745937
 21
484.4653992245175
 31
0.0
  0
LINE
  5
31E9
330
1F
100
AcDbEntity
  8
Continuous
100
AcDbLine
 10
394.2209760458868
 20
476.4653976044891
 30
0.0
 11
351.4924447311837
 21
476.4653997787801
 31
0.0
  0
LINE
  5
31EA
330
1F
100
AcDbEntity
  8
Continuous
100
AcDbLine
 10
351.4924451745937
 20
484.46539977878
 30
0.0
 11
351.4924447311837
 21
476.4653997787801
 31
0.0
  0
LINE
  5
31EB
330
1F
100
AcDbEntity
  8
Continuous2
100
AcDbLine
 10
361.4924451745937
 20
492.4653970502265
 30
0.0
 11
361.4924451745937
 21
484.4653970502265
 31
0.0
  0
LINE
  5
31EC
330
1F
100
AcDbEntity
  8
Continuous
100
AcDbLine
 10
394.220976489297
 20
492.4653970502265
 30
0.0
 11
351.4924451745937
 21
492.4653970502265
 31
0.0
  0
LINE
  5
31ED
330
1F
100
AcDbEntity
  8
Continuous
100
AcDbLine
 10
351.4924451745937
 20
484.4653970502265
 30
0.0
 11
351.4924451745937
 21
492.4653970502265
 31
0.0
  0
LINE
  5
31EE
330
1F
100
AcDbEntity
  8
Continuous
100
AcDbLine
 10
343.9924451745937
 20
488.4653970502265
 30
0.0
 11
344.9924451745937
 21
489.4653970502266
 31
0.0
  0
LINE
  5
31EF
330
1F
100
AcDbEntity
  8
Continuous
100
AcDbLine
 10
343.9924451745937
 20
480.4653970502265
 30
0.0
 11
344.9924451745937
 21
479.4653970502265
 31
0.0
  0
LINE
  5
31F0
330
1F
100
AcDbEntity
  8
Continuous2
100
AcDbLine
 10
343.9718201745937
 20
488.4653970502265
 30
0.0
 11
351.4924451745937
 21
488.4653970502265
 31
0.0
  0
LINE
  5
31F1
330
1F
100
AcDbEntity
  8
Continuous2
100
AcDbLine
 10
343.9924451745937
 20
480.4653970502265
 30
0.0
 11
351.4924449528885
 21
480.4653970502265
 31
0.0
  0
LINE
  5
31F2
330
1F
100
AcDbEntity
  8
Continuous
100
AcDbLine
 10
343.9718201745937
 20
484.4653970502265
 30
0.0
 11
343.9718201745937
 21
488.4653970502265
 31
0.0
  0
LINE
  5
31F3
330
1F
100
AcDbEntity
  8
Continuous
100
AcDbLine
 10
344.9924451745937
 20
489.4653970502266
 30
0.0
 11
351.4924451745937
 21
489.4653970502266
 31
0.0
  0
LINE
  5
31F4
330
1F
100
AcDbEntity
  8
Continuous
100
AcDbLine
 10
343.9718201745937
 20
484.4653970502265
 30
0.0
 11
343.9718201745937
 21
480.4653970502265
 31
0.0
  0
LINE
  5
31F5
330
1F
100
AcDbEntity
  8
Continuous
100
AcDbLine
 10
344.9924451745937
 20
479.4653970502265
 30
0.0
 11
351.4924451745937
 21
479.4653970502265
 31
0.0
  0
LINE
  5
31F6
330
1F
100
AcDbEntity
  8
Continuous
100
AcDbLine
 10
344.0130701745937
 20
206.3899791375559
 30
0.0
 11
345.0130701745937
 21
207.3899791375559
 31
0.0
  0
LINE
  5
31F7
330
1F
100
AcDbEntity
  8
Continuous
100
AcDbLine
 10
344.0130701745937
 20
198.3899791375559
 30
0.0
 11
345.0130701745937
 21
197.3899791375559
 31
0.0
  0
LINE
  5
31F8
330
1F
100
AcDbEntity
  8
Continuous2
100
AcDbLine
 10
343.9924451745937
 20
206.3899791375559
 30
0.0
 11
351.5130701745937
 21
206.3899791375559
 31
0.0
  0
LINE
  5
31F9
330
1F
100
AcDbEntity
  8
Continuous2
100
AcDbLine
 10
344.0130701745937
 20
198.3899791375559
 30
0.0
 11
351.5130699528886
 21
198.3899791375559
 31
0.0
  0
LINE
  5
31FA
330
1F
100
AcDbEntity
  8
Continuous
100
AcDbLine
 10
345.0130701745937
 20
207.3899791375559
 30
0.0
 11
351.5130701745937
 21
207.3899791375559
 31
0.0
  0
LINE
  5
31FB
330
1F
100
AcDbEntity
  8
Continuous
100
AcDbLine
 10
343.9924451745937
 20
202.3899791375559
 30
0.0
 11
343.9924451745937
 21
206.3899791375559
 31
0.0
  0
LINE
  5
31FC
330
1F
100
AcDbEntity
  8
Continuous
100
AcDbLine
 10
343.9924451745937
 20
202.3899791375559
 30
0.0
 11
343.9924451745937
 21
198.3899791375559
 31
0.0
  0
LINE
  5
31FD
330
1F
100
AcDbEntity
  8
Continuous
100
AcDbLine
 10
345.0130701745937
 20
197.3899791375559
 30
0.0
 11
351.5130701745937
 21
197.3899791375559
 31
0.0
  0
LINE
  5
35FE
330
1F
100
AcDbEntity
  8
Continuous
100
AcDbLine
 10
112.0310850272958
 20
187.3899791375558
 30
0.0
 11
262.0310850272958
 21
187.3899791375558
 31
0.0
  0
LINE
  5
35FF
330
1F
100
AcDbEntity
  8
Continuous
100
AcDbLine
 10
262.0310850272958
 20
187.3899791375558
 30
0.0
 11
262.0310850272958
 21
217.3899791375557
 31
0.0
  0
LINE
  5
3600
330
1F
100
AcDbEntity
  8
Continuous
100
AcDbLine
 10
262.0310850272958
 20
217.3899791375557
 30
0.0
 11
112.0310850272958
 21
217.3899791375557
 31
0.0
  0
LINE
  5
3601
330
1F
100
AcDbEntity
  8
Continuous
100
AcDbLine
 10
112.0310850272958
 20
217.3899791375557
 30
0.0
 11
112.0310850272958
 21
187.3899791375558
 31
0.0
  0
LINE
  5
36FD
330
1F
100
AcDbEntity
  8
Center
100
AcDbLine
 10
269.5310850272958
 20
202.3899791375559
 30
0.0
 11
104.5310850272958
 21
202.3899791375559
 31
0.0
  0
ENDSEC
  0
SECTION
  2
OBJECTS
  0
DICTIONARY
  5
C
330
0
100
AcDbDictionary
281
     1
  3
ACAD_CIP_PREVIOUS_PRODUCT_INFO
350
216
  3
ACAD_COLOR
350
6B
  3
ACAD_DETAILVIEWSTYLE
350
21B
  3
ACAD_GROUP
350
D
  3
ACAD_LAYOUT
350
1A
  3
ACAD_MATERIAL
350
6A
  3
ACAD_MLEADERSTYLE
350
12D
  3
ACAD_MLINESTYLE
350
17
  3
ACAD_PLOTSETTINGS
350
19
  3
ACAD_PLOTSTYLENAME
350
E
  3
ACAD_SCALELIST
350
10C
  3
ACAD_SECTIONVIEWSTYLE
350
219
  3
ACAD_TABLESTYLE
350
7E
  3
ACAD_VISUALSTYLE
350
EF
  3
ACDB_RECOMPOSE_DATA
350
3AA6
  3
AcDbVariableDictionary
350
5E
  3
AcDsDecomposeData
350
3AAC
  0
DICTIONARY
  5
1FF
330
2
100
AcDbDictionary
280
     1
281
     1
  3
ACAD_LAYERSTATES
360
200
  0
DICTIONARY
  5
13C
330
10
100
AcDbDictionary
280
     1
281
     1
  0
DICTIONARY
  5
27AD
330
27AC
100
AcDbDictionary
280
     1
281
     1
  0
DICTIONARY
  5
1CE
330
1F
100
AcDbDictionary
280
     1
281
     1
  3
ACAD_SORTENTS
360
432
  0
XRECORD
  5
216
102
{ACAD_REACTORS
330
C
102
}
330
C
100
AcDbXrecord
280
     1
300
ACD
300
2023
300

  0
DICTIONARY
  5
6B
102
{ACAD_REACTORS
330
C
102
}
330
C
100
AcDbDictionary
281
     1
  0
DICTIONARY
  5
21B
102
{ACAD_REACTORS
330
C
102
}
330
C
100
AcDbDictionary
281
     1
  3
Imperial24
350
1A1A
  3
Metric50
350
21C
  0
DICTIONARY
  5
D
102
{ACAD_REACTORS
330
C
102
}
330
C
100
AcDbDictionary
281
     1
  0
DICTIONARY
  5
1A
102
{ACAD_REACTORS
330
C
102
}
330
C
100
AcDbDictionary
281
     1
  3
Model
350
22
  3
レイアウト1
350
D3
  3
レイアウト2
350
D7
  0
DICTIONARY
  5
6A
102
{ACAD_REACTORS
330
C
102
}
330
C
100
AcDbDictionary
281
     1
  3
ByBlock
350
ED
  3
ByLayer
350
EC
  3
Global
350
EE
  0
DICTIONARY
  5
12D
102
{ACAD_REACTORS
330
C
102
}
330
C
100
AcDbDictionary
281
     1
  3
Standard
350
12E
  0
DICTIONARY
  5
17
102
{ACAD_REACTORS
330
C
102
}
330
C
100
AcDbDictionary
281
     1
  3
Standard
350
18
  0
DICTIONARY
  5
19
102
{ACAD_REACTORS
330
C
102
}
330
C
100
AcDbDictionary
281
     1
  0
ACDBDICTIONARYWDFLT
  5
E
102
{ACAD_REACTORS
330
C
102
}
330
C
100
AcDbDictionary
281
     1
  3
Normal
350
F
100
AcDbDictionaryWithDefault
340
F
  0
DICTIONARY
  5
10C
102
{ACAD_REACTORS
330
C
102
}
330
C
100
AcDbDictionary
281
     1
  3
A0
350
10D
  3
A1
350
20E0
  3
A2
350
1BE
  0
DICTIONARY
  5
219
102
{ACAD_REACTORS
330
C
102
}
330
C
100
AcDbDictionary
281
     1
  3
Imperial24
350
1A19
  3
Metric50
350
21A
  0
DICTIONARY
  5
7E
102
{ACAD_REACTORS
330
C
102
}
330
C
100
AcDbDictionary
281
     1
  3
Standard
350
7F
  0
DICTIONARY
  5
EF
102
{ACAD_REACTORS
330
C
102
}
330
C
100
AcDbDictionary
281
     1
  3
2dWireframe
350
F5
  3
Basic
350
F4
  3
Brighten
350
FB
  3
ColorChange
350
FF
  3
Conceptual
350
F8
  3
Dim
350
FA
  3
EdgeColorOff
350
1E6
  3
Facepattern
350
FE
  3
Flat
350
F0
  3
FlatWithEdges
350
F1
  3
Gouraud
350
F2
  3
GouraudWithEdges
350
F3
  3
Hidden
350
F7
  3
JitterOff
350
1E4
  3
Linepattern
350
FD
  3
OverhangOff
350
1E5
  3
Realistic
350
F9
  3
Shaded
350
1F3
  3
Shaded with edges
350
1F2
  3
Shades of Gray
350
1EF
  3
Sketchy
350
1F0
  3
Thicken
350
FC
  3
Wireframe
350
F6
  3
X-Ray
350
1F1
  0
XRECORD
  5
3AA6
102
{ACAD_REACTORS
330
C
102
}
330
C
100
AcDbXrecord
280
     1
 90
        1
330
7F
  0
DICTIONARY
  5
5E
102
{ACAD_REACTORS
330
C
102
}
330
C
100
AcDbDictionary
281
     1
  3
CANNOSCALE
350
146
  3
CENTEREXE
350
259
  3
CENTERLTYPEFILE
350
25A
  3
CMLEADERSTYLE
350
145
  3
CTABLESTYLE
350
84
  3
CVIEWDETAILSTYLE
350
227
  3
CVIEWSECTIONSTYLE
350
228
  3
DIMASSOC
350
5F
  3
HIDETEXT
350
63
  3
LAYEREVAL
350
1AE
  3
LAYERNOTIFY
350
1AF
  3
MSLTSCALE
350
1D00
  0
DICTIONARY
  5
3AAC
102
{ACAD_REACTORS
330
C
102
}
330
C
100
AcDbDictionary
281
     1
  3
AcDsRecords
350
3AAE
  3
AcDsSchemas
350
3AAD
1001
ACAD
1070
     2
  0
DICTIONARY
  5
200
102
{ACAD_REACTORS
330
1FF
102
}
330
1FF
100
AcDbDictionary
281
     1
  0
SORTENTSTABLE
  5
432
102
{ACAD_REACTORS
330
1CE
102
}
330
1CE
100
AcDbSortentsTable
330
1F
331
294B
  5
2959
331
294C
  5
295A
331
294D
  5
295C
331
2950
  5
295D
331
2951
  5
295E
331
2952
  5
295F
331
2953
  5
2960
331
2954
  5
2961
331
2961
  5
2974
331
2964
  5
2975
331
2967
  5
2976
331
297D
  5
2BE2
331
2984
  5
2C03
331
2987
  5
2C04
331
298A
  5
2C05
331
298D
  5
2C06
331
299C
  5
2C07
331
299D
  5
2C08
331
299E
  5
2C09
331
299F
  5
2C0A
331
29A0
  5
2C0B
331
29A1
  5
2C0C
331
29A2
  5
2C0D
331
29A3
  5
2C0E
331
314E
  5
3152
331
314F
  5
3153
331
3150
  5
3154
331
3151
  5
3155
331
3152
  5
3156
331
3153
  5
3157
331
3154
  5
3158
331
3155
  5
3159
331
3156
  5
315A
331
3157
  5
315B
331
3158
  5
315C
331
3159
  5
315D
331
315A
  5
315E
331
315B
  5
315F
331
315C
  5
3160
331
315D
  5
3161
331
315E
  5
3162
331
315F
  5
3163
331
3160
  5
3164
331
3161
  5
3165
331
3162
  5
3166
331
3163
  5
3167
331
3164
  5
3168
331
3165
  5
3169
331
3166
  5
316A
331
3167
  5
316B
331
3168
  5
316C
331
3169
  5
316D
331
316A
  5
316E
331
316B
  5
316F
331
316C
  5
3170
331
316D
  5
3171
331
316E
  5
3172
331
316F
  5
3173
331
3170
  5
3174
331
3171
  5
3175
331
3172
  5
3176
331
3173
  5
3177
331
3174
  5
3178
331
3175
  5
3179
331
3176
  5
317A
331
3177
  5
317B
331
3178
  5
317C
331
3179
  5
317D
331
317A
  5
317E
331
317B
  5
317F
331
317C
  5
3180
331
317D
  5
3181
331
317E
  5
3182
331
3186
  5
318A
331
3187
  5
318B
331
3188
  5
318C
331
3189
  5
318D
331
318A
  5
318E
331
318B
  5
318F
331
318C
  5
3190
331
318D
  5
3191
331
318E
  5
3192
331
318F
  5
3193
331
3190
  5
3194
331
3191
  5
3195
331
3192
  5
3196
331
3193
  5
3197
331
3194
  5
3198
331
3195
  5
3199
331
3196
  5
319A
331
3197
  5
319B
331
3198
  5
319C
331
3199
  5
319D
331
319A
  5
319E
331
319B
  5
319F
331
319C
  5
31A0
331
319D
  5
31A1
331
319E
  5
31A2
331
319F
  5
31A3
331
31A0
  5
31A4
331
31A1
  5
31A5
331
31A2
  5
31A6
331
31A3
  5
31A7
331
31A4
  5
31A8
331
31A5
  5
31A9
331
31A6
  5
31AA
331
31A7
  5
31AB
331
31A8
  5
31AC
331
31A9
  5
31AD
331
31AA
  5
31AE
331
31AB
  5
31AF
331
31AC
  5
31B0
331
31AD
  5
31B1
331
31AE
  5
31B2
331
31AF
  5
31B3
331
31B0
  5
31B4
331
31B1
  5
31B5
331
31B2
  5
31B6
331
31B3
  5
31B7
331
31B4
  5
31B8
331
31B5
  5
31B9
331
31B6
  5
31BA
331
31B7
  5
31BB
331
31B8
  5
31BC
331
31B9
  5
31BD
331
31BA
  5
31BE
331
31BB
  5
31BF
331
31BC
  5
31C0
331
31BD
  5
31C1
331
31BE
  5
31C2
331
31BF
  5
31C3
331
31C0
  5
31C4
331
31C1
  5
31C5
331
31C2
  5
31C6
331
31C3
  5
31C7
331
31C4
  5
31C8
331
31C5
  5
31C9
331
31C6
  5
31CA
331
31C7
  5
31CB
331
31C8
  5
31CC
331
31C9
  5
31CD
331
31CA
  5
31CE
331
31CB
  5
31CF
331
31CC
  5
31D0
331
31CD
  5
31D1
331
31CE
  5
31D2
331
31CF
  5
31D3
331
31D0
  5
31D4
331
31D1
  5
31D5
331
31D2
  5
31D6
331
31D3
  5
31D7
331
31D4
  5
31D8
331
31D5
  5
31D9
331
31D6
  5
31DA
331
31D7
  5
31DB
331
31D8
  5
31DC
331
31D9
  5
31DD
331
31DA
  5
31DE
331
31DB
  5
31DF
331
31DC
  5
31E0
331
31DE
  5
31E2
331
31DF
  5
31E3
331
31E0
  5
31E4
331
31E1
  5
31E5
331
31E2
  5
31E6
331
31E3
  5
31E7
331
31E4
  5
31E8
331
31E8
  5
31EC
331
31E9
  5
31ED
331
31EA
  5
31EE
331
31EB
  5
31EF
331
31EC
  5
31F0
331
31ED
  5
31F1
331
31EE
  5
31F2
331
31EF
  5
31F3
331
31F0
  5
31F4
331
31F1
  5
31F5
331
31F2
  5
31F6
331
31F3
  5
31F7
331
31F4
  5
31F8
331
31F5
  5
31F9
331
31F6
  5
31FA
331
31F7
  5
31FB
331
31F8
  5
31FC
331
31F9
  5
31FD
331
31FA
  5
35FE
331
31FB
  5
35FF
331
31FC
  5
3600
331
31FD
  5
3601
331
35FE
  5
314E
331
35FF
  5
314F
331
3600
  5
3150
331
3601
  5
3151
  0
ACDBDETAILVIEWSTYLE
  5
1A1A
102
{ACAD_XDICTIONARY
360
3AE5
102
}
102
{ACAD_REACTORS
330
21B
102
}
330
21B
100
AcDbModelDocViewStyle
 70
     0
  3
Imperial24
290
     0
100
AcDbDetailViewStyle
 70
     0
 71
     0
 90
        3
 71
     1
340
11
 62
   256
 40
0.24
340
0
 62
   256
 40
0.24
300

 40
0.36
280
     3
 71
     2
340
16
 90
       25
 62
   256
 71
     3
340
11
 62
   256
 40
0.24
 90
        1
 40
0.75
 90
        1
300
%<\AcVar ViewType \f "%tc1">% %<\AcVar ViewDetailId>%\PSCALE %<\AcVar ViewScale \f "%sn">%
 71
     4
340
16
 90
       25
 62
   256
340
16
 90
       25
 62
   256
280
     0
  0
ACDBDETAILVIEWSTYLE
  5
21C
102
{ACAD_XDICTIONARY
360
3AE1
102
}
102
{ACAD_REACTORS
330
21B
102
}
330
21B
100
AcDbModelDocViewStyle
 70
     0
  3
Metric50
290
     0
100
AcDbDetailViewStyle
 70
     0
 71
     0
 90
        3
 71
     1
340
11
 62
   256
 40
5.0
340
0
 62
   256
 40
5.0
300

 40
0.0
280
     1
 71
     2
340
16
 90
       25
 62
   256
 71
     3
340
11
 62
   256
 40
5.0
 90
        0
 40
15.0
 90
        1
300
%<\AcVar ViewDetailId>% (%<\AcVar ViewScale \f "%sn">%)
 71
     4
340
16
 90
       25
 62
   256
340
16
 90
       25
 62
   256
280
     0
  0
LAYOUT
  5
22
102
{ACAD_XDICTIONARY
360
205
102
}
102
{ACAD_REACTORS
330
1A
102
}
330
1A
100
AcDbPlotSettings
  1

  2
DWG To PDF.pc3
  4
ISO_A4_(297.00_x_210.00_MM)
  6

 40
5.0
 41
17.0
 42
5.0
 43
17.0
 44
297.0
 45
210.0
 46
-5.0
 47
-17.0
 48
0.0
 49
0.0
140
891.0
141
630.0
142
1.0
143
3.0
 70
  3748
 72
     1
 73
     0
 74
     4
  7
monochrome.ctb
 75
     0
147
1.0
 76
     1
 77
     2
 78
   300
148
0.0
149
0.0
100
AcDbLayout
  1
Model
 70
     1
 71
     0
 10
0.0
 20
0.0
 11
12.0
 21
9.0
 12
0.0
 22
0.0
 32
0.0
 14
0.0
 24
0.0
 34
0.0
 15
0.0
 25
0.0
 35
0.0
146
0.0
 13
0.0
 23
0.0
 33
0.0
 16
1.0
 26
0.0
 36
0.0
 17
0.0
 27
1.0
 37
0.0
 76
     0
330
1F
331
EA
1001
ACAD_PSEXT
1000
DWG To PDF.pc3
1000
DWG To PDF
1000
ファイル
1000

1070
     0
  0
LAYOUT
  5
D3
102
{ACAD_REACTORS
330
1A
102
}
330
1A
100
AcDbPlotSettings
  1

  2
C:\Documents and Settings\basas\Application Data\Autodesk\AutoCAD 2005\R16.1\enu\plotters\Default Windows System Printer.pc3
  4

  6

 40
0.0
 41
0.0
 42
0.0
 43
0.0
 44
0.0
 45
0.0
 46
0.0
 47
0.0
 48
0.0
 49
0.0
140
0.0
141
0.0
142
1.0
143
1.0
 70
   688
 72
     0
 73
     0
 74
     5
  7
monochrome.ctb
 75
    16
147
1.0
 76
     0
 77
     2
 78
   300
148
0.0
149
0.0
100
AcDbLayout
  1
レイアウト1
 70
     1
 71
     1
 10
0.0
 20
0.0
 11
12.0
 21
9.0
 12
0.0
 22
0.0
 32
0.0
 14
0.0
 24
0.0
 34
0.0
 15
0.0
 25
0.0
 35
0.0
146
0.0
 13
0.0
 23
0.0
 33
0.0
 16
1.0
 26
0.0
 36
0.0
 17
0.0
 27
1.0
 37
0.0
 76
     0
330
D2
  0
LAYOUT
  5
D7
102
{ACAD_REACTORS
330
1A
102
}
330
1A
100
AcDbPlotSettings
  1

  2
C:\Documents and Settings\basas\Application Data\Autodesk\AutoCAD 2005\R16.1\enu\plotters\Default Windows System Printer.pc3
  4

  6

 40
0.0
 41
0.0
 42
0.0
 43
0.0
 44
0.0
 45
0.0
 46
0.0
 47
0.0
 48
0.0
 49
0.0
140
0.0
141
0.0
142
1.0
143
1.0
 70
   688
 72
     0
 73
     0
 74
     5
  7
monochrome.ctb
 75
    16
147
1.0
 76
     0
 77
     2
 78
   300
148
0.0
149
0.0
100
AcDbLayout
  1
レイアウト2
 70
     1
 71
     2
 10
0.0
 20
0.0
 11
12.0
 21
9.0
 12
0.0
 22
0.0
 32
0.0
 14
0.0
 24
0.0
 34
0.0
 15
0.0
 25
0.0
 35
0.0
146
0.0
 13
0.0
 23
0.0
 33
0.0
 16
1.0
 26
0.0
 36
0.0
 17
0.0
 27
1.0
 37
0.0
 76
     0
330
D6
  0
MATERIAL
  5
ED
102
{ACAD_XDICTIONARY
360
1F9
102
}
102
{ACAD_REACTORS
330
6A
102
}
330
6A
100
AcDbMaterial
  1
ByBlock
 94
       63
  0
MATERIAL
  5
EC
102
{ACAD_XDICTIONARY
360
1F7
102
}
102
{ACAD_REACTORS
330
6A
102
}
330
6A
100
AcDbMaterial
  1
ByLayer
 94
       63
  0
MATERIAL
  5
EE
102
{ACAD_XDICTIONARY
360
173
102
}
102
{ACAD_REACTORS
330
6A
102
}
330
6A
100
AcDbMaterial
  1
Global
 43
0.0007999999797903
 43
0.0
 43
0.0
 43
0.0
 43
0.0
 43
0.0007999999797903
 43
0.0
 43
0.0
 43
0.0
 43
0.0
 43
1.0
 43
0.0
 43
0.0
 43
0.0
 43
0.0
 43
1.0
 49
0.0007999999797903
 49
0.0
 49
0.0
 49
0.0
 49
0.0
 49
0.0007999999797903
 49
0.0
 49
0.0
 49
0.0
 49
0.0
 49
1.0
 49
0.0
 49
0.0
 49
0.0
 49
0.0
 49
1.0
142
0.0007999999797903
142
0.0
142
0.0
142
0.0
142
0.0
142
0.0007999999797903
142
0.0
142
0.0
142
0.0
142
0.0
142
1.0
142
0.0
142
0.0
142
0.0
142
0.0
142
1.0
144
0.0007999999797903
144
0.0
144
0.0
144
0.0
144
0.0
144
0.0007999999797903
144
0.0
144
0.0
144
0.0
144
0.0
144
1.0
144
0.0
144
0.0
144
0.0
144
0.0
144
1.0
 94
       63
1001
ACAD
1070
    -1
1070
     3
1070
     0
1000

1071
        0
1070
     0
  0
MLEADERSTYLE
  5
12E
102
{ACAD_REACTORS
330
12D
102
}
330
12D
100
AcDbMLeaderStyle
179
     2
170
     2
171
     1
172
     0
 90
        2
 40
0.0
 41
0.0
173
     1
 91
-1056964608
340
14
 92
       -2
290
     1
 42
2.0
291
     1
 43
8.0
  3
Standard
 44
4.0
300

342
11
174
     1
178
     1
175
     1
176
     0
 93
-1056964608
 45
4.0
292
     0
297
     0
 46
4.0
 94
-1056964608
 47
1.0
 49
1.0
140
1.0
293
     1
141
0.0
294
     1
177
     0
142
1.0
295
     0
296
     0
143
3.75
271
     0
272
     9
273
     9
  0
MLINESTYLE
  5
18
102
{ACAD_REACTORS
330
17
102
}
330
17
100
AcDbMlineStyle
  2
STANDARD
 70
     0
  3

 62
   256
 51
90.0
 52
90.0
 71
     2
 49
0.5
 62
   256
  6
BYLAYER
 49
-0.5
 62
   256
  6
BYLAYER
  0
ACDBPLACEHOLDER
  5
F
102
{ACAD_REACTORS
330
E
102
}
330
E
  0
SCALE
  5
10D
102
{ACAD_REACTORS
330
10C
102
}
330
10C
100
AcDbScale
 70
     0
300
1:1
140
1.0
141
1.0
290
     1
  0
SCALE
  5
20E0
102
{ACAD_REACTORS
330
10C
102
}
330
10C
100
AcDbScale
 70
     0
300
1:3
140
1.0
141
3.0
290
     0
  0
SCALE
  5
1BE
102
{ACAD_REACTORS
330
10C
102
}
330
10C
100
AcDbScale
 70
     0
300
1:2
140
1.0
141
2.0
290
     0
  0
ACDBSECTIONVIEWSTYLE
  5
1A19
102
{ACAD_XDICTIONARY
360
3AE3
102
}
102
{ACAD_REACTORS
330
219
102
}
330
219
100
AcDbModelDocViewStyle
 70
     0
  3
Imperial24
290
     0
100
AcDbSectionViewStyle
 70
     0
 71
     0
 90
       78
 71
     1
340
11
 62
   256
 40
0.24
340
0
340
0
 62
   256
 40
0.24
300
I, O, Q, S, X, Z
 40
0.48
 90
        3
 40
0.18
 90
        1
 71
     2
340
16
 90
       25
 62
   256
340
16
 90
       50
 62
   256
 40
0.24
 40
0.0
 40
0.24
 71
     3
340
11
 62
   256
 40
0.24
 90
        1
 40
0.75
 90
        1
300
%<\AcVar ViewType \f "%tc1">% %<\AcVar ViewSectionStartId>%-%<\AcVar ViewSectionEndId>%\PSCALE %<\AcVar ViewScale \f "%sn">%
 71
     4
 62
   256
 62
   257
300
ANSI31
 40
1.0
 90
        0
290
     0
290
     0
 90
        6
 40
0.0
 40
1.570796326794896
 40
0.2617993877991494
 40
1.308996938995747
 40
-0.2617993877991494
 40
1.832595714594046
  0
ACDBSECTIONVIEWSTYLE
  5
21A
102
{ACAD_XDICTIONARY
360
3ADF
102
}
102
{ACAD_REACTORS
330
219
102
}
330
219
100
AcDbModelDocViewStyle
 70
     0
  3
Metric50
290
     0
100
AcDbSectionViewStyle
 70
     0
 71
     0
 90
      102
 71
     1
340
11
 62
   256
 40
5.0
340
0
340
0
 62
   256
 40
5.0
300
I, O, Q, S, X, Z
 40
10.0
 90
        0
 40
2.5
 90
        0
 71
     2
340
16
 90
       25
 62
   256
340
16
 90
       50
 62
   256
 40
5.0
 40
2.5
 40
5.0
 71
     3
340
11
 62
   256
 40
5.0
 90
        0
 40
15.0
 90
        1
300
%<\AcVar ViewSectionStartId>%-%<\AcVar ViewSectionEndId>% (%<\AcVar ViewScale \f "%sn">%)
 71
     4
 62
   256
 62
   257
300
ANSI31
 40
1.0
 90
        0
290
     0
290
     0
 90
        6
 40
0.0
 40
1.570796326794896
 40
0.2617993877991494
 40
1.308996938995747
 40
-0.2617993877991494
 40
1.832595714594046
  0
TABLESTYLE
  5
7F
102
{ACAD_XDICTIONARY
360
162
102
}
102
{ACAD_REACTORS
330
7E
102
}
330
7E
100
AcDbTableStyle
280
     0
  3
Standard
 70
     0
 71
     0
 40
1.5
 41
1.5
280
     0
281
     0
  7
Standard
140
4.5
170
     2
 62
     0
 63
     7
283
     0
 90
      512
 91
        0
  1

274
    -2
284
     1
 64
     0
275
    -2
285
     1
 65
     0
276
    -2
286
     1
 66
     0
277
    -2
287
     1
 67
     0
278
    -2
288
     1
 68
     0
279
    -2
289
     1
 69
     0
  7
Standard
140
6.0
170
     5
 62
     0
 63
     7
283
     0
 90
      512
 91
        0
  1

274
    -2
284
     1
 64
     0
275
    -2
285
     1
 65
     0
276
    -2
286
     1
 66
     0
277
    -2
287
     1
 67
     0
278
    -2
288
     1
 68
     0
279
    -2
289
     1
 69
     0
  7
Standard
140
4.5
170
     5
 62
     0
 63
     7
283
     0
 90
      512
 91
        0
  1

274
    -2
284
     1
 64
     0
275
    -2
285
     1
 65
     0
276
    -2
286
     1
 66
     0
277
    -2
287
     1
 67
     0
278
    -2
288
     1
 68
     0
279
    -2
289
     1
 69
     0
  0
VISUALSTYLE
  5
F5
102
{ACAD_XDICTIONARY
360
3AB9
102
}
102
{ACAD_REACTORS
330
EF
102
}
330
EF
100
AcDbVisualStyle
  2
2dWireframe
 70
     4
177
     2
291
     0
 71
     0
176
     1
 72
     2
176
     1
 73
     1
176
     1
 90
        0
176
     1
 40
0.6
176
     1
 41
30.0
176
     1
 63
     7
421
 16777215
176
     1
 74
     1
176
     1
 91
        4
176
     1
 64
     7
176
     1
 65
   257
176
     1
 75
     1
176
     1
175
     1
176
     1
 42
1.0
176
     1
 92
        0
176
     1
 66
   257
176
     1
 43
1.0
176
     1
 76
     1
176
     1
 77
     6
176
     1
 78
     2
176
     1
 67
     7
176
     1
 79
     5
176
     1
170
     0
176
     1
171
     0
176
     1
290
     0
176
     1
 93
        1
176
     1
 44
0.0
176
     1
173
     0
176
     1
1001
ACAD
1000
AcDbSavedByObjectVersion
1070
     0
  0
VISUALSTYLE
  5
F4
102
{ACAD_XDICTIONARY
360
3AB7
102
}
102
{ACAD_REACTORS
330
EF
102
}
330
EF
100
AcDbVisualStyle
  2
Basic
 70
     7
177
     2
291
     1
 71
     1
176
     1
 72
     0
176
     1
 73
     1
176
     1
 90
        0
176
     1
 40
0.6
176
     1
 41
30.0
176
     1
 63
     7
421
 16777215
176
     1
 74
     0
176
     1
 91
        4
176
     1
 64
     7
176
     1
 65
   257
176
     1
 75
     1
176
     1
175
     1
176
     1
 42
1.0
176
     1
 92
        8
176
     1
 66
     7
176
     1
 43
1.0
176
     1
 76
     1
176
     1
 77
     6
176
     1
 78
     2
176
     1
 67
     7
176
     1
 79
     5
176
     1
170
     0
176
     1
171
     0
176
     1
290
     0
176
     1
 93
        1
176
     1
 44
0.0
176
     1
173
     0
176
     1
1001
ACAD
1000
AcDbSavedByObjectVersion
1070
     0
  0
VISUALSTYLE
  5
FB
102
{ACAD_XDICTIONARY
360
3AC5
102
}
102
{ACAD_REACTORS
330
EF
102
}
330
EF
100
AcDbVisualStyle
  2
Brighten
 70
    12
177
     2
291
     1
 71
     2
176
     1
 72
     2
176
     1
 73
     1
176
     1
 90
        0
176
     1
 40
0.6
176
     1
 41
30.0
176
     1
 63
     7
421
 16777215
176
     1
 74
     1
176
     1
 91
        4
176
     1
 64
     7
176
     1
 65
   257
176
     1
 75
     1
176
     1
175
     1
176
     1
 42
1.0
176
     1
 92
        8
176
     1
 66
     7
176
     1
 43
1.0
176
     1
 76
     1
176
     1
 77
     6
176
     1
 78
     2
176
     1
 67
     7
176
     1
 79
     5
176
     1
170
     0
176
     1
171
     0
176
     1
290
     0
176
     1
 93
        1
176
     1
 44
50.0
176
     1
173
     0
176
     1
1001
ACAD
1000
AcDbSavedByObjectVersion
1070
     0
  0
VISUALSTYLE
  5
FF
102
{ACAD_XDICTIONARY
360
3ACD
102
}
102
{ACAD_REACTORS
330
EF
102
}
330
EF
100
AcDbVisualStyle
  2
ColorChange
 70
    16
177
     2
291
     1
 71
     2
176
     1
 72
     2
176
     1
 73
     3
176
     1
 90
        0
176
     1
 40
0.6
176
     1
 41
30.0
176
     1
 63
     8
421
  8421504
176
     1
 74
     1
176
     1
 91
        4
176
     1
 64
     7
176
     1
 65
   257
176
     1
 75
     1
176
     1
175
     1
176
     1
 42
1.0
176
     1
 92
        8
176
     1
 66
     8
424
  8421504
176
     1
 43
1.0
176
     1
 76
     1
176
     1
 77
     6
176
     1
 78
     2
176
     1
 67
     7
176
     1
 79
     5
176
     1
170
     0
176
     1
171
     0
176
     1
290
     0
176
     1
 93
        1
176
     1
 44
0.0
176
     1
173
     0
176
     1
1001
ACAD
1000
AcDbSavedByObjectVersion
1070
     0
  0
VISUALSTYLE
  5
F8
102
{ACAD_XDICTIONARY
360
3ABF
102
}
102
{ACAD_REACTORS
330
EF
102
}
330
EF
100
AcDbVisualStyle
  2
Conceptual
 70
     9
177
     2
291
     0
 71
     3
176
     1
 72
     2
176
     1
 73
     1
176
     1
 90
        0
176
     1
 40
0.6
176
     1
 41
30.0
176
     1
 63
     7
421
 16777215
176
     1
 74
     2
176
     1
 91
        2
176
     1
 64
     7
176
     1
 65
   257
176
     1
 75
     1
176
     1
175
     1
176
     1
 42
40.0
176
     1
 92
        8
176
     1
 66
     7
176
     1
 43
1.0
176
     1
 76
     1
176
     1
 77
     6
176
     1
 78
     2
176
     1
 67
     7
176
     1
 79
     3
176
     1
170
     0
176
     1
171
     0
176
     1
290
     0
176
     1
 93
        1
176
     1
 44
0.0
176
     1
173
     0
176
     1
1001
ACAD
1000
AcDbSavedByObjectVersion
1070
     0
  0
VISUALSTYLE
  5
FA
102
{ACAD_XDICTIONARY
360
3AC3
102
}
102
{ACAD_REACTORS
330
EF
102
}
330
EF
100
AcDbVisualStyle
  2
Dim
 70
    11
177
     2
291
     1
 71
     2
176
     1
 72
     2
176
     1
 73
     1
176
     1
 90
        0
176
     1
 40
0.6
176
     1
 41
30.0
176
     1
 63
     7
421
 16777215
176
     1
 74
     1
176
     1
 91
        4
176
     1
 64
     7
176
     1
 65
   257
176
     1
 75
     1
176
     1
175
     1
176
     1
 42
1.0
176
     1
 92
        8
176
     1
 66
     7
176
     1
 43
1.0
176
     1
 76
     1
176
     1
 77
     6
176
     1
 78
     2
176
     1
 67
     7
176
     1
 79
     5
176
     1
170
     0
176
     1
171
     0
176
     1
290
     0
176
     1
 93
        1
176
     1
 44
-50.0
176
     1
173
     0
176
     1
1001
ACAD
1000
AcDbSavedByObjectVersion
1070
     0
  0
VISUALSTYLE
  5
1E6
102
{ACAD_XDICTIONARY
360
3AD3
102
}
102
{ACAD_REACTORS
330
EF
102
}
330
EF
100
AcDbVisualStyle
  2
EdgeColorOff
 70
    22
177
     2
291
     1
 71
     2
176
     0
 72
     2
176
     0
 73
     0
176
     0
 90
        0
176
     0
 40
0.6
176
     0
 41
30.0
176
     0
 63
     7
421
 16777215
176
     0
 74
     1
176
     0
 91
        4
176
     0
 64
     7
176
     0
 65
   257
176
     0
 75
     1
176
     0
175
     1
176
     0
 42
1.0
176
     0
 92
        8
176
     2
 66
     7
176
     0
 43
1.0
176
     0
 76
     1
176
     0
 77
     6
176
     0
 78
     2
176
     0
 67
     7
176
     0
 79
     5
176
     0
170
     0
176
     0
171
     0
176
     0
290
     0
176
     0
 93
        1
176
     0
 44
0.0
176
     0
173
     0
176
     0
1001
ACAD
1000
AcDbSavedByObjectVersion
1070
     0
  0
VISUALSTYLE
  5
FE
102
{ACAD_XDICTIONARY
360
3ACB
102
}
102
{ACAD_REACTORS
330
EF
102
}
330
EF
100
AcDbVisualStyle
  2
Facepattern
 70
    15
177
     2
291
     1
 71
     2
176
     1
 72
     2
176
     1
 73
     1
176
     1
 90
        0
176
     1
 40
0.6
176
     1
 41
30.0
176
     1
 63
     7
421
 16777215
176
     1
 74
     1
176
     1
 91
        4
176
     1
 64
     7
176
     1
 65
   257
176
     1
 75
     1
176
     1
175
     1
176
     1
 42
1.0
176
     1
 92
        8
176
     1
 66
     7
176
     1
 43
1.0
176
     1
 76
     1
176
     1
 77
     6
176
     1
 78
     2
176
     1
 67
     7
176
     1
 79
     5
176
     1
170
     0
176
     1
171
     0
176
     1
290
     0
176
     1
 93
        1
176
     1
 44
0.0
176
     1
173
     0
176
     1
1001
ACAD
1000
AcDbSavedByObjectVersion
1070
     0
  0
VISUALSTYLE
  5
F0
102
{ACAD_XDICTIONARY
360
3AAF
102
}
102
{ACAD_REACTORS
330
EF
102
}
330
EF
100
AcDbVisualStyle
  2
Flat
 70
     0
177
     2
291
     1
 71
     2
176
     1
 72
     1
176
     1
 73
     1
176
     1
 90
        2
176
     1
 40
0.6
176
     1
 41
30.0
176
     1
 63
     7
421
 16777215
176
     1
 74
     0
176
     1
 91
        0
176
     1
 64
     7
176
     1
 65
   257
176
     1
 75
     1
176
     1
175
     1
176
     1
 42
1.0
176
     1
 92
        8
176
     1
 66
     7
176
     1
 43
1.0
176
     1
 76
     1
176
     1
 77
     6
176
     1
 78
     2
176
     1
 67
     7
176
     1
 79
     5
176
     1
170
     0
176
     1
171
     0
176
     1
290
     0
176
     1
 93
       13
176
     1
 44
0.0
176
     1
173
     0
176
     1
1001
ACAD
1000
AcDbSavedByObjectVersion
1070
     0
  0
VISUALSTYLE
  5
F1
102
{ACAD_XDICTIONARY
360
3AB1
102
}
102
{ACAD_REACTORS
330
EF
102
}
330
EF
100
AcDbVisualStyle
  2
FlatWithEdges
 70
     1
177
     2
291
     1
 71
     2
176
     1
 72
     1
176
     1
 73
     1
176
     1
 90
        2
176
     1
 40
0.6
176
     1
 41
30.0
176
     1
 63
     7
421
 16777215
176
     1
 74
     1
176
     1
 91
        0
176
     1
 64
     7
176
     1
 65
   257
176
     1
 75
     1
176
     1
175
     1
176
     1
 42
1.0
176
     1
 92
        0
176
     1
 66
   257
176
     1
 43
1.0
176
     1
 76
     1
176
     1
 77
     6
176
     1
 78
     2
176
     1
 67
     7
176
     1
 79
     5
176
     1
170
     0
176
     1
171
     0
176
     1
290
     0
176
     1
 93
       13
176
     1
 44
0.0
176
     1
173
     0
176
     1
1001
ACAD
1000
AcDbSavedByObjectVersion
1070
     0
  0
VISUALSTYLE
  5
F2
102
{ACAD_XDICTIONARY
360
3AB3
102
}
102
{ACAD_REACTORS
330
EF
102
}
330
EF
100
AcDbVisualStyle
  2
Gouraud
 70
     2
177
     2
291
     1
 71
     2
176
     1
 72
     2
176
     1
 73
     1
176
     1
 90
        2
176
     1
 40
0.6
176
     1
 41
30.0
176
     1
 63
     7
421
 16777215
176
     1
 74
     0
176
     1
 91
        0
176
     1
 64
     7
176
     1
 65
   257
176
     1
 75
     1
176
     1
175
     1
176
     1
 42
1.0
176
     1
 92
        0
176
     1
 66
     7
176
     1
 43
1.0
176
     1
 76
     1
176
     1
 77
     6
176
     1
 78
     2
176
     1
 67
     7
176
     1
 79
     5
176
     1
170
     0
176
     1
171
     0
176
     1
290
     0
176
     1
 93
       13
176
     1
 44
0.0
176
     1
173
     0
176
     1
1001
ACAD
1000
AcDbSavedByObjectVersion
1070
     0
  0
VISUALSTYLE
  5
F3
102
{ACAD_XDICTIONARY
360
3AB5
102
}
102
{ACAD_REACTORS
330
EF
102
}
330
EF
100
AcDbVisualStyle
  2
GouraudWithEdges
 70
     3
177
     2
291
     1
 71
     2
176
     1
 72
     2
176
     1
 73
     1
176
     1
 90
        2
176
     1
 40
0.6
176
     1
 41
30.0
176
     1
 63
     7
421
 16777215
176
     1
 74
     1
176
     1
 91
        0
176
     1
 64
     7
176
     1
 65
   257
176
     1
 75
     1
176
     1
175
     1
176
     1
 42
1.0
176
     1
 92
        0
176
     1
 66
   257
176
     1
 43
1.0
176
     1
 76
     1
176
     1
 77
     6
176
     1
 78
     2
176
     1
 67
     7
176
     1
 79
     5
176
     1
170
     0
176
     1
171
     0
176
     1
290
     0
176
     1
 93
       13
176
     1
 44
0.0
176
     1
173
     0
176
     1
1001
ACAD
1000
AcDbSavedByObjectVersion
1070
     0
  0
VISUALSTYLE
  5
F7
102
{ACAD_XDICTIONARY
360
3ABD
102
}
102
{ACAD_REACTORS
330
EF
102
}
330
EF
100
AcDbVisualStyle
  2
Hidden
 70
     6
177
     2
291
     0
 71
     1
176
     1
 72
     2
176
     1
 73
     2
176
     1
 90
        0
176
     1
 40
0.6
176
     1
 41
30.0
176
     1
 63
     7
421
 16777215
176
     1
 74
     2
176
     1
 91
        2
176
     1
 64
     7
176
     1
 65
   257
176
     1
 75
     2
176
     1
175
     1
176
     1
 42
40.0
176
     1
 92
        0
176
     1
 66
   257
176
     1
 43
1.0
176
     1
 76
     1
176
     1
 77
     6
176
     1
 78
     2
176
     1
 67
     7
176
     1
 79
     3
176
     1
170
     0
176
     1
171
     0
176
     1
290
     0
176
     1
 93
        1
176
     1
 44
0.0
176
     1
173
     0
176
     1
1001
ACAD
1000
AcDbSavedByObjectVersion
1070
     0
  0
VISUALSTYLE
  5
1E4
102
{ACAD_XDICTIONARY
360
3ACF
102
}
102
{ACAD_REACTORS
330
EF
102
}
330
EF
100
AcDbVisualStyle
  2
JitterOff
 70
    20
177
     2
291
     1
 71
     2
176
     0
 72
     2
176
     0
 73
     0
176
     0
 90
        0
176
     0
 40
0.6
176
     0
 41
30.0
176
     0
 63
     7
421
 16777215
176
     0
 74
     1
176
     0
 91
        4
176
     0
 64
     7
176
     0
 65
   257
176
     0
 75
     1
176
     0
175
     1
176
     0
 42
1.0
176
     0
 92
       10
176
     2
 66
     7
176
     0
 43
1.0
176
     0
 76
     1
176
     0
 77
     6
176
     0
 78
     2
176
     0
 67
     7
176
     0
 79
     5
176
     0
170
     0
176
     0
171
     0
176
     0
290
     0
176
     0
 93
        1
176
     0
 44
0.0
176
     0
173
     0
176
     0
1001
ACAD
1000
AcDbSavedByObjectVersion
1070
     0
  0
VISUALSTYLE
  5
FD
102
{ACAD_XDICTIONARY
360
3AC9
102
}
102
{ACAD_REACTORS
330
EF
102
}
330
EF
100
AcDbVisualStyle
  2
Linepattern
 70
    14
177
     2
291
     1
 71
     2
176
     1
 72
     2
176
     1
 73
     1
176
     1
 90
        0
176
     1
 40
0.6
176
     1
 41
30.0
176
     1
 63
     7
421
 16777215
176
     1
 74
     1
176
     1
 91
        4
176
     1
 64
     7
176
     1
 65
   257
176
     1
 75
     7
176
     1
175
     7
176
     1
 42
1.0
176
     1
 92
        8
176
     1
 66
     7
176
     1
 43
1.0
176
     1
 76
     1
176
     1
 77
     6
176
     1
 78
     2
176
     1
 67
     7
176
     1
 79
     5
176
     1
170
     0
176
     1
171
     0
176
     1
290
     0
176
     1
 93
        1
176
     1
 44
0.0
176
     1
173
     0
176
     1
1001
ACAD
1000
AcDbSavedByObjectVersion
1070
     0
  0
VISUALSTYLE
  5
1E5
102
{ACAD_XDICTIONARY
360
3AD1
102
}
102
{ACAD_REACTORS
330
EF
102
}
330
EF
100
AcDbVisualStyle
  2
OverhangOff
 70
    21
177
     2
291
     1
 71
     2
176
     0
 72
     2
176
     0
 73
     0
176
     0
 90
        0
176
     0
 40
0.6
176
     0
 41
30.0
176
     0
 63
     7
421
 16777215
176
     0
 74
     1
176
     0
 91
        4
176
     0
 64
     7
176
     0
 65
   257
176
     0
 75
     1
176
     0
175
     1
176
     0
 42
1.0
176
     0
 92
        9
176
     2
 66
     7
176
     0
 43
1.0
176
     0
 76
     1
176
     0
 77
     6
176
     0
 78
     2
176
     0
 67
     7
176
     0
 79
     5
176
     0
170
     0
176
     0
171
     0
176
     0
290
     0
176
     0
 93
        1
176
     0
 44
0.0
176
     0
173
     0
176
     0
1001
ACAD
1000
AcDbSavedByObjectVersion
1070
     0
  0
VISUALSTYLE
  5
F9
102
{ACAD_XDICTIONARY
360
3AC1
102
}
102
{ACAD_REACTORS
330
EF
102
}
330
EF
100
AcDbVisualStyle
  2
Realistic
 70
     8
177
     2
291
     0
 71
     2
176
     1
 72
     3
176
     1
 73
     0
176
     1
 90
        2
176
     1
 40
0.6
176
     1
 41
30.0
176
     1
 63
     7
421
 16777215
176
     1
 74
     0
176
     1
 91
        0
176
     1
 64
     7
176
     1
 65
   257
176
     1
 75
     1
176
     1
175
     1
176
     1
 42
1.0
176
     1
 92
        8
176
     1
 66
   257
176
     1
 43
1.0
176
     1
 76
     1
176
     1
 77
     6
176
     1
 78
     2
176
     1
 67
     7
176
     1
 79
     3
176
     1
170
     0
176
     1
171
     0
176
     1
290
     0
176
     1
 93
       13
176
     1
 44
0.0
176
     1
173
     0
176
     1
1001
ACAD
1000
AcDbSavedByObjectVersion
1070
     0
  0
VISUALSTYLE
  5
1F3
102
{ACAD_XDICTIONARY
360
3ADD
102
}
102
{ACAD_REACTORS
330
EF
102
}
330
EF
100
AcDbVisualStyle
  2
Shaded
 70
    27
177
     2
291
     0
 71
     2
176
     1
 72
     2
176
     1
 73
     1
176
     1
 90
        2
176
     1
 40
0.6
176
     1
 41
30.0
176
     1
 63
     7
421
 16777215
176
     1
 74
     0
176
     1
 91
        4
176
     1
 64
     7
176
     1
 65
   257
176
     1
 75
     1
176
     1
175
     1
176
     1
 42
1.0
176
     1
 92
        8
176
     1
 66
   257
176
     1
 43
1.0
176
     1
 76
     1
176
     1
 77
     6
176
     1
 78
     2
176
     1
 67
     8
425
  7895160
176
     1
 79
     3
176
     1
170
     0
176
     1
171
     0
176
     1
290
     0
176
     1
 93
        5
176
     1
 44
0.0
176
     1
173
     0
176
     1
1001
ACAD
1000
AcDbSavedByObjectVersion
1070
     0
  0
VISUALSTYLE
  5
1F2
102
{ACAD_XDICTIONARY
360
3ADB
102
}
102
{ACAD_REACTORS
330
EF
102
}
330
EF
100
AcDbVisualStyle
  2
Shaded with edges
 70
    26
177
     2
291
     0
 71
     2
176
     1
 72
     2
176
     1
 73
     1
176
     1
 90
        2
176
     1
 40
0.6
176
     1
 41
30.0
176
     1
 63
     7
421
 16777215
176
     1
 74
     1
176
     1
 91
        2
176
     1
 64
     7
176
     1
 65
   257
176
     1
 75
     2
176
     1
175
     1
176
     1
 42
1.0
176
     1
 92
        8
176
     1
 66
   257
176
     1
 43
1.0
176
     1
 76
     1
176
     1
 77
     6
176
     1
 78
     2
176
     1
 67
     7
176
     1
 79
     3
176
     1
170
     0
176
     1
171
     0
176
     1
290
     0
176
     1
 93
        5
176
     1
 44
0.0
176
     1
173
     0
176
     1
1001
ACAD
1000
AcDbSavedByObjectVersion
1070
     0
  0
VISUALSTYLE
  5
1EF
102
{ACAD_XDICTIONARY
360
3AD5
102
}
102
{ACAD_REACTORS
330
EF
102
}
330
EF
100
AcDbVisualStyle
  2
Shades of Gray
 70
    23
177
     2
291
     0
 71
     2
176
     1
 72
     2
176
     1
 73
     3
176
     1
 90
        0
176
     1
 40
0.6
176
     1
 41
30.0
176
     1
 63
     7
421
 16777215
176
     1
 74
     2
176
     1
 91
        2
176
     1
 64
     7
176
     1
 65
     7
176
     1
 75
     1
176
     1
175
     1
176
     1
 42
40.0
176
     1
 92
        8
176
     1
 66
     7
176
     1
 43
1.0
176
     1
 76
     1
176
     1
 77
     6
176
     1
 78
     2
176
     1
 67
     7
176
     1
 79
     3
176
     1
170
     0
176
     1
171
     0
176
     1
290
     0
176
     1
 93
        1
176
     1
 44
0.0
176
     1
173
     0
176
     1
1001
ACAD
1000
AcDbSavedByObjectVersion
1070
     0
  0
VISUALSTYLE
  5
1F0
102
{ACAD_XDICTIONARY
360
3AD7
102
}
102
{ACAD_REACTORS
330
EF
102
}
330
EF
100
AcDbVisualStyle
  2
Sketchy
 70
    24
177
     2
291
     0
 71
     1
176
     1
 72
     2
176
     1
 73
     2
176
     1
 90
        0
176
     1
 40
0.6
176
     1
 41
30.0
176
     1
 63
     7
421
 16777215
176
     1
 74
     2
176
     1
 91
        2
176
     1
 64
     7
176
     1
 65
     7
176
     1
 75
     1
176
     1
175
     1
176
     1
 42
40.0
176
     1
 92
       11
176
     1
 66
     7
176
     1
 43
1.0
176
     1
 76
     1
176
     1
 77
     6
176
     1
 78
     2
176
     1
 67
     7
176
     1
 79
     6
176
     1
170
     0
176
     1
171
     0
176
     1
290
     0
176
     1
 93
        1
176
     1
 44
0.0
176
     1
173
     0
176
     1
1001
ACAD
1000
AcDbSavedByObjectVersion
1070
     0
  0
VISUALSTYLE
  5
FC
102
{ACAD_XDICTIONARY
360
3AC7
102
}
102
{ACAD_REACTORS
330
EF
102
}
330
EF
100
AcDbVisualStyle
  2
Thicken
 70
    13
177
     2
291
     1
 71
     2
176
     1
 72
     2
176
     1
 73
     1
176
     1
 90
        0
176
     1
 40
0.6
176
     1
 41
30.0
176
     1
 63
     7
421
 16777215
176
     1
 74
     1
176
     1
 91
        4
176
     1
 64
     7
176
     1
 65
   257
176
     1
 75
     1
176
     1
175
     1
176
     1
 42
1.0
176
     1
 92
       12
176
     1
 66
     7
176
     1
 43
1.0
176
     1
 76
     1
176
     1
 77
     6
176
     1
 78
     2
176
     1
 67
     7
176
     1
 79
     5
176
     1
170
     0
176
     1
171
     0
176
     1
290
     0
176
     1
 93
        1
176
     1
 44
0.0
176
     1
173
     0
176
     1
1001
ACAD
1000
AcDbSavedByObjectVersion
1070
     0
  0
VISUALSTYLE
  5
F6
102
{ACAD_XDICTIONARY
360
3ABB
102
}
102
{ACAD_REACTORS
330
EF
102
}
330
EF
100
AcDbVisualStyle
  2
Wireframe
 70
     5
177
     2
291
     0
 71
     0
176
     1
 72
     2
176
     1
 73
     0
176
     1
 90
        0
176
     1
 40
0.6
176
     1
 41
30.0
176
     1
 63
     7
421
 16777215
176
     1
 74
     1
176
     1
 91
        4
176
     1
 64
     7
176
     1
 65
   257
176
     1
 75
     1
176
     1
175
     1
176
     1
 42
1.0
176
     1
 92
        0
176
     1
 66
   257
176
     1
 43
1.0
176
     1
 76
     1
176
     1
 77
     6
176
     1
 78
     2
176
     1
 67
     7
176
     1
 79
     3
176
     1
170
     0
176
     1
171
     0
176
     1
290
     0
176
     1
 93
        1
176
     1
 44
0.0
176
     1
173
     0
176
     1
1001
ACAD
1000
AcDbSavedByObjectVersion
1070
     0
  0
VISUALSTYLE
  5
1F1
102
{ACAD_XDICTIONARY
360
3AD9
102
}
102
{ACAD_REACTORS
330
EF
102
}
330
EF
100
AcDbVisualStyle
  2
X-Ray
 70
    25
177
     2
291
     0
 71
     2
176
     1
 72
     2
176
     1
 73
     1
176
     1
 90
        1
176
     1
 40
0.5
176
     1
 41
30.0
176
     1
 63
     7
421
 16777215
176
     1
 74
     1
176
     1
 91
        0
176
     1
 64
     7
176
     1
 65
   257
176
     1
 75
     1
176
     1
175
     1
176
     1
 42
1.0
176
     1
 92
        8
176
     1
 66
     7
176
     1
 43
1.0
176
     1
 76
     1
176
     1
 77
     6
176
     1
 78
     2
176
     1
 67
     7
176
     1
 79
     3
176
     1
170
     0
176
     1
171
     0
176
     1
290
     0
176
     1
 93
       13
176
     1
 44
0.0
176
     1
173
     0
176
     1
1001
ACAD
1000
AcDbSavedByObjectVersion
1070
     0
  0
DICTIONARYVAR
  5
146
102
{ACAD_REACTORS
330
5E
102
}
330
5E
100
DictionaryVariables
280
     0
  1
1:3
  0
DICTIONARYVAR
  5
259
102
{ACAD_REACTORS
330
5E
102
}
330
5E
100
DictionaryVariables
280
     0
  1
3.500000
  0
DICTIONARYVAR
  5
25A
102
{ACAD_REACTORS
330
5E
102
}
330
5E
100
DictionaryVariables
280
     0
  1
acadiso.lin
  0
DICTIONARYVAR
  5
145
102
{ACAD_REACTORS
330
5E
102
}
330
5E
100
DictionaryVariables
280
     0
  1
STANDARD
  0
DICTIONARYVAR
  5
84
102
{ACAD_REACTORS
330
5E
102
}
330
5E
100
DictionaryVariables
280
     0
  1
STANDARD
  0
DICTIONARYVAR
  5
227
102
{ACAD_REACTORS
330
5E
102
}
330
5E
100
DictionaryVariables
280
     0
  1
Metric50
  0
DICTIONARYVAR
  5
228
102
{ACAD_REACTORS
330
5E
102
}
330
5E
100
DictionaryVariables
280
     0
  1
Metric50
  0
DICTIONARYVAR
  5
5F
102
{ACAD_REACTORS
330
5E
102
}
330
5E
100
DictionaryVariables
280
     0
  1
2
  0
DICTIONARYVAR
  5
63
102
{ACAD_REACTORS
330
5E
102
}
330
5E
100
DictionaryVariables
280
     0
  1
1
  0
DICTIONARYVAR
  5
1AE
102
{ACAD_REACTORS
330
5E
102
}
330
5E
100
DictionaryVariables
280
     0
  1
0
  0
DICTIONARYVAR
  5
1AF
102
{ACAD_REACTORS
330
5E
102
}
330
5E
100
DictionaryVariables
280
     0
  1
0
  0
DICTIONARYVAR
  5
1D00
102
{ACAD_REACTORS
330
5E
102
}
330
5E
100
DictionaryVariables
280
     0
  1
0
  0
DICTIONARY
  5
3AAE
102
{ACAD_REACTORS
330
3AAC
102
}
330
3AAC
100
AcDbDictionary
281
     1
  0
DICTIONARY
  5
3AAD
102
{ACAD_REACTORS
330
3AAC
102
}
330
3AAC
100
AcDbDictionary
281
     1
  3
2217522247792
350
3AA7
  3
2217522247808
350
3AA8
  3
2217522247824
350
3AA9
  3
2217522247840
350
3AAA
  3
2217522247856
350
3AAB
  0
DICTIONARY
  5
3AE5
330
1A1A
100
AcDbDictionary
280
     1
281
     1
  3
ACAD_XREC_ROUNDTRIP
360
3AE6
  0
DICTIONARY
  5
3AE1
330
21C
100
AcDbDictionary
280
     1
281
     1
  3
ACAD_XREC_ROUNDTRIP
360
3AE2
  0
DICTIONARY
  5
205
330
22
100
AcDbDictionary
280
     1
281
     1
  0
DICTIONARY
  5
1F9
330
ED
100
AcDbDictionary
280
     1
281
     1
  3
FBXASSET
360
1FA
  0
DICTIONARY
  5
1F7
330
EC
100
AcDbDictionary
280
     1
281
     1
  3
FBXASSET
360
1F8
  0
DICTIONARY
  5
173
330
EE
100
AcDbDictionary
280
     1
281
     1
  3
BUMPTILE
360
175
  3
DIFFUSETILE
360
174
  3
FBXASSET
360
1FB
  3
OPACITYTILE
360
176
  3
REFLECTIONTILE
360
177
  0
DICTIONARY
  5
3AE3
330
1A19
100
AcDbDictionary
280
     1
281
     1
  3
ACAD_XREC_ROUNDTRIP
360
3AE4
  0
DICTIONARY
  5
3ADF
330
21A
100
AcDbDictionary
280
     1
281
     1
  3
ACAD_XREC_ROUNDTRIP
360
3AE0
  0
DICTIONARY
  5
162
330
7F
100
AcDbDictionary
280
     1
281
     1
  3
ACAD_ROUNDTRIP_2008_TABLESTYLE_CELLSTYLEMAP
360
3AA5
  0
DICTIONARY
  5
3AB9
330
F5
100
AcDbDictionary
280
     1
281
     1
  3
ACAD_XREC_ROUNDTRIP
360
3ABA
  0
DICTIONARY
  5
3AB7
330
F4
100
AcDbDictionary
280
     1
281
     1
  3
ACAD_XREC_ROUNDTRIP
360
3AB8
  0
DICTIONARY
  5
3AC5
330
FB
100
AcDbDictionary
280
     1
281
     1
  3
ACAD_XREC_ROUNDTRIP
360
3AC6
  0
DICTIONARY
  5
3ACD
330
FF
100
AcDbDictionary
280
     1
281
     1
  3
ACAD_XREC_ROUNDTRIP
360
3ACE
  0
DICTIONARY
  5
3ABF
330
F8
100
AcDbDictionary
280
     1
281
     1
  3
ACAD_XREC_ROUNDTRIP
360
3AC0
  0
DICTIONARY
  5
3AC3
330
FA
100
AcDbDictionary
280
     1
281
     1
  3
ACAD_XREC_ROUNDTRIP
360
3AC4
  0
DICTIONARY
  5
3AD3
330
1E6
100
AcDbDictionary
280
     1
281
     1
  3
ACAD_XREC_ROUNDTRIP
360
3AD4
  0
DICTIONARY
  5
3ACB
330
FE
100
AcDbDictionary
280
     1
281
     1
  3
ACAD_XREC_ROUNDTRIP
360
3ACC
  0
DICTIONARY
  5
3AAF
330
F0
100
AcDbDictionary
280
     1
281
     1
  3
ACAD_XREC_ROUNDTRIP
360
3AB0
  0
DICTIONARY
  5
3AB1
330
F1
100
AcDbDictionary
280
     1
281
     1
  3
ACAD_XREC_ROUNDTRIP
360
3AB2
  0
DICTIONARY
  5
3AB3
330
F2
100
AcDbDictionary
280
     1
281
     1
  3
ACAD_XREC_ROUNDTRIP
360
3AB4
  0
DICTIONARY
  5
3AB5
330
F3
100
AcDbDictionary
280
     1
281
     1
  3
ACAD_XREC_ROUNDTRIP
360
3AB6
  0
DICTIONARY
  5
3ABD
330
F7
100
AcDbDictionary
280
     1
281
     1
  3
ACAD_XREC_ROUNDTRIP
360
3ABE
  0
DICTIONARY
  5
3ACF
330
1E4
100
AcDbDictionary
280
     1
281
     1
  3
ACAD_XREC_ROUNDTRIP
360
3AD0
  0
DICTIONARY
  5
3AC9
330
FD
100
AcDbDictionary
280
     1
281
     1
  3
ACAD_XREC_ROUNDTRIP
360
3ACA
  0
DICTIONARY
  5
3AD1
330
1E5
100
AcDbDictionary
280
     1
281
     1
  3
ACAD_XREC_ROUNDTRIP
360
3AD2
  0
DICTIONARY
  5
3AC1
330
F9
100
AcDbDictionary
280
     1
281
     1
  3
ACAD_XREC_ROUNDTRIP
360
3AC2
  0
DICTIONARY
  5
3ADD
330
1F3
100
AcDbDictionary
280
     1
281
     1
  3
ACAD_XREC_ROUNDTRIP
360
3ADE
  0
DICTIONARY
  5
3ADB
330
1F2
100
AcDbDictionary
280
     1
281
     1
  3
ACAD_XREC_ROUNDTRIP
360
3ADC
  0
DICTIONARY
  5
3AD5
330
1EF
100
AcDbDictionary
280
     1
281
     1
  3
ACAD_XREC_ROUNDTRIP
360
3AD6
  0
DICTIONARY
  5
3AD7
330
1F0
100
AcDbDictionary
280
     1
281
     1
  3
ACAD_XREC_ROUNDTRIP
360
3AD8
  0
DICTIONARY
  5
3AC7
330
FC
100
AcDbDictionary
280
     1
281
     1
  3
ACAD_XREC_ROUNDTRIP
360
3AC8
  0
DICTIONARY
  5
3ABB
330
F6
100
AcDbDictionary
280
     1
281
     1
  3
ACAD_XREC_ROUNDTRIP
360
3ABC
  0
DICTIONARY
  5
3AD9
330
1F1
100
AcDbDictionary
280
     1
281
     1
  3
ACAD_XREC_ROUNDTRIP
360
3ADA
  0
XRECORD
  5
3AA7
102
{ACAD_REACTORS
330
3AAD
102
}
330
3AAD
100
AcDbXrecord
280
     1
  1
AcDb_Thumbnail_Schema
102
{ATTRRECORD
341
3AA8
  2
AcDbDs::TreatedAsObjectData
280
     1
291
     1
102
ATTRRECORD}
102
{ATTRRECORD
341
3AA9
  2
AcDbDs::Legacy
280
     1
291
     1
102
ATTRRECORD}
  2
AcDbDs::ID
280
    10
 91
        8
102
{ATTRRECORD
341
3AAA
  2
AcDs:Indexable
280
     1
291
     1
102
ATTRRECORD}
102
{ATTRRECORD
341
3AAB
  2
AcDbDs::HandleAttribute
280
     7
282
     1
102
ATTRRECORD}
  2
Thumbnail_Data
280
    15
 91
        0
  0
XRECORD
  5
3AA8
102
{ACAD_REACTORS
330
3AAD
102
}
330
3AAD
100
AcDbXrecord
280
     1
  1
AcDbDs::TreatedAsObjectDataSchema
  2
AcDbDs::TreatedAsObjectData
280
     1
 91
        0
  0
XRECORD
  5
3AA9
102
{ACAD_REACTORS
330
3AAD
102
}
330
3AAD
100
AcDbXrecord
280
     1
  1
AcDbDs::LegacySchema
  2
AcDbDs::Legacy
280
     1
 91
        0
  0
XRECORD
  5
3AAA
102
{ACAD_REACTORS
330
3AAD
102
}
330
3AAD
100
AcDbXrecord
280
     1
  1
AcDbDs::IndexedPropertySchema
  2
AcDs:Indexable
280
     1
 91
        0
  0
XRECORD
  5
3AAB
102
{ACAD_REACTORS
330
3AAD
102
}
330
3AAD
100
AcDbXrecord
280
     1
  1
AcDbDs::HandleAttributeSchema
  2
AcDbDs::HandleAttribute
280
     7
 91
        1
284
     1
  0
XRECORD
  5
3AE6
102
{ACAD_REACTORS
330
3AE5
102
}
330
3AE5
100
AcDbXrecord
280
     1
102
DISPLAYNAME
  1
Imperial24
102
FLAGS
 90
        0
  0
XRECORD
  5
3AE2
102
{ACAD_REACTORS
330
3AE1
102
}
330
3AE1
100
AcDbXrecord
280
     1
102
DISPLAYNAME
  1
Metric50
102
FLAGS
 90
        0
  0
XRECORD
  5
1FA
102
{ACAD_REACTORS
330
1F9
102
}
330
1F9
100
AcDbXrecord
280
     1
 70
     1
 90
429727718
  1
D62C5603-E3A1-4AEA-B7FB-FE5D8D0755AF
310
504B03040A0000080000CC70623B3DEE336E79000000790000001B0000006175746F6465736B2D64657369676E2D7061636B6167652E786D6C3C3F786D6C2076657273696F6E3D22312E302220656E636F64696E673D227574662D3822203F3E3C666F726D6174733E3C666F726D61743E687474703A2F2F736368656D612E
310
6175746F6465736B2E636F6D2F64657369676E2D7061636B6167652F323030393C2F666F726D61743E3C2F666F726D6174733E504B0304140006080800CC70623BD486FD9CA0000000F4000000130000005B436F6E74656E745F54797065735D2E786D6C7D8EC10E82300C865F65E91D8A1E8C310C0EEA1BF002731658846E
310
D98AC1B77784ABF1D8FE5FBFBF75BBCE937A534CCEB38643598122B6FEE978D0B0485F9C41B54DDD7D022595594E1A469170414C76A4D9A4D207E29CF43ECE46F218070CC6BECC4078ACAA135ACF422C856C0E68EA1BF5669944DDD7BCDE7B1F8E415D77AECB980613C2E4AC91FC167A2B244592486606FC29C8FD7F045B9A
310
EF7053A7E60B504B0304140006080800CC70623B853B8169EB0000007C01000008000000636F72652E786D6C8D90416EC3201045AF62CDB6C206821CC7C244919D9CA01740401C94182C03558F5F9C3852BBEB6A467FFE9B197D7EFC9E1EC5975982F5AE035262288C535E5B377690E21535501C055FBC8FBF6C503839990E
310
5619041F179FE64D52DE45E362569DD7661365082642A11EB9E920A89B99642953CC8E702F67A9EE7234257977194EC9EAE275C4EABCCF5EAD5940D4AC6F0E35A568B8F43562CD7046CD199FD07E60174276A7BE677B5EADB0E0D14EEFFB6A31321A0D82627C4084204C3F096B71DD52F6819B16635EADF63F509AF53FA164
310
5DDCD1EDDD17164090FCC8732078B56691CB33A85CD7DCC40F504B0304140006080800CC70623B55019EA25F0000007C00000007000000636E782E786D6C4DCB3B0E80201045D1AD90E915ED2CF8AC45050C11660C8261F98AB1B07AC9C97D42D718D865D3E909258CFD00CCE24AC6E326A164D74DC0B4128928FF32603847
310
2BA13128B1252AC747C6BAB984FC68F0B87FE8960A5C09FE86CFB69FBA01504B0304140006080800CC70623BDBABAAF470010000D40300000C0000006662782F636F72652E786D6CC553D16E823014FD95A6AF4B694182CC941A83FA05FB810A9511A125A5257EFE2E82712ECEB8A7F100CD39F7F69E734AF9FADC366850B6
310
AF8DCE7018308C942E4C59EB2AC3DE1D498AD15A706B8CFB56869196ADCAF00863C12B6B7C374385D14E6907A836A59A41D9F7CA615434B0C8705F7CAA5606D23BA8E84F41278B93AC54100640439DE0BDB320004D43C63716C7C399D30917DCFBBA9CD9BA8469F5B156168B24CED3F7248AC8769F27244EB73B92EED8862C
310
B7F13E0C179B3C8F979C8ECD82BBBABDAA2BAC924E9558448CBD9330242CFA08E3154B5651FCC6D215639C8EE5774DBE2B5F6CF2B5768B68963BB5F5588420E442FC700B1139D4CB01F450C1E918227C2E09DF070D8140C84E1E9AAB8F1340832A9CB13130A5F1376A908D57309505ECF2A0DF179C4E9D30F5B239B87E3823
310
7A79C6F31DE1A8A5AEC08474B03C7837EAE4938639B44E5932B833D2C6B6B279CDC613877FA26EE21F4A2A4C63EC7F29A2F301D1F9F7A0E37D145F504B0304140006080800CC70623B9C113CC27E0000009D0000000B0000006662782F636E782E786D6C4DCCDF0A83201C86E15B91DFB94BFB330DD428C8FB886521330DA7
310
6397BF1A1DECE883878F57749FCDA1B7892F1BBC047A23808C7F84D9FA55424E0BE6803A256208E9EF06C84F9B91703228B1C690F78B66B34CD9A5439DF5CF0BFBF65E35BCA1B8D6A5C6F540381E886698B5741C695F9503EBA150A2F8958E3DC3EA0B504B0304140006080800CC70623B7DF2F77C2A010000120200003100
310
00006662782F41393633353835312D344632462D344230382D423046372D3739314545314133324237412F636F72652E786D6C8D51DB8EC22014FC15C2939B0D2DB4B45643319AE817EC0F6041255A68B86CFCFC856D4D76DF7CE190393373060EDB3DC707F856CE6B6B7A480A0C81328395DA5C7B18C3057510EC3873D686
310
3F34088C18550F330C39BB3A1BA7051AAC09CA84841A2BD5020AEF55806078A44B0FFD7053A328440C89E1EFC52486BBB8AA8214A99D789CF9E05200300FC927E4FB4D5B375D43103D5527440FB843077C5AA3F5861C8F645F5787F59E95B390B318B55CE45AA638FAA2957BD7248B390B7A7CC51F9C124149C82B8C378810
310
84AB2F42B7B8DD56F413775B8C5999E9FF4471926F8AA236A1AE96B8B3CC434E5839373893369E1FAF30EA395917409EB7F26AF8801C171837A4A6AC9C89E9F9C9B1A58BA30FD6A5EF5DDDCF894B9AD9B6A59C957943A9FCAE2FD5BC4DFE03504B0304140006080800CC70623BAD7543B64E01000033030000300000006662
310
782F41393633353835312D344632462D344230382D423046372D3739314545314133324237412F636E782E786D6CD593CD6EC32010845F0571AD6CE3D48AD20813A9873E410FBD12D82434182C7EAAE6EDBB2424CD25871E7B41D6EC30B3FA84F9E67BB2E40B4234DE8DB46F1925E094D7C6ED479AD3AE5951B2113C789FEE
310
6C943839C1488B4C05DF079FE72A69D8C96C13AAD6B8631503449F83828872B949AC57D26200B826A308D316B4064D6E46FCDA41C05550DC9E483A00797BFD207EFB092A45DE9514C1BBD22178396BD39D891265658C238DEA00936C654E5E433CB65A26D9F6EDB5EBC14EBF49A45CB856E66048291F6939A9A81BB5C89177
310
38143CA680F4AA299D66A042CEB3354A2684DC9D8D178FE0D9B8B41CAAD720F880EE7EF93C0C18769E099ECC04D5A102C8049A8A05632F4DDF376CF1DE0F6BB65C2F8627B65A33C6BB62177CEBBDAD973006829F89F22E814B54F4BC2BE347F8AA8F681390B50FA73F804400B5F542E796F19FF974E7F78DB802FE05E20750
310
4B0304140006080800CC70623BE75B7789680500003C100000340000006662782F41393633353835312D344632462D344230382D423046372D3739314545314133324237412F6F626A656374732E786D6CAD575B8F9B3818FD2B887D06C22499CB8AA1CA655245D5B455A356FB305264C061D8018C6C3393D95FBFC7600890
310
A4CD5EF210B0B1BFEBF98E3F7B1FF6596ABC522E1296DF9BAE3D320D9A872C4AF2F8DE2CE5CEBA358D0FBEC719939D65A691938CDE9B6ADAF4BD98B3B2D05311DD91329583D9D5FC0F438434A7A611A644887B5384CF34233629258BA878B12322891DEFF6B66BD70BFB62634E8AE781D082709A4B588AF91C528CDA28B73F
310
1C998EEF39EABBEFA97FBD6A7C7E9553F9D3D79FE442923C3C523610337627CB87ABE99D359D4CC6D6E4FACAB5E6ABF9D2726FC6A3C5F56271377BB88362213924694B38DD99FE47C48627A1E7D49F5A8BB5E1A74C0A599ED3B0F21F1E56366B89112D681E218F0915D0D6F17AD41FBA2A369DCF6335D62ABBD39779D5DDD1
310
11D4D8DE3CBB96B2E04FB8202E41051754A1AA8E8F76B4C6DFE810B580B1547F4B84911149794252234D024EF8BBE963A95AE27B3D310A9D5C215C7960FAEE415ED75694C6AFB17BCACA5D99A60A9AA65F217B0BFC53292ACB92BF283FAD0D3621576592CB5BED907C2FA8E9DF794E35E97BEA31BED21FEB401ABB94C44839
310
DCACBF0E1C5DA8DA5B2F4DFFD32AD86F543D9E565E7056502E157C00AD2671CD534549AB752FCA9CDA00677A313F04E51B22FF19E57B300579E3C97EB29F682D92935CEC18CF901B7B54FD8C51F362B56FC72FE0B3C1EAE335EDCCBF5AEC39ADB17DC238973F804BA5E6F6BFE7AF1FB32E523BE9F3BD571418E3631DCA4D48
310
5250CF639223210A9446CA30052EDF057BD35F8329C1ECD84552BF0DC8D18BE7BCE23BFE6BD960AB4A7DE79923A103BEBD80F911CBAA2C60DB19B01CF164A5583B772EE6D3FFA56666CBCDA74DC97724A48F9A58967497E489C4D979006FD7A05E227A1EBDD0F737C623387A9C844D3709995625106D157315F8B8392CD4E0
310
A0B9A720C4BE9829CEF37EA1E13111214D53925356365ADA634861B52519DD27A00AEB808EAF0628E6F435519D446F45CF2C9CF5214F0A15B2F6D06B79DA3EE3CBF7F56780D2F4E7EF73A0F5E5B02A38D07DC852C6B7C1FBB6664213E0C39E3EBA7FF4E1AD23EA2829407C85E586727488B751B2DB9502BC7B228A3FD68B6E
310
A65A22397E690AA8D158D7E404EC8CDA235CC3B7D1898680131CEC2CDF2638C65196279577750F15884AEE19F94199155B92B13297978469D4F8D358DF0AEF7631E28DC8F0D9F437D5D39A83B2231A1D52D543813A824EF8D44BCFF2FA6A31BD1E8DAD87F1CCB526B3879935BF59CDADD5C37479BB1CDD4CA7B3556B516589
310
EF352754B706114D9C885EC9131DE6EFEB43D99AFE2391C2F958179413D7CFEF6B1B6DB1E7600F00DE6E5C67454A339A4BA2E0FBA85ED26F045D454F463DBFCE484C2F90F2E5E3666003662ED8F755951A7D1BECD5B30B550B2785C8E7320B7292A4838DDA71BBC863ED7613CAF659337A3354231D4FF4A182A54904C2898C
310
98B28C4AD0CE056CCF332A80986E571EE9DBC305BB5FEB7E509220A58D25CF042D712A806AC0AD0C657FDEF80D2D9CEAA2EE4D1C76F60BFE74219A06527D6F82DF6412526107381E55E353090704D085B52408A8913C4ED159D79BDA71BB4BC506F4831350EB6F975CD22D69BF7AC49B91A2C0A9DDA3D5CA36AD20FC478E37
310
E61844E2352865EBCB61A275A65283CAAA9DD27703B4102F5AF51EF5F573B75CBB5AD38BC845F7A49F82A0966A49C2E3EA5EA0ECD326CD965F1DB402C6FA8B51A4658C5C5E2EC9E214602E55810345408596591009A82E7E7FFACA19EEA299B14A0081A705CB3296EBC14CDF658DCD336EA6D1136881AAEB87B81AB9EE53D5
310
F5EB8BC8362082DA24122F98680A4E7930C01A0079749CEA14382A0783E5EBA5A10F8C098456A03D6A4AEB6BB881E2513747552A5DB22C7EDAF83BD5528081A365F7FF06504B0304140006080000CC70623B000000000000000000000000350000006662782F41393633353835312D344632462D344230382D423046372D37
310
39314545314133324237412F76657274696365732E62696E504B0304140006080800CC70623BF270F1330600000004000000360000006662782F41393633353835312D344632462D344230382D423046372D3739314545314133324237412F747269616E676C65732E62696E636660600000504B0304140006080000CC7062
310
3B000000000000000000000000370000006662782F41393633353835312D344632462D344230382D423046372D3739314545314133324237412F617474726962757465732E62696E504B0304140006080800CC70623B08DA0BD19000000041010000360000006662782F41393633353835312D344632462D344230382D4230
310
46372D3739314545314133324237412F6469726563746F72792E786D6C858F410AC3201045AF22B36F53E9A60B35CBEEBAE80D244E44489C6234F4F835464A48035D0DF398FF9F8AF63D0E6CC63039F212F8F9020C7D47C6792B21C5FE7403D62A1188E2E60C98D7234A5830286103A55745067B9D86B8A3CF9C7F90C11DE6
310
07FB144396D7B6A82D282E9A152AD114D5EF2CB866EEE831B8EEA07A7BB5A8D7D61A2BAAEB7FD5F70921FF497D00504B0304140006080800CC70623BEDD1DC58FD000000A00100003B0000006662782F41393633353835312D344632462D344230382D423046372D3739314545314133324237412F7265736F75726365732F
310
636F72652E786D6C8D504B6E833010BD0A9A6D65B00922041947112427E8052C33A156828DFCA97AFC9A40A576D7CDCCE87D344F8F9FBFE667F689CE6B6B3A6039850C8DB2A336530731DC4903D95970676DF82583CCC8193B5861107C72362E3BA4AC096842428D1D7107A5F7182053CF7474E0D507CE32973124857FE48B
310
540F3961CEF244279DE03EB81420DB9EAC1384436FA353E879B1B182C7A8C75DA3C7F453DF353A1075D537A7BA6464B8F535A99AE14A9A2BBD90E350DD183B5CFABE3AF262350B1EF4FC9351399401471025A527C218A1E53BAB5A5AB765F5469B96525EACF23FA6B88CFF34456DC2A1DCE36E360F82A5202F42F062ED2BAD
310
579969AFDD8A6F504B010214000A0000080000CC70623B3DEE336E79000000790000001B00000000000000000000000000000000006175746F6465736B2D64657369676E2D7061636B6167652E786D6C504B01021400140006080800CC70623BD486FD9CA0000000F40000001300000000000000000000000000B20000005B
310
436F6E74656E745F54797065735D2E786D6C504B01021400140006080800CC70623B853B8169EB0000007C010000080000000000000000000000000083010000636F72652E786D6C504B01021400140006080800CC70623B55019EA25F0000007C000000070000000000000000000000000094020000636E782E786D6C504B
310
01021400140006080800CC70623BDBABAAF470010000D40300000C00000000000000000000000000180300006662782F636F72652E786D6C504B01021400140006080800CC70623B9C113CC27E0000009D0000000B00000000000000000000000000B20400006662782F636E782E786D6C504B01021400140006080800CC70
310
623B7DF2F77C2A010000120200003100000000000000000000000000590500006662782F41393633353835312D344632462D344230382D423046372D3739314545314133324237412F636F72652E786D6C504B01021400140006080800CC70623BAD7543B64E010000330300003000000000000000000000000000D2060000
310
6662782F41393633353835312D344632462D344230382D423046372D3739314545314133324237412F636E782E786D6C504B01021400140006080800CC70623BE75B7789680500003C10000034000000000000000000000000006E0800006662782F41393633353835312D344632462D344230382D423046372D3739314545
310
314133324237412F6F626A656374732E786D6C504B01021400140006080000CC70623B0000000000000000000000003500000000000000000000000000280E00006662782F41393633353835312D344632462D344230382D423046372D3739314545314133324237412F76657274696365732E62696E504B01021400140006
310
080800CC70623BF270F133060000000400000036000000000000000000000000007B0E00006662782F41393633353835312D344632462D344230382D423046372D3739314545314133324237412F747269616E676C65732E62696E504B01021400140006080000CC70623B0000000000000000000000003700000000000000
310
000000000000D50E00006662782F41393633353835312D344632462D344230382D423046372D3739314545314133324237412F617474726962757465732E62696E504B01021400140006080800CC70623B08DA0BD1900000004101000036000000000000000000000000002A0F00006662782F41393633353835312D344632
310
462D344230382D423046372D3739314545314133324237412F6469726563746F72792E786D6C504B01021400140006080800CC70623BEDD1DC58FD000000A00100003B000000000000000000000000000E1000006662782F41393633353835312D344632462D344230382D423046372D3739314545314133324237412F7265
310
736F75726365732F636F72652E786D6C504B0506000000000E000E0080040000641100000000
  0
XRECORD
  5
1F8
102
{ACAD_REACTORS
330
1F7
102
}
330
1F7
100
AcDbXrecord
280
     1
 70
     1
 90
429727718
  1
30362254-06B7-45E0-A893-8CFA70E3D6BC
310
504B03040A0000080000CC70623B3DEE336E79000000790000001B0000006175746F6465736B2D64657369676E2D7061636B6167652E786D6C3C3F786D6C2076657273696F6E3D22312E302220656E636F64696E673D227574662D3822203F3E3C666F726D6174733E3C666F726D61743E687474703A2F2F736368656D612E
310
6175746F6465736B2E636F6D2F64657369676E2D7061636B6167652F323030393C2F666F726D61743E3C2F666F726D6174733E504B0304140006080800CC70623BD486FD9CA0000000F4000000130000005B436F6E74656E745F54797065735D2E786D6C7D8EC10E82300C865F65E91D8A1E8C310C0EEA1BF002731658846E
310
D98AC1B77784ABF1D8FE5FBFBF75BBCE937A534CCEB38643598122B6FEE978D0B0485F9C41B54DDD7D022595594E1A469170414C76A4D9A4D207E29CF43ECE46F218070CC6BECC4078ACAA135ACF422C856C0E68EA1BF5669944DDD7BCDE7B1F8E415D77AECB980613C2E4AC91FC167A2B244592486606FC29C8FD7F045B9A
310
EF7053A7E60B504B0304140006080800CC70623B1EC5D7A3EB0000007C01000008000000636F72652E786D6C8D90416EC3201045AF82665B6103C6756C6122AB4D4ED00B204C5C94182C03558F5F9C3852BBEB6A467FFE9B197D71FC9E6FE8CBACC17AD7032D0820E3B41FAD9B7A48F1820F808E52ACDEC75F36404ECDA687
310
4D0629A6D5A76597B477D1B89855E747B38B2A041301E95B6E7A08FAD3CCAA50296647B8168BD2573599823EBB0CA76447F43862C7BCCF5EAC59410E4DDD9C7973C2755553CCCFA4C603E3040F1565ED3B1FDE4E432BCA0D9622DAF9795FAF464533826484B498524CD807E51D79ED187F21878E10516EF63F505AC67F42C9
310
BA58B1FDDD071640D2FCC87D2045B96591CB3DA85CB7DCE40F504B0304140006080800CC70623B55019EA25F0000007C00000007000000636E782E786D6C4DCB3B0E80201045D1AD90E915ED2CF8AC45050C11660C8261F98AB1B07AC9C97D42D718D865D3E909258CFD00CCE24AC6E326A164D74DC0B4128928FF32603847
310
2BA13128B1252AC747C6BAB984FC68F0B87FE8960A5C09FE86CFB69FBA01504B0304140006080800CC70623B8C9102E971010000D40300000C0000006662782F636F72652E786D6CC5535B6E833010BC8AE5DF0A6C08340F1947A84D4ED00B38C6A128602363A31CBFCB234A53A551FA553EC09AD9F5CE8C31DB9E9B1AF5CA
310
7695D1198E428A91D2D214952E33ECDD315861B4E5CC1AE3BE9561A445A3323CC098B3D21ADFCE9034DA29ED00D5A6503328BA4E398C640D8B0C77F253352214DE4145770A5B214FA2546114020D759C75CE8200340D19DE981F0F6746269C33EFAB6266AB02A655C74A59CCF365BADC27CB5D902ED22848F6340DF238A141
310
BE88E2F57B92BFEDF23523433367AE6A2EEAA455C2A902F398D2751045018D3FA264435F3771F242571B4A1919CA6F9A7C5B3CD9E42BED16F12C776AEB308F40C848FC700B1139D4891EF410CEC810227CC6846F8386402064270EF5C5C709A05E49676C024C61FC95EA45ED154CA5211D1FF4FB8291A913A68E9B83EBBB33
310
E2A7673CDE118E5AE8124C0807CB8377834E366998436B950D7A7746DAD846D4CFD978E0F04FD455FC5D49D2D4C6FE9722321F10997F0F32DC47FE05504B0304140006080800CC70623BFFEA85907E0000009D0000000B0000006662782F636E782E786D6C4DCCD10A83201886E15B91FFDC95D95A811AB6F23E625948A6C3
310
E9D8E5AF46073BFAE0E1E365ED67B3E8ADC3CB78C7815C7240DA3DFC64DCC221C519D7805AC182F7F1EF06C88D9BE6703008B6049F9E274D7A1E938DBB5AE3D6131B2589BA0D3D965551E0B2EA732C9B9A624AAEB41E3A557677029960D9AFB4EF11165F504B0304140006080800CC70623B4FEEA4082C0100001202000031
310
0000006662782F39464131463745442D413632322D343644302D413938332D3331353338454246344243312F636F72652E786D6C8D515B6EC32010BC0AE2AB55850DD871ED0813254D72825EC00192A2C460F1A872FC42ED48ED5F7E00CDCECCCEB26C731F6FE05B39AFADE921293004CA082BB5B9F43086336A21D870E6AC
310
0D7F68109861543DCC30E4ECE26C9C164858139409093556AA051CBC570102714B8F1E7AF1A5C6A11862480C7F2DA6415C878B2A4891CA89C7990F2E050073937C42DE1DB7E4F87ED8A36D4329AA9B3D46DBAEAD504556557BD81DEBDD0761E52CE42C462D17B996298E3E6BE59E35C962CE821E1FF18553435012728A7187
310
0841987E927A8D9B35ADDF70BBC6989599FE4F1427F9A4286A132ABAC49D651EF234CD5CE04CDA78BA3DC2A8FB645D00B9DF8B57E215725C60BCA2A463E54C4CE327C7A65E1C7DB02E7DEFCBF594B864C5CA6CDBD49C957943E9FA5D5FBAF336F90F504B0304140006080800CC70623BAD7543B64E01000033030000300000
310
006662782F39464131463745442D413632322D343644302D413938332D3331353338454246344243312F636E782E786D6CD593CD6EC32010845F0571AD6CE3D48AD20813A9873E410FBD12D82434182C7EAAE6EDBB2424CD25871E7B41D6EC30B3FA84F9E67BB2E40B4234DE8DB46F1925E094D7C6ED479AD3AE5951B2113C
310
789FEE6C943839C1488B4C05DF079FE72A69D8C96C13AAD6B8631503449F83828872B949AC57D26200B826A308D316B4064D6E46FCDA41C05550DC9E483A00797BFD207EFB092A45DE9514C1BBD22178396BD39D891265658C238DEA00936C654E5E433CB65A26D9F6EDB5EBC14EBF49A45CB856E66048291F6939A9A81BB5
310
C8917738143CA680F4AA299D66A042CEB3354A2684DC9D8D178FE0D9B8B41CAAD720F880EE7EF93C0C18769E099ECC04D5A102C8049A8A05632F4DDF376CF1DE0F6BB65C2F8627B65A33C6BB62177CEBBDAD973006829F89F22E814B54F4BC2BE347F8AA8F681390B50FA73F804400B5F542E796F19FF974E7F78DB802FE05
310
E207504B0304140006080800CC70623B16AB87BA640500003C100000340000006662782F39464131463745442D413632322D343644302D413938332D3331353338454246344243312F6F626A656374732E786D6CAD575B6FA33818FD2B887DE6924B3BED8A326A92B68A663B534DD4D13E548A0C38942D60649B369D5FBFC7
310
600890A493BDE42160637FD7F31D7FF63E6FB3D478A55C242CBF3247B66B1A340F5994E4F19559CA8D75611A9F7D8F33263BCB4C232719BD32D5B4E97B316765A1A722BA21652A07B3B7B33F0D11D29C9A46981221AE4C113ED38CD8A4942CA2E2C58E882476BCD9DA23BB5ED8171B73523C0F841684D35CC252CCE79062D4
310
468DFA43D7747CCF51DF7D4FFDEB5593E3AB9CCA9FBEFE241792E4E19EB28198C968BAB8199F5D5A67D3E9C49A9E8F47D6EC76B6B0469F26EEFC7C3EBFBCBEB98462213924694B38DD98FE1D62C393D073EA4FADC5DAF04326852CCF6958F90F0F2B9BB5C48816348F90C7840A68EB78EDF68723159BCEE7891A6B95DDE9D3
310
BCEAEEE8086A6C6F9E5D4B59F0175C10A7A0820BAA5055C7473B5AE3CFDD452D602CD5DF12616444529E90D448938013FE6EFA58AA96F85E4F8C42275708571E98FE6827AF6B2B4AE3D7D83D64E5A64C53054DD3AF90BD06FEA9149565C94FCA0F6B834DC85599E4F2423B24DF0B6AFA979E534DFA9E7A4CC6FA631D486393
310
921829879BF5D781A373557BCB85E97FB90DB62B558F8795179C15944B051F40AB495CF35451D26A4727654E6D8033BD98EF82F21D91FF8AF2DD9982BCF1643BDD4EB516C9492E368C67C88DED563FC36D5EACF66DFF057C3658BDBFA69DF9578B3DA735B64F18C7F20770A9D45CFCF7FCF563D6456A277DBEF78A02637CA2
310
43B90A490AEAB94F72244481D24819A6C0E59B606BFA4B3025981DBB48EAB701D97BF19C577CC77F2D1B6C55A9EF3C732474C0B727303F625995056C3B02963D9EAC146BE78EC5FCEC7FA999EBC5EACBAAE41B12D27B4D2C0BBA49F244E2ECDC81B76B502F113D8F5EE8FB1BE3111CDD4FC2AA9B844CAB1288B68AB90A7CDC
310
1C166AB0D3DC5310625FCC14E779BFD0709F8890A629C9292B1B2DED31A4B0DA928CEE135085754027E3018A397D4D5427D15BD1330B677DC8934285AC3DF45A9EB68FF8F2B8FC0A509AFEECFD0FF2DE25CC6047F7214B195F07EFEB9A094D800F7BFAE8FED187B78EA8A3A400F115961BCAD1215E47C966530AF0EE8128FE
310
58CEBB996A8964FFA529A046635D9353B0336A8F700DDF46271A024E70B0B37C9DE01847591E54DED53D54202AB947E4076556AC49C6CA5C9E1226B7F1A7B1BE15DEED62C41B91E1B3E9AFAAA735036547343A925075041DF0A9979E893B391F8FCFA6967B3EFB644DCF6E5CEBFAE272625DCC6FAF3FB93793C5F90CE1EF57
310
407342756B10D1C489E8953CD1617E5CEECAD6F4EF8914CE5D5D504E5C3F1F9736DA62CFC11E00BCDDB8CC8A9466349744C1F75EBDA4DF09BA8A9E8C7A7E9991989E20E5DBDD6A6003664ED8F7A04A8DBE0DF6EAD9B9AA858342E47399053949D2C146EDB85DE4B176BB0965FBAC19BD19AA918E27FA50C1D22402E144464C
310
59462568E704B6E71915404CB72B8FF4EDE184DDAF753F284990D2C6926782963815403548A70C657FDEF80D2D9CEAA2AE4C1C76F60BFE74219A06527D6582DF6412526107381E55E353090704D085B52408D0933C4ED159D79BDA71BB4BC506F4831350EB6F979CD22D69BF7AC49B91A2C0A9DDA3D5CA36AD20FC478E37E6
310
1844E2352865EBCB6EA275A652E3836BE04EFB400BF1A2556F515F1FBB35B2AB35BD889C744FFA1004B5544B121E57F70215746DD2F5E2C1412B602CBF19455AC6C8E5E9922C4E01E65215385004546899059180EAFCF7A707CE7017CD8CDB0410789AB32C63B91E5CEBBBACB17AC6CD347A022D5075FD106377347AAABA7E
310
7D11590744509B44E205134DC1290F06580320F78E537D3D73540E06CB970B431F185308AD40BBD794D6D77003C5A36E8EAA54BA64597CD8F83BD552A080A365F7FF06504B0304140006080000CC70623B000000000000000000000000350000006662782F39464131463745442D413632322D343644302D413938332D3331
310
353338454246344243312F76657274696365732E62696E504B0304140006080800CC70623BF270F1330600000004000000360000006662782F39464131463745442D413632322D343644302D413938332D3331353338454246344243312F747269616E676C65732E62696E636660600000504B0304140006080000CC70623B
310
000000000000000000000000370000006662782F39464131463745442D413632322D343644302D413938332D3331353338454246344243312F617474726962757465732E62696E504B0304140006080800CC70623B08DA0BD19000000041010000360000006662782F39464131463745442D413632322D343644302D413938
310
332D3331353338454246344243312F6469726563746F72792E786D6C858F410AC3201045AF22B36F53E9A60B35CBEEBAE80D244E44489C6234F4F835464A48035D0DF398FF9F8AF63D0E6CC63039F212F8F9020C7D47C6792B21C5FE7403D62A1188E2E60C98D7234A5830286103A55745067B9D86B8A3CF9C7F90C11DE607
310
FB144396D7B6A82D282E9A152AD114D5EF2CB866EEE831B8EEA07A7BB5A8D7D61A2BAAEB7FD5F70921FF497D00504B0304140006080800CC70623B0D6EF93BFE000000A00100003B0000006662782F39464131463745442D413632322D343644302D413938332D3331353338454246344243312F7265736F75726365732F63
310
6F72652E786D6C8D50596E833010BD0A9ADFCA60B334011947A8694ED00B586642AC041B79A97AFC9A40A5F6AF3F33A3B7689E1E3F7DCD8FEC139DD7D6F4C0720A191A65476DA61E62B892236427C19DB5E1970C322367EC618541F0C9D9B8EC90B226A009093576C41D94DE63804C3DD2D18357379C652E63480A7FCF17A9
310
EE72C29CE5894E3AC17D702940B63D59270887DE46A7D0F36263058F518FBB468FE9A7BE6A7420864373B8D4873369AA8691FA421B3294352543C5CAF65C0F6FEF43CB8BD52C78D0F34F46E550061C419494B6843142CB0F5677F4B52BEB177AEC28E5C52AFF638ACBF84F53D42654E51E77B379102C05791282176B5F693D
310
CB4C7BED567C03504B010214000A0000080000CC70623B3DEE336E79000000790000001B00000000000000000000000000000000006175746F6465736B2D64657369676E2D7061636B6167652E786D6C504B01021400140006080800CC70623BD486FD9CA0000000F40000001300000000000000000000000000B20000005B
310
436F6E74656E745F54797065735D2E786D6C504B01021400140006080800CC70623B1EC5D7A3EB0000007C010000080000000000000000000000000083010000636F72652E786D6C504B01021400140006080800CC70623B55019EA25F0000007C000000070000000000000000000000000094020000636E782E786D6C504B
310
01021400140006080800CC70623B8C9102E971010000D40300000C00000000000000000000000000180300006662782F636F72652E786D6C504B01021400140006080800CC70623BFFEA85907E0000009D0000000B00000000000000000000000000B30400006662782F636E782E786D6C504B01021400140006080800CC70
310
623B4FEEA4082C0100001202000031000000000000000000000000005A0500006662782F39464131463745442D413632322D343644302D413938332D3331353338454246344243312F636F72652E786D6C504B01021400140006080800CC70623BAD7543B64E010000330300003000000000000000000000000000D5060000
310
6662782F39464131463745442D413632322D343644302D413938332D3331353338454246344243312F636E782E786D6C504B01021400140006080800CC70623B16AB87BA640500003C1000003400000000000000000000000000710800006662782F39464131463745442D413632322D343644302D413938332D3331353338
310
454246344243312F6F626A656374732E786D6C504B01021400140006080000CC70623B0000000000000000000000003500000000000000000000000000270E00006662782F39464131463745442D413632322D343644302D413938332D3331353338454246344243312F76657274696365732E62696E504B01021400140006
310
080800CC70623BF270F133060000000400000036000000000000000000000000007A0E00006662782F39464131463745442D413632322D343644302D413938332D3331353338454246344243312F747269616E676C65732E62696E504B01021400140006080000CC70623B0000000000000000000000003700000000000000
310
000000000000D40E00006662782F39464131463745442D413632322D343644302D413938332D3331353338454246344243312F617474726962757465732E62696E504B01021400140006080800CC70623B08DA0BD190000000410100003600000000000000000000000000290F00006662782F39464131463745442D413632
310
322D343644302D413938332D3331353338454246344243312F6469726563746F72792E786D6C504B01021400140006080800CC70623B0D6EF93BFE000000A00100003B000000000000000000000000000D1000006662782F39464131463745442D413632322D343644302D413938332D3331353338454246344243312F7265
310
736F75726365732F636F72652E786D6C504B0506000000000E000E0080040000641100000000
  0
XRECORD
  5
175
102
{ACAD_REACTORS
330
173
102
}
330
173
100
AcDbXrecord
280
     1
270
     1
271
     1
  0
XRECORD
  5
174
102
{ACAD_REACTORS
330
173
102
}
330
173
100
AcDbXrecord
280
     1
270
     1
271
     1
  0
XRECORD
  5
1FB
102
{ACAD_REACTORS
330
173
102
}
330
173
100
AcDbXrecord
280
     1
 70
     0
 90
1673772943
  1
ECE7A1D2-D628-4531-984C-D00F80459256
310
504B03040A0000080000CC70623B3DEE336E79000000790000001B0000006175746F6465736B2D64657369676E2D7061636B6167652E786D6C3C3F786D6C2076657273696F6E3D22312E302220656E636F64696E673D227574662D3822203F3E3C666F726D6174733E3C666F726D61743E687474703A2F2F736368656D612E
310
6175746F6465736B2E636F6D2F64657369676E2D7061636B6167652F323030393C2F666F726D61743E3C2F666F726D6174733E504B0304140006080800CC70623BD486FD9CA0000000F4000000130000005B436F6E74656E745F54797065735D2E786D6C7D8EC10E82300C865F65E91D8A1E8C310C0EEA1BF002731658846E
310
D98AC1B77784ABF1D8FE5FBFBF75BBCE937A534CCEB38643598122B6FEE978D0B0485F9C41B54DDD7D022595594E1A469170414C76A4D9A4D207E29CF43ECE46F218070CC6BECC4078ACAA135ACF422C856C0E68EA1BF5669944DDD7BCDE7B1F8E415D77AECB980613C2E4AC91FC167A2B244592486606FC29C8FD7F045B9A
310
EF7053A7E60B504B0304140006080800CC70623BD9DDAED0EC0000007C01000008000000636F72652E786D6C8D90416EC3201045AF82665B61836D9CD8C2444DD39CA01740405C94182C03558F5F9C3852BBEB6A467FFE9B197D7EF89E6EE8CB2CC17A37002D0820E394D7D68D03A478C17B4007C117EFE32F1B20272733C0
310
2A83E0E3E2D3BC49CABB685CCCAAF3DA6CA20CC14440EA969B0182FA34932C648AD911AEC52CD5558EA6A0CF2EC329598D1E47ACCEFBECC59A050463A7EA5833865FEBDD0E37353BE3EE8DBDE3F6786A48D375FBF6CC78B9C282473B3DEFABC5C86834888A900E538A49F5419B9EB47DD5BC907D4F082F57FB1F28CDFA9F50
310
B22ED6D5F6EE030B20687EE43E10BC5CB3C8E51E54AE6B6EE207504B0304140006080800CC70623B55019EA25F0000007C00000007000000636E782E786D6C4DCB3B0E80201045D1AD90E915ED2CF8AC45050C11660C8261F98AB1B07AC9C97D42D718D865D3E909258CFD00CCE24AC6E326A164D74DC0B4128928FF326038
310
472BA13128B1252AC747C6BAB984FC68F0B87FE8960A5C09FE86CFB69FBA01504B0304140006080800CC70623BA24EB22D72010000D40300000C0000006662782F636F72652E786D6CC5535B6E833010BC8AE5DF0A6C5E49888CA3A6694ED00B38E05014B091B1518EDFE511A5A9D228FD2A1F60CDEC7A67C6986DCE4D8D7A
310
69BA4AAB0C073EC548AA5C17952A33ECECD15B61B4E1CC686DBF9561A44423333CC098B3D268D7CE50AE9595CA02AA74216750749DB418E5352C32DCE59FB211BE70162ABA93DF8AFC244AE9073ED050C759670D0840D390E18DF9F1706664C23973AE2A66B62A605A75ACA4C13C4976E1364A12EF355A2EBD384AF65EFA96
310
BC7B8BED2EA6719AAE16FB8491A199335B351775B991C2CA02F390D2D40B028F861F41BCA68B7518BFD0D59A524686F29B26D7164F36B94AD9289CE54E6D1DE6010819891F6E21228B3AD1831EC219194284CF98F06DD01008846CC5A1BEF83801D4CBDC6A1303536877A57A513B0953A94FC707FDBE6064EA84A9E3E6E0FA
310
EE8CF0E9198F7784A316AA0413C2C2F2E0ECA0934D1AE6D05A69BCDE9E91D2A611F573361E38FC1375157F5752AE6B6DFE4B11990F88CCBF0719EE23FF02504B0304140006080800CC70623B408A7D3B7C0000009D0000000B0000006662782F636E782E786D6C4DCCD10A83201886E15B91FFDC552A92A0064DBC8F581632
310
D3703A76F9ABD1C18E3E78F878E5F0D9027ABBFCF2292AE86E2D20171F69F6715550CB827B40839639A5F2770314A7CD293819B45C73AAFB45B35BA61ACAA1C1C7E7855C58C15BC331339661262CC762340413D68D77DA5B42298546CBE6573AF60CEB2F504B0304140006080800CC70623B449FB9BD290100001202000031
310
0000006662782F36394639363044362D344446342D343946362D394244322D3234314243333846323333332F636F72652E786D6C8D515B6EC32010BC0AE22B55850D98B871848994463E412FE002495162B07854397EA176A4F62F3F2C9A9D991D587EB84F37F0AD7D30CEF6905418026DA553C65E7A98E219ED203808EE9D
310
8B7F6810D871D23D2C3014FCE25D9A57483A1BB58D19B54EE9151C43D0110279CB971E06F9A5A7B11A53CC8C70ADE6515EC78BAE4895DB992778883E0700CB907242D17643D7E2538BD869608875438BBAE38922CAC8F1BDD90DB4691A5E2F42C153326A951B95E398B3D1FE599322163C9AE9115F7A3D46ADA0A018778810
310
84E907617BDCEE297BC5BB3DC6BC2EF47FA234AB2745C9D8D8D035EE220B50105E2F0DC1954B9FB747187D9F9D8FA0CCDB042D5FA0C015C65B42DF78BD10F3F3B363CB56C7109DCFDFBBB97E662ED92EB62D13BC2E1BCAE5777DB9966D8A1F504B0304140006080800CC70623BAD7543B64E01000033030000300000006662
310
782F36394639363044362D344446342D343946362D394244322D3234314243333846323333332F636E782E786D6CD593CD6EC32010845F0571AD6CE3D48AD20813A9873E410FBD12D82434182C7EAAE6EDBB2424CD25871E7B41D6EC30B3FA84F9E67BB2E40B4234DE8DB46F1925E094D7C6ED479AD3AE5951B2113C789FEE
310
6C943839C1488B4C05DF079FE72A69D8C96C13AAD6B8631503449F83828872B949AC57D26200B826A308D316B4064D6E46FCDA41C05550DC9E483A00797BFD207EFB092A45DE9514C1BBD22178396BD39D891265658C238DEA00936C654E5E433CB65A26D9F6EDB5EBC14EBF49A45CB856E66048291F6939A9A81BB5C89177
310
38143CA680F4AA299D66A042CEB3354A2684DC9D8D178FE0D9B8B41CAAD720F880EE7EF93C0C18769E099ECC04D5A102C8049A8A05632F4DDF376CF1DE0F6BB65C2F8627B65A33C6BB62177CEBBDAD973006829F89F22E814B54F4BC2BE347F8AA8F681390B50FA73F804400B5F542E796F19FF974E7F78DB802FE05E20750
310
4B0304140006080800CC70623B8D05915C650500003B100000340000006662782F36394639363044362D344446342D343946362D394244322D3234314243333846323333332F6F626A656374732E786D6CAD575B6FA33814FE2B887D06429276DA1565D4266D158D3A339A6846FB502932E050B66023DB74D2FDF5FB190C01
310
9276B2973C046C8ECFF53B17071F77456EBD502133CEAE6CDF9DD81665314F32965ED995DA3A17B6F5310C04E7AA47665B8C14F4CAD6DB7618A48257A5D94AE89654B91AEDDEDDFC61C998326A5B714EA4BCB265FC440BE2924AF184CA6737218AB8E976E7FA6E4338649B0A523E8D98964450A6A029F619B8588D52FE7039
310
B1BD30F0F4F730D0FF866AF6369557DB33949F31A9088B0F848DD8CCFCF9F2767A76E99CCDE733677E3EF59D9BBB9BA5E37F984D16E78BC5E5F5ED25044B25C0C96822E8D60EEFE11B91C581D77CEA34368A1F5329E68CD1B8B61F16D63A1B8E092D294B10C78C4A48EB593D192E7DED9BDEE7995E1B91FDEDD3ACEA9FE831
310
6A756F9F7D4D79F4274C90A7A04248AA51D5F8C718DAE06FB2F75AC4796EBE65D22A88A22223B995679120E2D50E41AA49C260C046A35368846B0BECD0DFF3EBEB8AD4F835768F69B9ADF25C43D30E6B646F807FAA64AD59F61715C7A54127C4AACA98BA3006A9D792DAE165E0D59B61A01FB3A9F9D838D2DAE62445C86166
310
F37564E842E7DE6A69879FEEA2DD5AE7E371E1A5E025154AC307D06A03D73EB5978C58FFA4C8E9033066E0F3BD53BEC1F39F91BE7B55103791EDE6BBB991A2046172CB4581D8B893FA674DDA17A77B3B7C413D1B511FD2743BFF8A38F03A658705E3ADF8015C3A3417FF3D7E439FF591DA0B5F18BC20C1B8981957AE6392A3
310
F43C640C01D1A0B4728E2DD4F26DB4B3C3152A252A3B4E913CEC1C72F012782FF88EFF8637AA552DBEF76408E8A8DE9E50F9E1CB3A2DA0DB1B6039A893B56063DC5B3E3FFB5F72E67AB9FEB4AEC496C4F4C1149625DD662C53E89D7BF0F6151A046260D1337DFDC94502430F83B0EE07A130A224BCAD7DAE1D9FB6CD422FF6
310
920702629C4BB9AE79C12F243C6432A6794E18E5552BA56B431AAB5D91317302B2B071E86C3A42B1A02F999E24061403B5D0EB639195DA655DD3EBEAB4FB862DDF579F014AD0E73C22F99E28DA57FB98E75C6CA2D74D53086D600F4786E0FE3144B771A8A7B900F03594DB8A633CBC49B2EDB69228BB479CF863B5E807AAAB
310
23872F6DFEB4129B949CA33823F58830E86D65621E10047D9DB34D862E8EAC3C2ABC2F7B2C40D67CDFE01F5545B92105AF983AC54D93D69E56FB8E797F88913F898A9FEC705D3F9D1B54EC8426FB500D40A03BD0119B06E1B95DDC7EB8F6975367793EBD70E66733DFB9BC982F9CE564727731999F5D4ECFCE3B8D6A4DC2A0
310
6D50FD148437D110834A64C6CDDF57FBACB5C307A2A477DFE4939736CFEF2B175371E0E10CF0DD1D5C15654E0BCA14D1E87DD02FF93782A162C0A3D95F1524A52770F972BF1EE9809D13CE7DD599467F8ECE9ADD85CE85A34CD45355448C64F9E8A031DC2D596ACC6E5DD93D9B82DE2EF5CAF81363A8E47996A0DE24564A79
310
4115AACE09C55E14540231FDA13C319787134EBF34E3A022514E5B4D9E0826E25C02D5805B15ABE1BEF51B26383D445DD9E875EE33FE4C22DA16427D65A3BCA92CA6D28DD01DF5DC53330704308475351050232CCD31583787BA75774AFB06E5070DD0C8EF484E19968C5D83BA5B90B244D31E54D55A372320FE4786B7EA58
310
44E135AA5467CB7EA333A61683CC6A8C3257034C10CF46F40EF9F5BE59BE5BD30C3C72D235E95D10345C1D45445A5F0BB47E46A5EBE5570F9380B5FA629579952296A773720405982B9DE04011506178964401AA8BDF1FBF0A8EAB6861DD6580C0E38217056766716DAEB2D6FA0917D3E4116581EADB879C4E7CFFB11EFACD
310
3D641311495D92C8676CB409A72D18610D803CE8A626049E8EC1887CB5B44CC39883690DDA8399B4B9855B481E7D71D4A9D22F96E5BB73BF5793020C02137BF837504B0304140006080000CC70623B000000000000000000000000350000006662782F36394639363044362D344446342D343946362D394244322D32343142
310
43333846323333332F76657274696365732E62696E504B0304140006080800CC70623BF270F1330600000004000000360000006662782F36394639363044362D344446342D343946362D394244322D3234314243333846323333332F747269616E676C65732E62696E636660600000504B0304140006080000CC70623B0000
310
00000000000000000000370000006662782F36394639363044362D344446342D343946362D394244322D3234314243333846323333332F617474726962757465732E62696E504B0304140006080800CC70623B08DA0BD19000000041010000360000006662782F36394639363044362D344446342D343946362D394244322D
310
3234314243333846323333332F6469726563746F72792E786D6C858F410AC3201045AF22B36F53E9A60B35CBEEBAE80D244E44489C6234F4F835464A48035D0DF398FF9F8AF63D0E6CC63039F212F8F9020C7D47C6792B21C5FE7403D62A1188E2E60C98D7234A5830286103A55745067B9D86B8A3CF9C7F90C11DE607FB14
310
4396D7B6A82D282E9A152AD114D5EF2CB866EEE831B8EEA07A7BB5A8D7D61A2BAAEB7FD5F70921FF497D00504B0304140006080800CC70623BCA768048FE000000A00100003B0000006662782F36394639363044362D344446342D343946362D394244322D3234314243333846323333332F7265736F75726365732F636F72
310
652E786D6C8D50596E833010BD0A9ADFCA60D600328E9AA639412F609909B1126CE4A5EAF16B0295DABFFECC8CDEA2797AECF8353F924FB44E193D409E5248504B332A3D0D10FC95B4901C39B3C6F85F3248B49871801506CE266BC2B243D2688FDA47549B11775038871E12F988C7004EDE7016A9083E2ADC3D5D84BC8B09
310
D33C8D74D471E6BC8D0192EDC93A815B742658898E651BCB59086ADC356A8C3FD555A1055ED7E7E254D615792D0F075295F585746FF53B694EE78A565DD736979A65AB9933AFE69F8CD2A2F038022F28ED489E135A7CE4554F9BBEA85E68DB53CAB255FEC71496F19FA6A0B42F8B3DEE6673C0F318E4497096AD7DC5F52C33
310
EEB55BFE0D504B010214000A0000080000CC70623B3DEE336E79000000790000001B00000000000000000000000000000000006175746F6465736B2D64657369676E2D7061636B6167652E786D6C504B01021400140006080800CC70623BD486FD9CA0000000F40000001300000000000000000000000000B20000005B436F
310
6E74656E745F54797065735D2E786D6C504B01021400140006080800CC70623BD9DDAED0EC0000007C010000080000000000000000000000000083010000636F72652E786D6C504B01021400140006080800CC70623B55019EA25F0000007C000000070000000000000000000000000095020000636E782E786D6C504B0102
310
1400140006080800CC70623BA24EB22D72010000D40300000C00000000000000000000000000190300006662782F636F72652E786D6C504B01021400140006080800CC70623B408A7D3B7C0000009D0000000B00000000000000000000000000B50400006662782F636E782E786D6C504B01021400140006080800CC70623B
310
449FB9BD290100001202000031000000000000000000000000005A0500006662782F36394639363044362D344446342D343946362D394244322D3234314243333846323333332F636F72652E786D6C504B01021400140006080800CC70623BAD7543B64E010000330300003000000000000000000000000000D20600006662
310
782F36394639363044362D344446342D343946362D394244322D3234314243333846323333332F636E782E786D6C504B01021400140006080800CC70623B8D05915C650500003B10000034000000000000000000000000006E0800006662782F36394639363044362D344446342D343946362D394244322D32343142433338
310
46323333332F6F626A656374732E786D6C504B01021400140006080000CC70623B0000000000000000000000003500000000000000000000000000250E00006662782F36394639363044362D344446342D343946362D394244322D3234314243333846323333332F76657274696365732E62696E504B010214001400060808
310
00CC70623BF270F13306000000040000003600000000000000000000000000780E00006662782F36394639363044362D344446342D343946362D394244322D3234314243333846323333332F747269616E676C65732E62696E504B01021400140006080000CC70623B00000000000000000000000037000000000000000000
310
00000000D20E00006662782F36394639363044362D344446342D343946362D394244322D3234314243333846323333332F617474726962757465732E62696E504B01021400140006080800CC70623B08DA0BD190000000410100003600000000000000000000000000270F00006662782F36394639363044362D344446342D
310
343946362D394244322D3234314243333846323333332F6469726563746F72792E786D6C504B01021400140006080800CC70623BCA768048FE000000A00100003B000000000000000000000000000B1000006662782F36394639363044362D344446342D343946362D394244322D3234314243333846323333332F7265736F
310
75726365732F636F72652E786D6C504B0506000000000E000E0080040000621100000000
  0
XRECORD
  5
176
102
{ACAD_REACTORS
330
173
102
}
330
173
100
AcDbXrecord
280
     1
270
     1
271
     1
  0
XRECORD
  5
177
102
{ACAD_REACTORS
330
173
102
}
330
173
100
AcDbXrecord
280
     1
270
     1
271
     1
  0
XRECORD
  5
3AE4
102
{ACAD_REACTORS
330
3AE3
102
}
330
3AE3
100
AcDbXrecord
280
     1
102
DISPLAYNAME
  1
Imperial24
102
FLAGS
 90
        0
  0
XRECORD
  5
3AE0
102
{ACAD_REACTORS
330
3ADF
102
}
330
3ADF
100
AcDbXrecord
280
     1
102
DISPLAYNAME
  1
Metric50
102
FLAGS
 90
        0
  0
CELLSTYLEMAP
  5
3AA5
102
{ACAD_REACTORS
330
162
102
}
330
162
100
AcDbCellStyleMap
 90
        3
300
CELLSTYLE
  1
TABLEFORMAT_BEGIN
 90
        5
170
     1
 91
        0
 92
    32768
 62
   257
 93
        1
300
CONTENTFORMAT
  1
CONTENTFORMAT_BEGIN
 90
        0
 91
        0
 92
      512
 93
        0
300

 40
0.0
140
1.0
 94
        5
 62
     0
340
11
144
6.0
309
CONTENTFORMAT_END
171
     1
301
MARGIN
  1
CELLMARGIN_BEGIN
 40
1.5
 40
1.5
 40
1.5
 40
1.5
 40
4.5
 40
4.5
309
CELLMARGIN_END
 94
        6
 95
        1
302
GRIDFORMAT
  1
GRIDFORMAT_BEGIN
 90
        0
 91
        1
 62
     0
 92
       -2
340
14
 93
        0
 40
1.125
309
GRIDFORMAT_END
 95
        2
302
GRIDFORMAT
  1
GRIDFORMAT_BEGIN
 90
        0
 91
        1
 62
     0
 92
       -2
340
14
 93
        0
 40
1.125
309
GRIDFORMAT_END
 95
        4
302
GRIDFORMAT
  1
GRIDFORMAT_BEGIN
 90
        0
 91
        1
 62
     0
 92
       -2
340
14
 93
        0
 40
1.125
309
GRIDFORMAT_END
 95
        8
302
GRIDFORMAT
  1
GRIDFORMAT_BEGIN
 90
        0
 91
        1
 62
     0
 92
       -2
340
14
 93
        0
 40
1.125
309
GRIDFORMAT_END
 95
       16
302
GRIDFORMAT
  1
GRIDFORMAT_BEGIN
 90
        0
 91
        1
 62
     0
 92
       -2
340
14
 93
        0
 40
1.125
309
GRIDFORMAT_END
 95
       32
302
GRIDFORMAT
  1
GRIDFORMAT_BEGIN
 90
        0
 91
        1
 62
     0
 92
       -2
340
14
 93
        0
 40
1.125
309
GRIDFORMAT_END
309
TABLEFORMAT_END
  1
CELLSTYLE_BEGIN
 90
        1
 91
        1
300
_TITLE
309
CELLSTYLE_END
300
CELLSTYLE
  1
TABLEFORMAT_BEGIN
 90
        5
170
     1
 91
        0
 92
        0
 62
   257
 93
        1
300
CONTENTFORMAT
  1
CONTENTFORMAT_BEGIN
 90
        0
 91
        0
 92
      512
 93
        0
300

 40
0.0
140
1.0
 94
        5
 62
     0
340
11
144
4.5
309
CONTENTFORMAT_END
171
     1
301
MARGIN
  1
CELLMARGIN_BEGIN
 40
1.5
 40
1.5
 40
1.5
 40
1.5
 40
4.5
 40
4.5
309
CELLMARGIN_END
 94
        6
 95
        1
302
GRIDFORMAT
  1
GRIDFORMAT_BEGIN
 90
        0
 91
        1
 62
     0
 92
       -2
340
14
 93
        0
 40
1.125
309
GRIDFORMAT_END
 95
        2
302
GRIDFORMAT
  1
GRIDFORMAT_BEGIN
 90
        0
 91
        1
 62
     0
 92
       -2
340
14
 93
        0
 40
1.125
309
GRIDFORMAT_END
 95
        4
302
GRIDFORMAT
  1
GRIDFORMAT_BEGIN
 90
        0
 91
        1
 62
     0
 92
       -2
340
14
 93
        0
 40
1.125
309
GRIDFORMAT_END
 95
        8
302
GRIDFORMAT
  1
GRIDFORMAT_BEGIN
 90
        0
 91
        1
 62
     0
 92
       -2
340
14
 93
        0
 40
1.125
309
GRIDFORMAT_END
 95
       16
302
GRIDFORMAT
  1
GRIDFORMAT_BEGIN
 90
        0
 91
        1
 62
     0
 92
       -2
340
14
 93
        0
 40
1.125
309
GRIDFORMAT_END
 95
       32
302
GRIDFORMAT
  1
GRIDFORMAT_BEGIN
 90
        0
 91
        1
 62
     0
 92
       -2
340
14
 93
        0
 40
1.125
309
GRIDFORMAT_END
309
TABLEFORMAT_END
  1
CELLSTYLE_BEGIN
 90
        2
 91
        1
300
_HEADER
309
CELLSTYLE_END
300
CELLSTYLE
  1
TABLEFORMAT_BEGIN
 90
        5
170
     1
 91
        0
 92
        0
 62
   257
 93
        1
300
CONTENTFORMAT
  1
CONTENTFORMAT_BEGIN
 90
        0
 91
        0
 92
      512
 93
        0
300

 40
0.0
140
1.0
 94
        2
 62
     0
340
11
144
4.5
309
CONTENTFORMAT_END
171
     1
301
MARGIN
  1
CELLMARGIN_BEGIN
 40
1.5
 40
1.5
 40
1.5
 40
1.5
 40
4.5
 40
4.5
309
CELLMARGIN_END
 94
        6
 95
        1
302
GRIDFORMAT
  1
GRIDFORMAT_BEGIN
 90
        0
 91
        1
 62
     0
 92
       -2
340
14
 93
        0
 40
1.125
309
GRIDFORMAT_END
 95
        2
302
GRIDFORMAT
  1
GRIDFORMAT_BEGIN
 90
        0
 91
        1
 62
     0
 92
       -2
340
14
 93
        0
 40
1.125
309
GRIDFORMAT_END
 95
        4
302
GRIDFORMAT
  1
GRIDFORMAT_BEGIN
 90
        0
 91
        1
 62
     0
 92
       -2
340
14
 93
        0
 40
1.125
309
GRIDFORMAT_END
 95
        8
302
GRIDFORMAT
  1
GRIDFORMAT_BEGIN
 90
        0
 91
        1
 62
     0
 92
       -2
340
14
 93
        0
 40
1.125
309
GRIDFORMAT_END
 95
       16
302
GRIDFORMAT
  1
GRIDFORMAT_BEGIN
 90
        0
 91
        1
 62
     0
 92
       -2
340
14
 93
        0
 40
1.125
309
GRIDFORMAT_END
 95
       32
302
GRIDFORMAT
  1
GRIDFORMAT_BEGIN
 90
        0
 91
        1
 62
     0
 92
       -2
340
14
 93
        0
 40
1.125
309
GRIDFORMAT_END
309
TABLEFORMAT_END
  1
CELLSTYLE_BEGIN
 90
        3
 91
        2
300
_DATA
309
CELLSTYLE_END
  0
XRECORD
  5
3ABA
102
{ACAD_REACTORS
330
3AB9
102
}
330
3AB9
100
AcDbXrecord
280
     1
102
RTVSPost2010Prop28
280
     1
102
RTVSPost2010PropOp28
 70
     1
102
RTVSPost2010Prop29
280
     1
102
RTVSPost2010PropOp29
 70
     1
102
RTVSPost2010Prop30
280
     0
102
RTVSPost2010PropOp30
 70
     1
102
RTVSPost2010Prop31
280
     0
102
RTVSPost2010PropOp31
 70
     1
102
RTVSPost2010Prop32
280
     0
102
RTVSPost2010PropOp32
 70
     1
102
RTVSPost2010Prop33
280
     0
102
RTVSPost2010PropOp33
 70
     1
102
RTVSPost2010Prop34
280
     0
102
RTVSPost2010PropOp34
 70
     1
102
RTVSPost2010Prop35
280
     0
102
RTVSPost2010PropOp35
 70
     1
102
RTVSPost2010Prop36
280
     0
102
RTVSPost2010PropOp36
 70
     1
102
RTVSPost2010Prop37
 90
       50
102
RTVSPost2010PropOp37
 70
     1
102
RTVSPost2010Prop38
140
0.0
102
RTVSPost2010PropOp38
 70
     1
102
RTVSPost2010Prop39
140
1.0
102
RTVSPost2010PropOp39
 70
     1
102
RTVSPost2010Prop40
 90
        0
102
RTVSPost2010PropOp40
 70
     1
102
RTVSPost2010Prop41ColorIndex
 90
       18
102
RTVSPost2010Prop41ColorRGB
 90
        0
102
RTVSPost2010PropOp41
 70
     1
102
RTVSPost2010Prop42
 90
       50
102
RTVSPost2010PropOp42
 70
     1
102
RTVSPost2010Prop43
 90
        3
102
RTVSPost2010PropOp43
 70
     1
102
RTVSPost2010Prop44ColorIndex
 90
        5
102
RTVSPost2010Prop44ColorRGB
 90
      255
102
RTVSPost2010PropOp44
 70
     1
102
RTVSPost2010Prop45
280
     0
102
RTVSPost2010PropOp45
 70
     1
102
RTVSPost2010Prop46
 90
       50
102
RTVSPost2010PropOp46
 70
     1
102
RTVSPost2010Prop47
 90
       50
102
RTVSPost2010PropOp47
 70
     1
102
RTVSPost2010Prop48
 90
       50
102
RTVSPost2010PropOp48
 70
     1
102
RTVSPost2010Prop49
280
     0
102
RTVSPost2010PropOp49
 70
     1
102
RTVSPost2010Prop50
 90
       50
102
RTVSPost2010PropOp50
 70
     1
102
RTVSPost2010Prop51ColorIndex
 90
      256
102
RTVSPost2010Prop51ColorRGB
 90
-16777216
102
RTVSPost2010PropOp51
 70
     0
102
RTVSPost2010Prop52
140
1.0
102
RTVSPost2010PropOp52
 70
     0
102
RTVSPost2010Prop53
 90
        2
102
RTVSPost2010PropOp53
 70
     1
102
RTVSPost2010Prop54
  1
strokes_ogs.tif
102
RTVSPost2010PropOp54
 70
     1
102
RTVSPost2010Prop55
280
     0
102
RTVSPost2010PropOp55
 70
     1
102
RTVSPost2010Prop56
140
1.0
102
RTVSPost2010PropOp56
 70
     1
102
RTVSPost2010Prop57
140
1.0
102
RTVSPost2010PropOp57
 70
     1
  0
XRECORD
  5
3AB8
102
{ACAD_REACTORS
330
3AB7
102
}
330
3AB7
100
AcDbXrecord
280
     1
102
RTVSPost2010Prop28
280
     0
102
RTVSPost2010PropOp28
 70
     1
102
RTVSPost2010Prop29
280
     1
102
RTVSPost2010PropOp29
 70
     1
102
RTVSPost2010Prop30
280
     1
102
RTVSPost2010PropOp30
 70
     1
102
RTVSPost2010Prop31
280
     0
102
RTVSPost2010PropOp31
 70
     1
102
RTVSPost2010Prop32
280
     0
102
RTVSPost2010PropOp32
 70
     1
102
RTVSPost2010Prop33
280
     0
102
RTVSPost2010PropOp33
 70
     1
102
RTVSPost2010Prop34
280
     0
102
RTVSPost2010PropOp34
 70
     1
102
RTVSPost2010Prop35
280
     0
102
RTVSPost2010PropOp35
 70
     1
102
RTVSPost2010Prop36
280
     0
102
RTVSPost2010PropOp36
 70
     1
102
RTVSPost2010Prop37
 90
       50
102
RTVSPost2010PropOp37
 70
     1
102
RTVSPost2010Prop38
140
0.0
102
RTVSPost2010PropOp38
 70
     1
102
RTVSPost2010Prop39
140
1.0
102
RTVSPost2010PropOp39
 70
     1
102
RTVSPost2010Prop40
 90
        0
102
RTVSPost2010PropOp40
 70
     1
102
RTVSPost2010Prop41ColorIndex
 90
       18
102
RTVSPost2010Prop41ColorRGB
 90
        0
102
RTVSPost2010PropOp41
 70
     1
102
RTVSPost2010Prop42
 90
       50
102
RTVSPost2010PropOp42
 70
     1
102
RTVSPost2010Prop43
 90
        3
102
RTVSPost2010PropOp43
 70
     1
102
RTVSPost2010Prop44ColorIndex
 90
        5
102
RTVSPost2010Prop44ColorRGB
 90
      255
102
RTVSPost2010PropOp44
 70
     1
102
RTVSPost2010Prop45
280
     0
102
RTVSPost2010PropOp45
 70
     1
102
RTVSPost2010Prop46
 90
       50
102
RTVSPost2010PropOp46
 70
     1
102
RTVSPost2010Prop47
 90
       50
102
RTVSPost2010PropOp47
 70
     1
102
RTVSPost2010Prop48
 90
       50
102
RTVSPost2010PropOp48
 70
     1
102
RTVSPost2010Prop49
280
     0
102
RTVSPost2010PropOp49
 70
     1
102
RTVSPost2010Prop50
 90
       50
102
RTVSPost2010PropOp50
 70
     1
102
RTVSPost2010Prop51ColorIndex
 90
      256
102
RTVSPost2010Prop51ColorRGB
 90
-16777216
102
RTVSPost2010PropOp51
 70
     0
102
RTVSPost2010Prop52
140
1.0
102
RTVSPost2010PropOp52
 70
     0
102
RTVSPost2010Prop53
 90
        2
102
RTVSPost2010PropOp53
 70
     1
102
RTVSPost2010Prop54
  1
strokes_ogs.tif
102
RTVSPost2010PropOp54
 70
     1
102
RTVSPost2010Prop55
280
     0
102
RTVSPost2010PropOp55
 70
     1
102
RTVSPost2010Prop56
140
1.0
102
RTVSPost2010PropOp56
 70
     1
102
RTVSPost2010Prop57
140
1.0
102
RTVSPost2010PropOp57
 70
     1
  0
XRECORD
  5
3AC6
102
{ACAD_REACTORS
330
3AC5
102
}
330
3AC5
100
AcDbXrecord
280
     1
102
RTVSPost2010Prop28
280
     0
102
RTVSPost2010PropOp28
 70
     1
102
RTVSPost2010Prop29
280
     1
102
RTVSPost2010PropOp29
 70
     1
102
RTVSPost2010Prop30
280
     1
102
RTVSPost2010PropOp30
 70
     1
102
RTVSPost2010Prop31
280
     0
102
RTVSPost2010PropOp31
 70
     1
102
RTVSPost2010Prop32
280
     0
102
RTVSPost2010PropOp32
 70
     1
102
RTVSPost2010Prop33
280
     0
102
RTVSPost2010PropOp33
 70
     1
102
RTVSPost2010Prop34
280
     0
102
RTVSPost2010PropOp34
 70
     1
102
RTVSPost2010Prop35
280
     0
102
RTVSPost2010PropOp35
 70
     1
102
RTVSPost2010Prop36
280
     0
102
RTVSPost2010PropOp36
 70
     1
102
RTVSPost2010Prop37
 90
       50
102
RTVSPost2010PropOp37
 70
     1
102
RTVSPost2010Prop38
140
0.0
102
RTVSPost2010PropOp38
 70
     1
102
RTVSPost2010Prop39
140
1.0
102
RTVSPost2010PropOp39
 70
     1
102
RTVSPost2010Prop40
 90
        0
102
RTVSPost2010PropOp40
 70
     1
102
RTVSPost2010Prop41ColorIndex
 90
       18
102
RTVSPost2010Prop41ColorRGB
 90
        0
102
RTVSPost2010PropOp41
 70
     1
102
RTVSPost2010Prop42
 90
       50
102
RTVSPost2010PropOp42
 70
     1
102
RTVSPost2010Prop43
 90
        3
102
RTVSPost2010PropOp43
 70
     1
102
RTVSPost2010Prop44ColorIndex
 90
        5
102
RTVSPost2010Prop44ColorRGB
 90
      255
102
RTVSPost2010PropOp44
 70
     1
102
RTVSPost2010Prop45
280
     0
102
RTVSPost2010PropOp45
 70
     1
102
RTVSPost2010Prop46
 90
       50
102
RTVSPost2010PropOp46
 70
     1
102
RTVSPost2010Prop47
 90
       50
102
RTVSPost2010PropOp47
 70
     1
102
RTVSPost2010Prop48
 90
       50
102
RTVSPost2010PropOp48
 70
     1
102
RTVSPost2010Prop49
280
     0
102
RTVSPost2010PropOp49
 70
     1
102
RTVSPost2010Prop50
 90
       50
102
RTVSPost2010PropOp50
 70
     1
102
RTVSPost2010Prop51ColorIndex
 90
      256
102
RTVSPost2010Prop51ColorRGB
 90
-16777216
102
RTVSPost2010PropOp51
 70
     0
102
RTVSPost2010Prop52
140
1.0
102
RTVSPost2010PropOp52
 70
     0
102
RTVSPost2010Prop53
 90
        2
102
RTVSPost2010PropOp53
 70
     1
102
RTVSPost2010Prop54
  1
strokes_ogs.tif
102
RTVSPost2010PropOp54
 70
     1
102
RTVSPost2010Prop55
280
     0
102
RTVSPost2010PropOp55
 70
     1
102
RTVSPost2010Prop56
140
1.0
102
RTVSPost2010PropOp56
 70
     1
102
RTVSPost2010Prop57
140
1.0
102
RTVSPost2010PropOp57
 70
     1
  0
XRECORD
  5
3ACE
102
{ACAD_REACTORS
330
3ACD
102
}
330
3ACD
100
AcDbXrecord
280
     1
102
RTVSPost2010Prop28
280
     0
102
RTVSPost2010PropOp28
 70
     1
102
RTVSPost2010Prop29
280
     1
102
RTVSPost2010PropOp29
 70
     1
102
RTVSPost2010Prop30
280
     1
102
RTVSPost2010PropOp30
 70
     1
102
RTVSPost2010Prop31
280
     0
102
RTVSPost2010PropOp31
 70
     1
102
RTVSPost2010Prop32
280
     0
102
RTVSPost2010PropOp32
 70
     1
102
RTVSPost2010Prop33
280
     0
102
RTVSPost2010PropOp33
 70
     1
102
RTVSPost2010Prop34
280
     0
102
RTVSPost2010PropOp34
 70
     1
102
RTVSPost2010Prop35
280
     0
102
RTVSPost2010PropOp35
 70
     1
102
RTVSPost2010Prop36
280
     0
102
RTVSPost2010PropOp36
 70
     1
102
RTVSPost2010Prop37
 90
       50
102
RTVSPost2010PropOp37
 70
     1
102
RTVSPost2010Prop38
140
0.0
102
RTVSPost2010PropOp38
 70
     1
102
RTVSPost2010Prop39
140
1.0
102
RTVSPost2010PropOp39
 70
     1
102
RTVSPost2010Prop40
 90
        0
102
RTVSPost2010PropOp40
 70
     1
102
RTVSPost2010Prop41ColorIndex
 90
       18
102
RTVSPost2010Prop41ColorRGB
 90
        0
102
RTVSPost2010PropOp41
 70
     1
102
RTVSPost2010Prop42
 90
       50
102
RTVSPost2010PropOp42
 70
     1
102
RTVSPost2010Prop43
 90
        3
102
RTVSPost2010PropOp43
 70
     1
102
RTVSPost2010Prop44ColorIndex
 90
        5
102
RTVSPost2010Prop44ColorRGB
 90
      255
102
RTVSPost2010PropOp44
 70
     1
102
RTVSPost2010Prop45
280
     0
102
RTVSPost2010PropOp45
 70
     1
102
RTVSPost2010Prop46
 90
       50
102
RTVSPost2010PropOp46
 70
     1
102
RTVSPost2010Prop47
 90
       50
102
RTVSPost2010PropOp47
 70
     1
102
RTVSPost2010Prop48
 90
       50
102
RTVSPost2010PropOp48
 70
     1
102
RTVSPost2010Prop49
280
     0
102
RTVSPost2010PropOp49
 70
     1
102
RTVSPost2010Prop50
 90
       50
102
RTVSPost2010PropOp50
 70
     1
102
RTVSPost2010Prop51ColorIndex
 90
      256
102
RTVSPost2010Prop51ColorRGB
 90
-16777216
102
RTVSPost2010PropOp51
 70
     0
102
RTVSPost2010Prop52
140
1.0
102
RTVSPost2010PropOp52
 70
     0
102
RTVSPost2010Prop53
 90
        2
102
RTVSPost2010PropOp53
 70
     1
102
RTVSPost2010Prop54
  1
strokes_ogs.tif
102
RTVSPost2010PropOp54
 70
     1
102
RTVSPost2010Prop55
280
     0
102
RTVSPost2010PropOp55
 70
     1
102
RTVSPost2010Prop56
140
1.0
102
RTVSPost2010PropOp56
 70
     1
102
RTVSPost2010Prop57
140
1.0
102
RTVSPost2010PropOp57
 70
     1
  0
XRECORD
  5
3AC0
102
{ACAD_REACTORS
330
3ABF
102
}
330
3ABF
100
AcDbXrecord
280
     1
102
RTVSPost2010Prop28
280
     0
102
RTVSPost2010PropOp28
 70
     1
102
RTVSPost2010Prop29
280
     1
102
RTVSPost2010PropOp29
 70
     1
102
RTVSPost2010Prop30
280
     1
102
RTVSPost2010PropOp30
 70
     1
102
RTVSPost2010Prop31
280
     0
102
RTVSPost2010PropOp31
 70
     1
102
RTVSPost2010Prop32
280
     0
102
RTVSPost2010PropOp32
 70
     1
102
RTVSPost2010Prop33
280
     0
102
RTVSPost2010PropOp33
 70
     1
102
RTVSPost2010Prop34
280
     0
102
RTVSPost2010PropOp34
 70
     1
102
RTVSPost2010Prop35
280
     0
102
RTVSPost2010PropOp35
 70
     1
102
RTVSPost2010Prop36
280
     0
102
RTVSPost2010PropOp36
 70
     1
102
RTVSPost2010Prop37
 90
       50
102
RTVSPost2010PropOp37
 70
     1
102
RTVSPost2010Prop38
140
0.0
102
RTVSPost2010PropOp38
 70
     1
102
RTVSPost2010Prop39
140
1.0
102
RTVSPost2010PropOp39
 70
     1
102
RTVSPost2010Prop40
 90
        0
102
RTVSPost2010PropOp40
 70
     1
102
RTVSPost2010Prop41ColorIndex
 90
       18
102
RTVSPost2010Prop41ColorRGB
 90
        0
102
RTVSPost2010PropOp41
 70
     1
102
RTVSPost2010Prop42
 90
       50
102
RTVSPost2010PropOp42
 70
     1
102
RTVSPost2010Prop43
 90
        3
102
RTVSPost2010PropOp43
 70
     1
102
RTVSPost2010Prop44ColorIndex
 90
        5
102
RTVSPost2010Prop44ColorRGB
 90
      255
102
RTVSPost2010PropOp44
 70
     1
102
RTVSPost2010Prop45
280
     0
102
RTVSPost2010PropOp45
 70
     1
102
RTVSPost2010Prop46
 90
       50
102
RTVSPost2010PropOp46
 70
     1
102
RTVSPost2010Prop47
 90
       50
102
RTVSPost2010PropOp47
 70
     1
102
RTVSPost2010Prop48
 90
       50
102
RTVSPost2010PropOp48
 70
     1
102
RTVSPost2010Prop49
280
     0
102
RTVSPost2010PropOp49
 70
     1
102
RTVSPost2010Prop50
 90
       50
102
RTVSPost2010PropOp50
 70
     1
102
RTVSPost2010Prop51ColorIndex
 90
      256
102
RTVSPost2010Prop51ColorRGB
 90
-16777216
102
RTVSPost2010PropOp51
 70
     0
102
RTVSPost2010Prop52
140
1.0
102
RTVSPost2010PropOp52
 70
     0
102
RTVSPost2010Prop53
 90
        2
102
RTVSPost2010PropOp53
 70
     1
102
RTVSPost2010Prop54
  1
strokes_ogs.tif
102
RTVSPost2010PropOp54
 70
     1
102
RTVSPost2010Prop55
280
     0
102
RTVSPost2010PropOp55
 70
     1
102
RTVSPost2010Prop56
140
1.0
102
RTVSPost2010PropOp56
 70
     1
102
RTVSPost2010Prop57
140
1.0
102
RTVSPost2010PropOp57
 70
     1
  0
XRECORD
  5
3AC4
102
{ACAD_REACTORS
330
3AC3
102
}
330
3AC3
100
AcDbXrecord
280
     1
102
RTVSPost2010Prop28
280
     0
102
RTVSPost2010PropOp28
 70
     1
102
RTVSPost2010Prop29
280
     1
102
RTVSPost2010PropOp29
 70
     1
102
RTVSPost2010Prop30
280
     1
102
RTVSPost2010PropOp30
 70
     1
102
RTVSPost2010Prop31
280
     0
102
RTVSPost2010PropOp31
 70
     1
102
RTVSPost2010Prop32
280
     0
102
RTVSPost2010PropOp32
 70
     1
102
RTVSPost2010Prop33
280
     0
102
RTVSPost2010PropOp33
 70
     1
102
RTVSPost2010Prop34
280
     0
102
RTVSPost2010PropOp34
 70
     1
102
RTVSPost2010Prop35
280
     0
102
RTVSPost2010PropOp35
 70
     1
102
RTVSPost2010Prop36
280
     0
102
RTVSPost2010PropOp36
 70
     1
102
RTVSPost2010Prop37
 90
       50
102
RTVSPost2010PropOp37
 70
     1
102
RTVSPost2010Prop38
140
0.0
102
RTVSPost2010PropOp38
 70
     1
102
RTVSPost2010Prop39
140
1.0
102
RTVSPost2010PropOp39
 70
     1
102
RTVSPost2010Prop40
 90
        0
102
RTVSPost2010PropOp40
 70
     1
102
RTVSPost2010Prop41ColorIndex
 90
       18
102
RTVSPost2010Prop41ColorRGB
 90
        0
102
RTVSPost2010PropOp41
 70
     1
102
RTVSPost2010Prop42
 90
       50
102
RTVSPost2010PropOp42
 70
     1
102
RTVSPost2010Prop43
 90
        3
102
RTVSPost2010PropOp43
 70
     1
102
RTVSPost2010Prop44ColorIndex
 90
        5
102
RTVSPost2010Prop44ColorRGB
 90
      255
102
RTVSPost2010PropOp44
 70
     1
102
RTVSPost2010Prop45
280
     0
102
RTVSPost2010PropOp45
 70
     1
102
RTVSPost2010Prop46
 90
       50
102
RTVSPost2010PropOp46
 70
     1
102
RTVSPost2010Prop47
 90
       50
102
RTVSPost2010PropOp47
 70
     1
102
RTVSPost2010Prop48
 90
       50
102
RTVSPost2010PropOp48
 70
     1
102
RTVSPost2010Prop49
280
     0
102
RTVSPost2010PropOp49
 70
     1
102
RTVSPost2010Prop50
 90
       50
102
RTVSPost2010PropOp50
 70
     1
102
RTVSPost2010Prop51ColorIndex
 90
      256
102
RTVSPost2010Prop51ColorRGB
 90
-16777216
102
RTVSPost2010PropOp51
 70
     0
102
RTVSPost2010Prop52
140
1.0
102
RTVSPost2010PropOp52
 70
     0
102
RTVSPost2010Prop53
 90
        2
102
RTVSPost2010PropOp53
 70
     1
102
RTVSPost2010Prop54
  1
strokes_ogs.tif
102
RTVSPost2010PropOp54
 70
     1
102
RTVSPost2010Prop55
280
     0
102
RTVSPost2010PropOp55
 70
     1
102
RTVSPost2010Prop56
140
1.0
102
RTVSPost2010PropOp56
 70
     1
102
RTVSPost2010Prop57
140
1.0
102
RTVSPost2010PropOp57
 70
     1
  0
XRECORD
  5
3AD4
102
{ACAD_REACTORS
330
3AD3
102
}
330
3AD3
100
AcDbXrecord
280
     1
102
RTVSPost2010Prop28
280
     0
102
RTVSPost2010PropOp28
 70
     1
102
RTVSPost2010Prop29
280
     1
102
RTVSPost2010PropOp29
 70
     1
102
RTVSPost2010Prop30
280
     1
102
RTVSPost2010PropOp30
 70
     1
102
RTVSPost2010Prop31
280
     0
102
RTVSPost2010PropOp31
 70
     1
102
RTVSPost2010Prop32
280
     0
102
RTVSPost2010PropOp32
 70
     1
102
RTVSPost2010Prop33
280
     0
102
RTVSPost2010PropOp33
 70
     1
102
RTVSPost2010Prop34
280
     0
102
RTVSPost2010PropOp34
 70
     1
102
RTVSPost2010Prop35
280
     0
102
RTVSPost2010PropOp35
 70
     1
102
RTVSPost2010Prop36
280
     0
102
RTVSPost2010PropOp36
 70
     1
102
RTVSPost2010Prop37
 90
       50
102
RTVSPost2010PropOp37
 70
     1
102
RTVSPost2010Prop38
140
0.0
102
RTVSPost2010PropOp38
 70
     1
102
RTVSPost2010Prop39
140
1.0
102
RTVSPost2010PropOp39
 70
     1
102
RTVSPost2010Prop40
 90
        0
102
RTVSPost2010PropOp40
 70
     1
102
RTVSPost2010Prop41ColorIndex
 90
       18
102
RTVSPost2010Prop41ColorRGB
 90
        0
102
RTVSPost2010PropOp41
 70
     1
102
RTVSPost2010Prop42
 90
       50
102
RTVSPost2010PropOp42
 70
     1
102
RTVSPost2010Prop43
 90
        3
102
RTVSPost2010PropOp43
 70
     1
102
RTVSPost2010Prop44ColorIndex
 90
        5
102
RTVSPost2010Prop44ColorRGB
 90
      255
102
RTVSPost2010PropOp44
 70
     1
102
RTVSPost2010Prop45
280
     0
102
RTVSPost2010PropOp45
 70
     1
102
RTVSPost2010Prop46
 90
       50
102
RTVSPost2010PropOp46
 70
     1
102
RTVSPost2010Prop47
 90
       50
102
RTVSPost2010PropOp47
 70
     1
102
RTVSPost2010Prop48
 90
       50
102
RTVSPost2010PropOp48
 70
     1
102
RTVSPost2010Prop49
280
     0
102
RTVSPost2010PropOp49
 70
     1
102
RTVSPost2010Prop50
 90
       50
102
RTVSPost2010PropOp50
 70
     1
102
RTVSPost2010Prop51ColorIndex
 90
      256
102
RTVSPost2010Prop51ColorRGB
 90
-16777216
102
RTVSPost2010PropOp51
 70
     0
102
RTVSPost2010Prop52
140
1.0
102
RTVSPost2010PropOp52
 70
     0
102
RTVSPost2010Prop53
 90
        2
102
RTVSPost2010PropOp53
 70
     1
102
RTVSPost2010Prop54
  1
strokes_ogs.tif
102
RTVSPost2010PropOp54
 70
     1
102
RTVSPost2010Prop55
280
     0
102
RTVSPost2010PropOp55
 70
     1
102
RTVSPost2010Prop56
140
1.0
102
RTVSPost2010PropOp56
 70
     1
102
RTVSPost2010Prop57
140
1.0
102
RTVSPost2010PropOp57
 70
     1
  0
XRECORD
  5
3ACC
102
{ACAD_REACTORS
330
3ACB
102
}
330
3ACB
100
AcDbXrecord
280
     1
102
RTVSPost2010Prop28
280
     0
102
RTVSPost2010PropOp28
 70
     1
102
RTVSPost2010Prop29
280
     1
102
RTVSPost2010PropOp29
 70
     1
102
RTVSPost2010Prop30
280
     1
102
RTVSPost2010PropOp30
 70
     1
102
RTVSPost2010Prop31
280
     0
102
RTVSPost2010PropOp31
 70
     1
102
RTVSPost2010Prop32
280
     0
102
RTVSPost2010PropOp32
 70
     1
102
RTVSPost2010Prop33
280
     0
102
RTVSPost2010PropOp33
 70
     1
102
RTVSPost2010Prop34
280
     0
102
RTVSPost2010PropOp34
 70
     1
102
RTVSPost2010Prop35
280
     0
102
RTVSPost2010PropOp35
 70
     1
102
RTVSPost2010Prop36
280
     0
102
RTVSPost2010PropOp36
 70
     1
102
RTVSPost2010Prop37
 90
       50
102
RTVSPost2010PropOp37
 70
     1
102
RTVSPost2010Prop38
140
0.0
102
RTVSPost2010PropOp38
 70
     1
102
RTVSPost2010Prop39
140
1.0
102
RTVSPost2010PropOp39
 70
     1
102
RTVSPost2010Prop40
 90
        0
102
RTVSPost2010PropOp40
 70
     1
102
RTVSPost2010Prop41ColorIndex
 90
       18
102
RTVSPost2010Prop41ColorRGB
 90
        0
102
RTVSPost2010PropOp41
 70
     1
102
RTVSPost2010Prop42
 90
       50
102
RTVSPost2010PropOp42
 70
     1
102
RTVSPost2010Prop43
 90
        3
102
RTVSPost2010PropOp43
 70
     1
102
RTVSPost2010Prop44ColorIndex
 90
        5
102
RTVSPost2010Prop44ColorRGB
 90
      255
102
RTVSPost2010PropOp44
 70
     1
102
RTVSPost2010Prop45
280
     0
102
RTVSPost2010PropOp45
 70
     1
102
RTVSPost2010Prop46
 90
       50
102
RTVSPost2010PropOp46
 70
     1
102
RTVSPost2010Prop47
 90
       50
102
RTVSPost2010PropOp47
 70
     1
102
RTVSPost2010Prop48
 90
       50
102
RTVSPost2010PropOp48
 70
     1
102
RTVSPost2010Prop49
280
     0
102
RTVSPost2010PropOp49
 70
     1
102
RTVSPost2010Prop50
 90
       50
102
RTVSPost2010PropOp50
 70
     1
102
RTVSPost2010Prop51ColorIndex
 90
      256
102
RTVSPost2010Prop51ColorRGB
 90
-16777216
102
RTVSPost2010PropOp51
 70
     0
102
RTVSPost2010Prop52
140
1.0
102
RTVSPost2010PropOp52
 70
     0
102
RTVSPost2010Prop53
 90
        2
102
RTVSPost2010PropOp53
 70
     1
102
RTVSPost2010Prop54
  1
strokes_ogs.tif
102
RTVSPost2010PropOp54
 70
     1
102
RTVSPost2010Prop55
280
     0
102
RTVSPost2010PropOp55
 70
     1
102
RTVSPost2010Prop56
140
1.0
102
RTVSPost2010PropOp56
 70
     1
102
RTVSPost2010Prop57
140
1.0
102
RTVSPost2010PropOp57
 70
     1
  0
XRECORD
  5
3AB0
102
{ACAD_REACTORS
330
3AAF
102
}
330
3AAF
100
AcDbXrecord
280
     1
102
RTVSPost2010Prop28
280
     0
102
RTVSPost2010PropOp28
 70
     1
102
RTVSPost2010Prop29
280
     1
102
RTVSPost2010PropOp29
 70
     1
102
RTVSPost2010Prop30
280
     1
102
RTVSPost2010PropOp30
 70
     1
102
RTVSPost2010Prop31
280
     0
102
RTVSPost2010PropOp31
 70
     1
102
RTVSPost2010Prop32
280
     0
102
RTVSPost2010PropOp32
 70
     1
102
RTVSPost2010Prop33
280
     0
102
RTVSPost2010PropOp33
 70
     1
102
RTVSPost2010Prop34
280
     0
102
RTVSPost2010PropOp34
 70
     1
102
RTVSPost2010Prop35
280
     0
102
RTVSPost2010PropOp35
 70
     1
102
RTVSPost2010Prop36
280
     0
102
RTVSPost2010PropOp36
 70
     1
102
RTVSPost2010Prop37
 90
       50
102
RTVSPost2010PropOp37
 70
     1
102
RTVSPost2010Prop38
140
0.0
102
RTVSPost2010PropOp38
 70
     1
102
RTVSPost2010Prop39
140
1.0
102
RTVSPost2010PropOp39
 70
     1
102
RTVSPost2010Prop40
 90
        0
102
RTVSPost2010PropOp40
 70
     1
102
RTVSPost2010Prop41ColorIndex
 90
       18
102
RTVSPost2010Prop41ColorRGB
 90
        0
102
RTVSPost2010PropOp41
 70
     1
102
RTVSPost2010Prop42
 90
       50
102
RTVSPost2010PropOp42
 70
     1
102
RTVSPost2010Prop43
 90
        3
102
RTVSPost2010PropOp43
 70
     1
102
RTVSPost2010Prop44ColorIndex
 90
        5
102
RTVSPost2010Prop44ColorRGB
 90
      255
102
RTVSPost2010PropOp44
 70
     1
102
RTVSPost2010Prop45
280
     0
102
RTVSPost2010PropOp45
 70
     1
102
RTVSPost2010Prop46
 90
       50
102
RTVSPost2010PropOp46
 70
     1
102
RTVSPost2010Prop47
 90
       50
102
RTVSPost2010PropOp47
 70
     1
102
RTVSPost2010Prop48
 90
       50
102
RTVSPost2010PropOp48
 70
     1
102
RTVSPost2010Prop49
280
     0
102
RTVSPost2010PropOp49
 70
     1
102
RTVSPost2010Prop50
 90
       50
102
RTVSPost2010PropOp50
 70
     1
102
RTVSPost2010Prop51ColorIndex
 90
      256
102
RTVSPost2010Prop51ColorRGB
 90
-16777216
102
RTVSPost2010PropOp51
 70
     0
102
RTVSPost2010Prop52
140
1.0
102
RTVSPost2010PropOp52
 70
     0
102
RTVSPost2010Prop53
 90
        2
102
RTVSPost2010PropOp53
 70
     1
102
RTVSPost2010Prop54
  1
strokes_ogs.tif
102
RTVSPost2010PropOp54
 70
     1
102
RTVSPost2010Prop55
280
     0
102
RTVSPost2010PropOp55
 70
     1
102
RTVSPost2010Prop56
140
1.0
102
RTVSPost2010PropOp56
 70
     1
102
RTVSPost2010Prop57
140
1.0
102
RTVSPost2010PropOp57
 70
     1
  0
XRECORD
  5
3AB2
102
{ACAD_REACTORS
330
3AB1
102
}
330
3AB1
100
AcDbXrecord
280
     1
102
RTVSPost2010Prop28
280
     0
102
RTVSPost2010PropOp28
 70
     1
102
RTVSPost2010Prop29
280
     1
102
RTVSPost2010PropOp29
 70
     1
102
RTVSPost2010Prop30
280
     1
102
RTVSPost2010PropOp30
 70
     1
102
RTVSPost2010Prop31
280
     0
102
RTVSPost2010PropOp31
 70
     1
102
RTVSPost2010Prop32
280
     0
102
RTVSPost2010PropOp32
 70
     1
102
RTVSPost2010Prop33
280
     0
102
RTVSPost2010PropOp33
 70
     1
102
RTVSPost2010Prop34
280
     0
102
RTVSPost2010PropOp34
 70
     1
102
RTVSPost2010Prop35
280
     0
102
RTVSPost2010PropOp35
 70
     1
102
RTVSPost2010Prop36
280
     0
102
RTVSPost2010PropOp36
 70
     1
102
RTVSPost2010Prop37
 90
       50
102
RTVSPost2010PropOp37
 70
     1
102
RTVSPost2010Prop38
140
0.0
102
RTVSPost2010PropOp38
 70
     1
102
RTVSPost2010Prop39
140
1.0
102
RTVSPost2010PropOp39
 70
     1
102
RTVSPost2010Prop40
 90
        0
102
RTVSPost2010PropOp40
 70
     1
102
RTVSPost2010Prop41ColorIndex
 90
       18
102
RTVSPost2010Prop41ColorRGB
 90
        0
102
RTVSPost2010PropOp41
 70
     1
102
RTVSPost2010Prop42
 90
       50
102
RTVSPost2010PropOp42
 70
     1
102
RTVSPost2010Prop43
 90
        3
102
RTVSPost2010PropOp43
 70
     1
102
RTVSPost2010Prop44ColorIndex
 90
        5
102
RTVSPost2010Prop44ColorRGB
 90
      255
102
RTVSPost2010PropOp44
 70
     1
102
RTVSPost2010Prop45
280
     0
102
RTVSPost2010PropOp45
 70
     1
102
RTVSPost2010Prop46
 90
       50
102
RTVSPost2010PropOp46
 70
     1
102
RTVSPost2010Prop47
 90
       50
102
RTVSPost2010PropOp47
 70
     1
102
RTVSPost2010Prop48
 90
       50
102
RTVSPost2010PropOp48
 70
     1
102
RTVSPost2010Prop49
280
     0
102
RTVSPost2010PropOp49
 70
     1
102
RTVSPost2010Prop50
 90
       50
102
RTVSPost2010PropOp50
 70
     1
102
RTVSPost2010Prop51ColorIndex
 90
      256
102
RTVSPost2010Prop51ColorRGB
 90
-16777216
102
RTVSPost2010PropOp51
 70
     0
102
RTVSPost2010Prop52
140
1.0
102
RTVSPost2010PropOp52
 70
     0
102
RTVSPost2010Prop53
 90
        2
102
RTVSPost2010PropOp53
 70
     1
102
RTVSPost2010Prop54
  1
strokes_ogs.tif
102
RTVSPost2010PropOp54
 70
     1
102
RTVSPost2010Prop55
280
     0
102
RTVSPost2010PropOp55
 70
     1
102
RTVSPost2010Prop56
140
1.0
102
RTVSPost2010PropOp56
 70
     1
102
RTVSPost2010Prop57
140
1.0
102
RTVSPost2010PropOp57
 70
     1
  0
XRECORD
  5
3AB4
102
{ACAD_REACTORS
330
3AB3
102
}
330
3AB3
100
AcDbXrecord
280
     1
102
RTVSPost2010Prop28
280
     0
102
RTVSPost2010PropOp28
 70
     1
102
RTVSPost2010Prop29
280
     1
102
RTVSPost2010PropOp29
 70
     1
102
RTVSPost2010Prop30
280
     1
102
RTVSPost2010PropOp30
 70
     1
102
RTVSPost2010Prop31
280
     0
102
RTVSPost2010PropOp31
 70
     1
102
RTVSPost2010Prop32
280
     0
102
RTVSPost2010PropOp32
 70
     1
102
RTVSPost2010Prop33
280
     0
102
RTVSPost2010PropOp33
 70
     1
102
RTVSPost2010Prop34
280
     0
102
RTVSPost2010PropOp34
 70
     1
102
RTVSPost2010Prop35
280
     0
102
RTVSPost2010PropOp35
 70
     1
102
RTVSPost2010Prop36
280
     0
102
RTVSPost2010PropOp36
 70
     1
102
RTVSPost2010Prop37
 90
       50
102
RTVSPost2010PropOp37
 70
     1
102
RTVSPost2010Prop38
140
0.0
102
RTVSPost2010PropOp38
 70
     1
102
RTVSPost2010Prop39
140
1.0
102
RTVSPost2010PropOp39
 70
     1
102
RTVSPost2010Prop40
 90
        0
102
RTVSPost2010PropOp40
 70
     1
102
RTVSPost2010Prop41ColorIndex
 90
       18
102
RTVSPost2010Prop41ColorRGB
 90
        0
102
RTVSPost2010PropOp41
 70
     1
102
RTVSPost2010Prop42
 90
       50
102
RTVSPost2010PropOp42
 70
     1
102
RTVSPost2010Prop43
 90
        3
102
RTVSPost2010PropOp43
 70
     1
102
RTVSPost2010Prop44ColorIndex
 90
        5
102
RTVSPost2010Prop44ColorRGB
 90
      255
102
RTVSPost2010PropOp44
 70
     1
102
RTVSPost2010Prop45
280
     0
102
RTVSPost2010PropOp45
 70
     1
102
RTVSPost2010Prop46
 90
       50
102
RTVSPost2010PropOp46
 70
     1
102
RTVSPost2010Prop47
 90
       50
102
RTVSPost2010PropOp47
 70
     1
102
RTVSPost2010Prop48
 90
       50
102
RTVSPost2010PropOp48
 70
     1
102
RTVSPost2010Prop49
280
     0
102
RTVSPost2010PropOp49
 70
     1
102
RTVSPost2010Prop50
 90
       50
102
RTVSPost2010PropOp50
 70
     1
102
RTVSPost2010Prop51ColorIndex
 90
      256
102
RTVSPost2010Prop51ColorRGB
 90
-16777216
102
RTVSPost2010PropOp51
 70
     0
102
RTVSPost2010Prop52
140
1.0
102
RTVSPost2010PropOp52
 70
     0
102
RTVSPost2010Prop53
 90
        2
102
RTVSPost2010PropOp53
 70
     1
102
RTVSPost2010Prop54
  1
strokes_ogs.tif
102
RTVSPost2010PropOp54
 70
     1
102
RTVSPost2010Prop55
280
     0
102
RTVSPost2010PropOp55
 70
     1
102
RTVSPost2010Prop56
140
1.0
102
RTVSPost2010PropOp56
 70
     1
102
RTVSPost2010Prop57
140
1.0
102
RTVSPost2010PropOp57
 70
     1
  0
XRECORD
  5
3AB6
102
{ACAD_REACTORS
330
3AB5
102
}
330
3AB5
100
AcDbXrecord
280
     1
102
RTVSPost2010Prop28
280
     0
102
RTVSPost2010PropOp28
 70
     1
102
RTVSPost2010Prop29
280
     1
102
RTVSPost2010PropOp29
 70
     1
102
RTVSPost2010Prop30
280
     1
102
RTVSPost2010PropOp30
 70
     1
102
RTVSPost2010Prop31
280
     0
102
RTVSPost2010PropOp31
 70
     1
102
RTVSPost2010Prop32
280
     0
102
RTVSPost2010PropOp32
 70
     1
102
RTVSPost2010Prop33
280
     0
102
RTVSPost2010PropOp33
 70
     1
102
RTVSPost2010Prop34
280
     0
102
RTVSPost2010PropOp34
 70
     1
102
RTVSPost2010Prop35
280
     0
102
RTVSPost2010PropOp35
 70
     1
102
RTVSPost2010Prop36
280
     0
102
RTVSPost2010PropOp36
 70
     1
102
RTVSPost2010Prop37
 90
       50
102
RTVSPost2010PropOp37
 70
     1
102
RTVSPost2010Prop38
140
0.0
102
RTVSPost2010PropOp38
 70
     1
102
RTVSPost2010Prop39
140
1.0
102
RTVSPost2010PropOp39
 70
     1
102
RTVSPost2010Prop40
 90
        0
102
RTVSPost2010PropOp40
 70
     1
102
RTVSPost2010Prop41ColorIndex
 90
       18
102
RTVSPost2010Prop41ColorRGB
 90
        0
102
RTVSPost2010PropOp41
 70
     1
102
RTVSPost2010Prop42
 90
       50
102
RTVSPost2010PropOp42
 70
     1
102
RTVSPost2010Prop43
 90
        3
102
RTVSPost2010PropOp43
 70
     1
102
RTVSPost2010Prop44ColorIndex
 90
        5
102
RTVSPost2010Prop44ColorRGB
 90
      255
102
RTVSPost2010PropOp44
 70
     1
102
RTVSPost2010Prop45
280
     0
102
RTVSPost2010PropOp45
 70
     1
102
RTVSPost2010Prop46
 90
       50
102
RTVSPost2010PropOp46
 70
     1
102
RTVSPost2010Prop47
 90
       50
102
RTVSPost2010PropOp47
 70
     1
102
RTVSPost2010Prop48
 90
       50
102
RTVSPost2010PropOp48
 70
     1
102
RTVSPost2010Prop49
280
     0
102
RTVSPost2010PropOp49
 70
     1
102
RTVSPost2010Prop50
 90
       50
102
RTVSPost2010PropOp50
 70
     1
102
RTVSPost2010Prop51ColorIndex
 90
      256
102
RTVSPost2010Prop51ColorRGB
 90
-16777216
102
RTVSPost2010PropOp51
 70
     0
102
RTVSPost2010Prop52
140
1.0
102
RTVSPost2010PropOp52
 70
     0
102
RTVSPost2010Prop53
 90
        2
102
RTVSPost2010PropOp53
 70
     1
102
RTVSPost2010Prop54
  1
strokes_ogs.tif
102
RTVSPost2010PropOp54
 70
     1
102
RTVSPost2010Prop55
280
     0
102
RTVSPost2010PropOp55
 70
     1
102
RTVSPost2010Prop56
140
1.0
102
RTVSPost2010PropOp56
 70
     1
102
RTVSPost2010Prop57
140
1.0
102
RTVSPost2010PropOp57
 70
     1
  0
XRECORD
  5
3ABE
102
{ACAD_REACTORS
330
3ABD
102
}
330
3ABD
100
AcDbXrecord
280
     1
102
RTVSPost2010Prop28
280
     0
102
RTVSPost2010PropOp28
 70
     1
102
RTVSPost2010Prop29
280
     1
102
RTVSPost2010PropOp29
 70
     1
102
RTVSPost2010Prop30
280
     1
102
RTVSPost2010PropOp30
 70
     1
102
RTVSPost2010Prop31
280
     0
102
RTVSPost2010PropOp31
 70
     1
102
RTVSPost2010Prop32
280
     0
102
RTVSPost2010PropOp32
 70
     1
102
RTVSPost2010Prop33
280
     0
102
RTVSPost2010PropOp33
 70
     1
102
RTVSPost2010Prop34
280
     0
102
RTVSPost2010PropOp34
 70
     1
102
RTVSPost2010Prop35
280
     0
102
RTVSPost2010PropOp35
 70
     1
102
RTVSPost2010Prop36
280
     0
102
RTVSPost2010PropOp36
 70
     1
102
RTVSPost2010Prop37
 90
       50
102
RTVSPost2010PropOp37
 70
     1
102
RTVSPost2010Prop38
140
0.0
102
RTVSPost2010PropOp38
 70
     1
102
RTVSPost2010Prop39
140
1.0
102
RTVSPost2010PropOp39
 70
     1
102
RTVSPost2010Prop40
 90
        0
102
RTVSPost2010PropOp40
 70
     1
102
RTVSPost2010Prop41ColorIndex
 90
       18
102
RTVSPost2010Prop41ColorRGB
 90
        0
102
RTVSPost2010PropOp41
 70
     1
102
RTVSPost2010Prop42
 90
       50
102
RTVSPost2010PropOp42
 70
     1
102
RTVSPost2010Prop43
 90
        3
102
RTVSPost2010PropOp43
 70
     1
102
RTVSPost2010Prop44ColorIndex
 90
        5
102
RTVSPost2010Prop44ColorRGB
 90
      255
102
RTVSPost2010PropOp44
 70
     1
102
RTVSPost2010Prop45
280
     0
102
RTVSPost2010PropOp45
 70
     1
102
RTVSPost2010Prop46
 90
       50
102
RTVSPost2010PropOp46
 70
     1
102
RTVSPost2010Prop47
 90
       50
102
RTVSPost2010PropOp47
 70
     1
102
RTVSPost2010Prop48
 90
       50
102
RTVSPost2010PropOp48
 70
     1
102
RTVSPost2010Prop49
280
     0
102
RTVSPost2010PropOp49
 70
     1
102
RTVSPost2010Prop50
 90
       50
102
RTVSPost2010PropOp50
 70
     1
102
RTVSPost2010Prop51ColorIndex
 90
      256
102
RTVSPost2010Prop51ColorRGB
 90
-16777216
102
RTVSPost2010PropOp51
 70
     0
102
RTVSPost2010Prop52
140
1.0
102
RTVSPost2010PropOp52
 70
     0
102
RTVSPost2010Prop53
 90
        2
102
RTVSPost2010PropOp53
 70
     1
102
RTVSPost2010Prop54
  1
strokes_ogs.tif
102
RTVSPost2010PropOp54
 70
     1
102
RTVSPost2010Prop55
280
     0
102
RTVSPost2010PropOp55
 70
     1
102
RTVSPost2010Prop56
140
1.0
102
RTVSPost2010PropOp56
 70
     1
102
RTVSPost2010Prop57
140
1.0
102
RTVSPost2010PropOp57
 70
     1
  0
XRECORD
  5
3AD0
102
{ACAD_REACTORS
330
3ACF
102
}
330
3ACF
100
AcDbXrecord
280
     1
102
RTVSPost2010Prop28
280
     0
102
RTVSPost2010PropOp28
 70
     1
102
RTVSPost2010Prop29
280
     1
102
RTVSPost2010PropOp29
 70
     1
102
RTVSPost2010Prop30
280
     1
102
RTVSPost2010PropOp30
 70
     1
102
RTVSPost2010Prop31
280
     0
102
RTVSPost2010PropOp31
 70
     1
102
RTVSPost2010Prop32
280
     0
102
RTVSPost2010PropOp32
 70
     1
102
RTVSPost2010Prop33
280
     0
102
RTVSPost2010PropOp33
 70
     1
102
RTVSPost2010Prop34
280
     0
102
RTVSPost2010PropOp34
 70
     1
102
RTVSPost2010Prop35
280
     0
102
RTVSPost2010PropOp35
 70
     1
102
RTVSPost2010Prop36
280
     0
102
RTVSPost2010PropOp36
 70
     1
102
RTVSPost2010Prop37
 90
       50
102
RTVSPost2010PropOp37
 70
     1
102
RTVSPost2010Prop38
140
0.0
102
RTVSPost2010PropOp38
 70
     1
102
RTVSPost2010Prop39
140
1.0
102
RTVSPost2010PropOp39
 70
     1
102
RTVSPost2010Prop40
 90
        0
102
RTVSPost2010PropOp40
 70
     1
102
RTVSPost2010Prop41ColorIndex
 90
       18
102
RTVSPost2010Prop41ColorRGB
 90
        0
102
RTVSPost2010PropOp41
 70
     1
102
RTVSPost2010Prop42
 90
       50
102
RTVSPost2010PropOp42
 70
     1
102
RTVSPost2010Prop43
 90
        3
102
RTVSPost2010PropOp43
 70
     1
102
RTVSPost2010Prop44ColorIndex
 90
        5
102
RTVSPost2010Prop44ColorRGB
 90
      255
102
RTVSPost2010PropOp44
 70
     1
102
RTVSPost2010Prop45
280
     0
102
RTVSPost2010PropOp45
 70
     1
102
RTVSPost2010Prop46
 90
       50
102
RTVSPost2010PropOp46
 70
     1
102
RTVSPost2010Prop47
 90
       50
102
RTVSPost2010PropOp47
 70
     1
102
RTVSPost2010Prop48
 90
       50
102
RTVSPost2010PropOp48
 70
     1
102
RTVSPost2010Prop49
280
     0
102
RTVSPost2010PropOp49
 70
     1
102
RTVSPost2010Prop50
 90
       50
102
RTVSPost2010PropOp50
 70
     1
102
RTVSPost2010Prop51ColorIndex
 90
      256
102
RTVSPost2010Prop51ColorRGB
 90
-16777216
102
RTVSPost2010PropOp51
 70
     0
102
RTVSPost2010Prop52
140
1.0
102
RTVSPost2010PropOp52
 70
     0
102
RTVSPost2010Prop53
 90
        2
102
RTVSPost2010PropOp53
 70
     1
102
RTVSPost2010Prop54
  1
strokes_ogs.tif
102
RTVSPost2010PropOp54
 70
     1
102
RTVSPost2010Prop55
280
     0
102
RTVSPost2010PropOp55
 70
     1
102
RTVSPost2010Prop56
140
1.0
102
RTVSPost2010PropOp56
 70
     1
102
RTVSPost2010Prop57
140
1.0
102
RTVSPost2010PropOp57
 70
     1
  0
XRECORD
  5
3ACA
102
{ACAD_REACTORS
330
3AC9
102
}
330
3AC9
100
AcDbXrecord
280
     1
102
RTVSPost2010Prop28
280
     0
102
RTVSPost2010PropOp28
 70
     1
102
RTVSPost2010Prop29
280
     1
102
RTVSPost2010PropOp29
 70
     1
102
RTVSPost2010Prop30
280
     1
102
RTVSPost2010PropOp30
 70
     1
102
RTVSPost2010Prop31
280
     0
102
RTVSPost2010PropOp31
 70
     1
102
RTVSPost2010Prop32
280
     0
102
RTVSPost2010PropOp32
 70
     1
102
RTVSPost2010Prop33
280
     0
102
RTVSPost2010PropOp33
 70
     1
102
RTVSPost2010Prop34
280
     0
102
RTVSPost2010PropOp34
 70
     1
102
RTVSPost2010Prop35
280
     0
102
RTVSPost2010PropOp35
 70
     1
102
RTVSPost2010Prop36
280
     0
102
RTVSPost2010PropOp36
 70
     1
102
RTVSPost2010Prop37
 90
       50
102
RTVSPost2010PropOp37
 70
     1
102
RTVSPost2010Prop38
140
0.0
102
RTVSPost2010PropOp38
 70
     1
102
RTVSPost2010Prop39
140
1.0
102
RTVSPost2010PropOp39
 70
     1
102
RTVSPost2010Prop40
 90
        0
102
RTVSPost2010PropOp40
 70
     1
102
RTVSPost2010Prop41ColorIndex
 90
       18
102
RTVSPost2010Prop41ColorRGB
 90
        0
102
RTVSPost2010PropOp41
 70
     1
102
RTVSPost2010Prop42
 90
       50
102
RTVSPost2010PropOp42
 70
     1
102
RTVSPost2010Prop43
 90
        3
102
RTVSPost2010PropOp43
 70
     1
102
RTVSPost2010Prop44ColorIndex
 90
        5
102
RTVSPost2010Prop44ColorRGB
 90
      255
102
RTVSPost2010PropOp44
 70
     1
102
RTVSPost2010Prop45
280
     0
102
RTVSPost2010PropOp45
 70
     1
102
RTVSPost2010Prop46
 90
       50
102
RTVSPost2010PropOp46
 70
     1
102
RTVSPost2010Prop47
 90
       50
102
RTVSPost2010PropOp47
 70
     1
102
RTVSPost2010Prop48
 90
       50
102
RTVSPost2010PropOp48
 70
     1
102
RTVSPost2010Prop49
280
     0
102
RTVSPost2010PropOp49
 70
     1
102
RTVSPost2010Prop50
 90
       50
102
RTVSPost2010PropOp50
 70
     1
102
RTVSPost2010Prop51ColorIndex
 90
      256
102
RTVSPost2010Prop51ColorRGB
 90
-16777216
102
RTVSPost2010PropOp51
 70
     0
102
RTVSPost2010Prop52
140
1.0
102
RTVSPost2010PropOp52
 70
     0
102
RTVSPost2010Prop53
 90
        2
102
RTVSPost2010PropOp53
 70
     1
102
RTVSPost2010Prop54
  1
strokes_ogs.tif
102
RTVSPost2010PropOp54
 70
     1
102
RTVSPost2010Prop55
280
     0
102
RTVSPost2010PropOp55
 70
     1
102
RTVSPost2010Prop56
140
1.0
102
RTVSPost2010PropOp56
 70
     1
102
RTVSPost2010Prop57
140
1.0
102
RTVSPost2010PropOp57
 70
     1
  0
XRECORD
  5
3AD2
102
{ACAD_REACTORS
330
3AD1
102
}
330
3AD1
100
AcDbXrecord
280
     1
102
RTVSPost2010Prop28
280
     0
102
RTVSPost2010PropOp28
 70
     1
102
RTVSPost2010Prop29
280
     1
102
RTVSPost2010PropOp29
 70
     1
102
RTVSPost2010Prop30
280
     1
102
RTVSPost2010PropOp30
 70
     1
102
RTVSPost2010Prop31
280
     0
102
RTVSPost2010PropOp31
 70
     1
102
RTVSPost2010Prop32
280
     0
102
RTVSPost2010PropOp32
 70
     1
102
RTVSPost2010Prop33
280
     0
102
RTVSPost2010PropOp33
 70
     1
102
RTVSPost2010Prop34
280
     0
102
RTVSPost2010PropOp34
 70
     1
102
RTVSPost2010Prop35
280
     0
102
RTVSPost2010PropOp35
 70
     1
102
RTVSPost2010Prop36
280
     0
102
RTVSPost2010PropOp36
 70
     1
102
RTVSPost2010Prop37
 90
       50
102
RTVSPost2010PropOp37
 70
     1
102
RTVSPost2010Prop38
140
0.0
102
RTVSPost2010PropOp38
 70
     1
102
RTVSPost2010Prop39
140
1.0
102
RTVSPost2010PropOp39
 70
     1
102
RTVSPost2010Prop40
 90
        0
102
RTVSPost2010PropOp40
 70
     1
102
RTVSPost2010Prop41ColorIndex
 90
       18
102
RTVSPost2010Prop41ColorRGB
 90
        0
102
RTVSPost2010PropOp41
 70
     1
102
RTVSPost2010Prop42
 90
       50
102
RTVSPost2010PropOp42
 70
     1
102
RTVSPost2010Prop43
 90
        3
102
RTVSPost2010PropOp43
 70
     1
102
RTVSPost2010Prop44ColorIndex
 90
        5
102
RTVSPost2010Prop44ColorRGB
 90
      255
102
RTVSPost2010PropOp44
 70
     1
102
RTVSPost2010Prop45
280
     0
102
RTVSPost2010PropOp45
 70
     1
102
RTVSPost2010Prop46
 90
       50
102
RTVSPost2010PropOp46
 70
     1
102
RTVSPost2010Prop47
 90
       50
102
RTVSPost2010PropOp47
 70
     1
102
RTVSPost2010Prop48
 90
       50
102
RTVSPost2010PropOp48
 70
     1
102
RTVSPost2010Prop49
280
     0
102
RTVSPost2010PropOp49
 70
     1
102
RTVSPost2010Prop50
 90
       50
102
RTVSPost2010PropOp50
 70
     1
102
RTVSPost2010Prop51ColorIndex
 90
      256
102
RTVSPost2010Prop51ColorRGB
 90
-16777216
102
RTVSPost2010PropOp51
 70
     0
102
RTVSPost2010Prop52
140
1.0
102
RTVSPost2010PropOp52
 70
     0
102
RTVSPost2010Prop53
 90
        2
102
RTVSPost2010PropOp53
 70
     1
102
RTVSPost2010Prop54
  1
strokes_ogs.tif
102
RTVSPost2010PropOp54
 70
     1
102
RTVSPost2010Prop55
280
     0
102
RTVSPost2010PropOp55
 70
     1
102
RTVSPost2010Prop56
140
1.0
102
RTVSPost2010PropOp56
 70
     1
102
RTVSPost2010Prop57
140
1.0
102
RTVSPost2010PropOp57
 70
     1
  0
XRECORD
  5
3AC2
102
{ACAD_REACTORS
330
3AC1
102
}
330
3AC1
100
AcDbXrecord
280
     1
102
RTVSPost2010Prop28
280
     0
102
RTVSPost2010PropOp28
 70
     1
102
RTVSPost2010Prop29
280
     1
102
RTVSPost2010PropOp29
 70
     1
102
RTVSPost2010Prop30
280
     1
102
RTVSPost2010PropOp30
 70
     1
102
RTVSPost2010Prop31
280
     0
102
RTVSPost2010PropOp31
 70
     1
102
RTVSPost2010Prop32
280
     0
102
RTVSPost2010PropOp32
 70
     1
102
RTVSPost2010Prop33
280
     0
102
RTVSPost2010PropOp33
 70
     1
102
RTVSPost2010Prop34
280
     0
102
RTVSPost2010PropOp34
 70
     1
102
RTVSPost2010Prop35
280
     0
102
RTVSPost2010PropOp35
 70
     1
102
RTVSPost2010Prop36
280
     0
102
RTVSPost2010PropOp36
 70
     1
102
RTVSPost2010Prop37
 90
       50
102
RTVSPost2010PropOp37
 70
     1
102
RTVSPost2010Prop38
140
0.0
102
RTVSPost2010PropOp38
 70
     1
102
RTVSPost2010Prop39
140
1.0
102
RTVSPost2010PropOp39
 70
     1
102
RTVSPost2010Prop40
 90
        0
102
RTVSPost2010PropOp40
 70
     1
102
RTVSPost2010Prop41ColorIndex
 90
       18
102
RTVSPost2010Prop41ColorRGB
 90
        0
102
RTVSPost2010PropOp41
 70
     1
102
RTVSPost2010Prop42
 90
       50
102
RTVSPost2010PropOp42
 70
     1
102
RTVSPost2010Prop43
 90
        3
102
RTVSPost2010PropOp43
 70
     1
102
RTVSPost2010Prop44ColorIndex
 90
        5
102
RTVSPost2010Prop44ColorRGB
 90
      255
102
RTVSPost2010PropOp44
 70
     1
102
RTVSPost2010Prop45
280
     0
102
RTVSPost2010PropOp45
 70
     1
102
RTVSPost2010Prop46
 90
       50
102
RTVSPost2010PropOp46
 70
     1
102
RTVSPost2010Prop47
 90
       50
102
RTVSPost2010PropOp47
 70
     1
102
RTVSPost2010Prop48
 90
       50
102
RTVSPost2010PropOp48
 70
     1
102
RTVSPost2010Prop49
280
     0
102
RTVSPost2010PropOp49
 70
     1
102
RTVSPost2010Prop50
 90
       50
102
RTVSPost2010PropOp50
 70
     1
102
RTVSPost2010Prop51ColorIndex
 90
      256
102
RTVSPost2010Prop51ColorRGB
 90
-16777216
102
RTVSPost2010PropOp51
 70
     0
102
RTVSPost2010Prop52
140
1.0
102
RTVSPost2010PropOp52
 70
     0
102
RTVSPost2010Prop53
 90
        2
102
RTVSPost2010PropOp53
 70
     1
102
RTVSPost2010Prop54
  1
strokes_ogs.tif
102
RTVSPost2010PropOp54
 70
     1
102
RTVSPost2010Prop55
280
     0
102
RTVSPost2010PropOp55
 70
     1
102
RTVSPost2010Prop56
140
1.0
102
RTVSPost2010PropOp56
 70
     1
102
RTVSPost2010Prop57
140
1.0
102
RTVSPost2010PropOp57
 70
     1
  0
XRECORD
  5
3ADE
102
{ACAD_REACTORS
330
3ADD
102
}
330
3ADD
100
AcDbXrecord
280
     1
102
RTVSPost2010Prop28
280
     0
102
RTVSPost2010PropOp28
 70
     1
102
RTVSPost2010Prop29
280
     1
102
RTVSPost2010PropOp29
 70
     1
102
RTVSPost2010Prop30
280
     1
102
RTVSPost2010PropOp30
 70
     1
102
RTVSPost2010Prop31
280
     0
102
RTVSPost2010PropOp31
 70
     1
102
RTVSPost2010Prop32
280
     0
102
RTVSPost2010PropOp32
 70
     1
102
RTVSPost2010Prop33
280
     0
102
RTVSPost2010PropOp33
 70
     1
102
RTVSPost2010Prop34
280
     0
102
RTVSPost2010PropOp34
 70
     1
102
RTVSPost2010Prop35
280
     0
102
RTVSPost2010PropOp35
 70
     1
102
RTVSPost2010Prop36
280
     0
102
RTVSPost2010PropOp36
 70
     1
102
RTVSPost2010Prop37
 90
       50
102
RTVSPost2010PropOp37
 70
     1
102
RTVSPost2010Prop38
140
0.0
102
RTVSPost2010PropOp38
 70
     1
102
RTVSPost2010Prop39
140
1.0
102
RTVSPost2010PropOp39
 70
     1
102
RTVSPost2010Prop40
 90
        0
102
RTVSPost2010PropOp40
 70
     1
102
RTVSPost2010Prop41ColorIndex
 90
       18
102
RTVSPost2010Prop41ColorRGB
 90
        0
102
RTVSPost2010PropOp41
 70
     1
102
RTVSPost2010Prop42
 90
       50
102
RTVSPost2010PropOp42
 70
     1
102
RTVSPost2010Prop43
 90
        3
102
RTVSPost2010PropOp43
 70
     1
102
RTVSPost2010Prop44ColorIndex
 90
        5
102
RTVSPost2010Prop44ColorRGB
 90
      255
102
RTVSPost2010PropOp44
 70
     1
102
RTVSPost2010Prop45
280
     0
102
RTVSPost2010PropOp45
 70
     1
102
RTVSPost2010Prop46
 90
       50
102
RTVSPost2010PropOp46
 70
     1
102
RTVSPost2010Prop47
 90
       50
102
RTVSPost2010PropOp47
 70
     1
102
RTVSPost2010Prop48
 90
       50
102
RTVSPost2010PropOp48
 70
     1
102
RTVSPost2010Prop49
280
     0
102
RTVSPost2010PropOp49
 70
     1
102
RTVSPost2010Prop50
 90
       50
102
RTVSPost2010PropOp50
 70
     1
102
RTVSPost2010Prop51ColorIndex
 90
      256
102
RTVSPost2010Prop51ColorRGB
 90
-16777216
102
RTVSPost2010PropOp51
 70
     0
102
RTVSPost2010Prop52
140
1.0
102
RTVSPost2010PropOp52
 70
     0
102
RTVSPost2010Prop53
 90
        2
102
RTVSPost2010PropOp53
 70
     1
102
RTVSPost2010Prop54
  1
strokes_ogs.tif
102
RTVSPost2010PropOp54
 70
     1
102
RTVSPost2010Prop55
280
     0
102
RTVSPost2010PropOp55
 70
     1
102
RTVSPost2010Prop56
140
1.0
102
RTVSPost2010PropOp56
 70
     1
102
RTVSPost2010Prop57
140
1.0
102
RTVSPost2010PropOp57
 70
     1
  0
XRECORD
  5
3ADC
102
{ACAD_REACTORS
330
3ADB
102
}
330
3ADB
100
AcDbXrecord
280
     1
102
RTVSPost2010Prop28
280
     0
102
RTVSPost2010PropOp28
 70
     1
102
RTVSPost2010Prop29
280
     1
102
RTVSPost2010PropOp29
 70
     1
102
RTVSPost2010Prop30
280
     1
102
RTVSPost2010PropOp30
 70
     1
102
RTVSPost2010Prop31
280
     0
102
RTVSPost2010PropOp31
 70
     1
102
RTVSPost2010Prop32
280
     0
102
RTVSPost2010PropOp32
 70
     1
102
RTVSPost2010Prop33
280
     0
102
RTVSPost2010PropOp33
 70
     1
102
RTVSPost2010Prop34
280
     0
102
RTVSPost2010PropOp34
 70
     1
102
RTVSPost2010Prop35
280
     0
102
RTVSPost2010PropOp35
 70
     1
102
RTVSPost2010Prop36
280
     0
102
RTVSPost2010PropOp36
 70
     1
102
RTVSPost2010Prop37
 90
       50
102
RTVSPost2010PropOp37
 70
     1
102
RTVSPost2010Prop38
140
0.0
102
RTVSPost2010PropOp38
 70
     1
102
RTVSPost2010Prop39
140
1.0
102
RTVSPost2010PropOp39
 70
     1
102
RTVSPost2010Prop40
 90
        0
102
RTVSPost2010PropOp40
 70
     1
102
RTVSPost2010Prop41ColorIndex
 90
       18
102
RTVSPost2010Prop41ColorRGB
 90
        0
102
RTVSPost2010PropOp41
 70
     1
102
RTVSPost2010Prop42
 90
       50
102
RTVSPost2010PropOp42
 70
     1
102
RTVSPost2010Prop43
 90
        3
102
RTVSPost2010PropOp43
 70
     1
102
RTVSPost2010Prop44ColorIndex
 90
        5
102
RTVSPost2010Prop44ColorRGB
 90
      255
102
RTVSPost2010PropOp44
 70
     1
102
RTVSPost2010Prop45
280
     0
102
RTVSPost2010PropOp45
 70
     1
102
RTVSPost2010Prop46
 90
       50
102
RTVSPost2010PropOp46
 70
     1
102
RTVSPost2010Prop47
 90
       50
102
RTVSPost2010PropOp47
 70
     1
102
RTVSPost2010Prop48
 90
       50
102
RTVSPost2010PropOp48
 70
     1
102
RTVSPost2010Prop49
280
     0
102
RTVSPost2010PropOp49
 70
     1
102
RTVSPost2010Prop50
 90
       50
102
RTVSPost2010PropOp50
 70
     1
102
RTVSPost2010Prop51ColorIndex
 90
      256
102
RTVSPost2010Prop51ColorRGB
 90
-16777216
102
RTVSPost2010PropOp51
 70
     0
102
RTVSPost2010Prop52
140
1.0
102
RTVSPost2010PropOp52
 70
     0
102
RTVSPost2010Prop53
 90
        2
102
RTVSPost2010PropOp53
 70
     1
102
RTVSPost2010Prop54
  1
strokes_ogs.tif
102
RTVSPost2010PropOp54
 70
     1
102
RTVSPost2010Prop55
280
     0
102
RTVSPost2010PropOp55
 70
     1
102
RTVSPost2010Prop56
140
1.0
102
RTVSPost2010PropOp56
 70
     1
102
RTVSPost2010Prop57
140
1.0
102
RTVSPost2010PropOp57
 70
     1
  0
XRECORD
  5
3AD6
102
{ACAD_REACTORS
330
3AD5
102
}
330
3AD5
100
AcDbXrecord
280
     1
102
RTVSPost2010Prop28
280
     0
102
RTVSPost2010PropOp28
 70
     1
102
RTVSPost2010Prop29
280
     1
102
RTVSPost2010PropOp29
 70
     1
102
RTVSPost2010Prop30
280
     1
102
RTVSPost2010PropOp30
 70
     1
102
RTVSPost2010Prop31
280
     0
102
RTVSPost2010PropOp31
 70
     1
102
RTVSPost2010Prop32
280
     0
102
RTVSPost2010PropOp32
 70
     1
102
RTVSPost2010Prop33
280
     0
102
RTVSPost2010PropOp33
 70
     1
102
RTVSPost2010Prop34
280
     0
102
RTVSPost2010PropOp34
 70
     1
102
RTVSPost2010Prop35
280
     0
102
RTVSPost2010PropOp35
 70
     1
102
RTVSPost2010Prop36
280
     0
102
RTVSPost2010PropOp36
 70
     1
102
RTVSPost2010Prop37
 90
       50
102
RTVSPost2010PropOp37
 70
     1
102
RTVSPost2010Prop38
140
0.0
102
RTVSPost2010PropOp38
 70
     1
102
RTVSPost2010Prop39
140
1.0
102
RTVSPost2010PropOp39
 70
     1
102
RTVSPost2010Prop40
 90
        0
102
RTVSPost2010PropOp40
 70
     1
102
RTVSPost2010Prop41ColorIndex
 90
       18
102
RTVSPost2010Prop41ColorRGB
 90
        0
102
RTVSPost2010PropOp41
 70
     1
102
RTVSPost2010Prop42
 90
       50
102
RTVSPost2010PropOp42
 70
     1
102
RTVSPost2010Prop43
 90
        3
102
RTVSPost2010PropOp43
 70
     1
102
RTVSPost2010Prop44ColorIndex
 90
        5
102
RTVSPost2010Prop44ColorRGB
 90
      255
102
RTVSPost2010PropOp44
 70
     1
102
RTVSPost2010Prop45
280
     0
102
RTVSPost2010PropOp45
 70
     1
102
RTVSPost2010Prop46
 90
       50
102
RTVSPost2010PropOp46
 70
     1
102
RTVSPost2010Prop47
 90
       50
102
RTVSPost2010PropOp47
 70
     1
102
RTVSPost2010Prop48
 90
       50
102
RTVSPost2010PropOp48
 70
     1
102
RTVSPost2010Prop49
280
     0
102
RTVSPost2010PropOp49
 70
     1
102
RTVSPost2010Prop50
 90
       50
102
RTVSPost2010PropOp50
 70
     1
102
RTVSPost2010Prop51ColorIndex
 90
      256
102
RTVSPost2010Prop51ColorRGB
 90
-16777216
102
RTVSPost2010PropOp51
 70
     0
102
RTVSPost2010Prop52
140
1.0
102
RTVSPost2010PropOp52
 70
     0
102
RTVSPost2010Prop53
 90
        2
102
RTVSPost2010PropOp53
 70
     1
102
RTVSPost2010Prop54
  1
strokes_ogs.tif
102
RTVSPost2010PropOp54
 70
     1
102
RTVSPost2010Prop55
280
     0
102
RTVSPost2010PropOp55
 70
     1
102
RTVSPost2010Prop56
140
1.0
102
RTVSPost2010PropOp56
 70
     1
102
RTVSPost2010Prop57
140
1.0
102
RTVSPost2010PropOp57
 70
     1
  0
XRECORD
  5
3AD8
102
{ACAD_REACTORS
330
3AD7
102
}
330
3AD7
100
AcDbXrecord
280
     1
102
RTVSPost2010Prop28
280
     0
102
RTVSPost2010PropOp28
 70
     1
102
RTVSPost2010Prop29
280
     1
102
RTVSPost2010PropOp29
 70
     1
102
RTVSPost2010Prop30
280
     1
102
RTVSPost2010PropOp30
 70
     1
102
RTVSPost2010Prop31
280
     0
102
RTVSPost2010PropOp31
 70
     1
102
RTVSPost2010Prop32
280
     0
102
RTVSPost2010PropOp32
 70
     1
102
RTVSPost2010Prop33
280
     0
102
RTVSPost2010PropOp33
 70
     1
102
RTVSPost2010Prop34
280
     0
102
RTVSPost2010PropOp34
 70
     1
102
RTVSPost2010Prop35
280
     0
102
RTVSPost2010PropOp35
 70
     1
102
RTVSPost2010Prop36
280
     0
102
RTVSPost2010PropOp36
 70
     1
102
RTVSPost2010Prop37
 90
       50
102
RTVSPost2010PropOp37
 70
     1
102
RTVSPost2010Prop38
140
0.0
102
RTVSPost2010PropOp38
 70
     1
102
RTVSPost2010Prop39
140
1.0
102
RTVSPost2010PropOp39
 70
     1
102
RTVSPost2010Prop40
 90
        0
102
RTVSPost2010PropOp40
 70
     1
102
RTVSPost2010Prop41ColorIndex
 90
       18
102
RTVSPost2010Prop41ColorRGB
 90
        0
102
RTVSPost2010PropOp41
 70
     1
102
RTVSPost2010Prop42
 90
       50
102
RTVSPost2010PropOp42
 70
     1
102
RTVSPost2010Prop43
 90
        3
102
RTVSPost2010PropOp43
 70
     1
102
RTVSPost2010Prop44ColorIndex
 90
        5
102
RTVSPost2010Prop44ColorRGB
 90
      255
102
RTVSPost2010PropOp44
 70
     1
102
RTVSPost2010Prop45
280
     0
102
RTVSPost2010PropOp45
 70
     1
102
RTVSPost2010Prop46
 90
       50
102
RTVSPost2010PropOp46
 70
     1
102
RTVSPost2010Prop47
 90
       50
102
RTVSPost2010PropOp47
 70
     1
102
RTVSPost2010Prop48
 90
       50
102
RTVSPost2010PropOp48
 70
     1
102
RTVSPost2010Prop49
280
     0
102
RTVSPost2010PropOp49
 70
     1
102
RTVSPost2010Prop50
 90
       50
102
RTVSPost2010PropOp50
 70
     1
102
RTVSPost2010Prop51ColorIndex
 90
      256
102
RTVSPost2010Prop51ColorRGB
 90
-16777216
102
RTVSPost2010PropOp51
 70
     0
102
RTVSPost2010Prop52
140
1.0
102
RTVSPost2010PropOp52
 70
     0
102
RTVSPost2010Prop53
 90
        2
102
RTVSPost2010PropOp53
 70
     1
102
RTVSPost2010Prop54
  1
strokes_ogs.tif
102
RTVSPost2010PropOp54
 70
     1
102
RTVSPost2010Prop55
280
     0
102
RTVSPost2010PropOp55
 70
     1
102
RTVSPost2010Prop56
140
1.0
102
RTVSPost2010PropOp56
 70
     1
102
RTVSPost2010Prop57
140
1.0
102
RTVSPost2010PropOp57
 70
     1
  0
XRECORD
  5
3AC8
102
{ACAD_REACTORS
330
3AC7
102
}
330
3AC7
100
AcDbXrecord
280
     1
102
RTVSPost2010Prop28
280
     0
102
RTVSPost2010PropOp28
 70
     1
102
RTVSPost2010Prop29
280
     1
102
RTVSPost2010PropOp29
 70
     1
102
RTVSPost2010Prop30
280
     1
102
RTVSPost2010PropOp30
 70
     1
102
RTVSPost2010Prop31
280
     0
102
RTVSPost2010PropOp31
 70
     1
102
RTVSPost2010Prop32
280
     0
102
RTVSPost2010PropOp32
 70
     1
102
RTVSPost2010Prop33
280
     0
102
RTVSPost2010PropOp33
 70
     1
102
RTVSPost2010Prop34
280
     0
102
RTVSPost2010PropOp34
 70
     1
102
RTVSPost2010Prop35
280
     0
102
RTVSPost2010PropOp35
 70
     1
102
RTVSPost2010Prop36
280
     0
102
RTVSPost2010PropOp36
 70
     1
102
RTVSPost2010Prop37
 90
       50
102
RTVSPost2010PropOp37
 70
     1
102
RTVSPost2010Prop38
140
0.0
102
RTVSPost2010PropOp38
 70
     1
102
RTVSPost2010Prop39
140
1.0
102
RTVSPost2010PropOp39
 70
     1
102
RTVSPost2010Prop40
 90
        0
102
RTVSPost2010PropOp40
 70
     1
102
RTVSPost2010Prop41ColorIndex
 90
       18
102
RTVSPost2010Prop41ColorRGB
 90
        0
102
RTVSPost2010PropOp41
 70
     1
102
RTVSPost2010Prop42
 90
       50
102
RTVSPost2010PropOp42
 70
     1
102
RTVSPost2010Prop43
 90
        3
102
RTVSPost2010PropOp43
 70
     1
102
RTVSPost2010Prop44ColorIndex
 90
        5
102
RTVSPost2010Prop44ColorRGB
 90
      255
102
RTVSPost2010PropOp44
 70
     1
102
RTVSPost2010Prop45
280
     0
102
RTVSPost2010PropOp45
 70
     1
102
RTVSPost2010Prop46
 90
       50
102
RTVSPost2010PropOp46
 70
     1
102
RTVSPost2010Prop47
 90
       50
102
RTVSPost2010PropOp47
 70
     1
102
RTVSPost2010Prop48
 90
       50
102
RTVSPost2010PropOp48
 70
     1
102
RTVSPost2010Prop49
280
     0
102
RTVSPost2010PropOp49
 70
     1
102
RTVSPost2010Prop50
 90
       50
102
RTVSPost2010PropOp50
 70
     1
102
RTVSPost2010Prop51ColorIndex
 90
      256
102
RTVSPost2010Prop51ColorRGB
 90
-16777216
102
RTVSPost2010PropOp51
 70
     0
102
RTVSPost2010Prop52
140
1.0
102
RTVSPost2010PropOp52
 70
     0
102
RTVSPost2010Prop53
 90
        2
102
RTVSPost2010PropOp53
 70
     1
102
RTVSPost2010Prop54
  1
strokes_ogs.tif
102
RTVSPost2010PropOp54
 70
     1
102
RTVSPost2010Prop55
280
     0
102
RTVSPost2010PropOp55
 70
     1
102
RTVSPost2010Prop56
140
1.0
102
RTVSPost2010PropOp56
 70
     1
102
RTVSPost2010Prop57
140
1.0
102
RTVSPost2010PropOp57
 70
     1
  0
XRECORD
  5
3ABC
102
{ACAD_REACTORS
330
3ABB
102
}
330
3ABB
100
AcDbXrecord
280
     1
102
RTVSPost2010Prop28
280
     0
102
RTVSPost2010PropOp28
 70
     1
102
RTVSPost2010Prop29
280
     1
102
RTVSPost2010PropOp29
 70
     1
102
RTVSPost2010Prop30
280
     1
102
RTVSPost2010PropOp30
 70
     1
102
RTVSPost2010Prop31
280
     0
102
RTVSPost2010PropOp31
 70
     1
102
RTVSPost2010Prop32
280
     0
102
RTVSPost2010PropOp32
 70
     1
102
RTVSPost2010Prop33
280
     0
102
RTVSPost2010PropOp33
 70
     1
102
RTVSPost2010Prop34
280
     0
102
RTVSPost2010PropOp34
 70
     1
102
RTVSPost2010Prop35
280
     0
102
RTVSPost2010PropOp35
 70
     1
102
RTVSPost2010Prop36
280
     0
102
RTVSPost2010PropOp36
 70
     1
102
RTVSPost2010Prop37
 90
       50
102
RTVSPost2010PropOp37
 70
     1
102
RTVSPost2010Prop38
140
0.0
102
RTVSPost2010PropOp38
 70
     1
102
RTVSPost2010Prop39
140
1.0
102
RTVSPost2010PropOp39
 70
     1
102
RTVSPost2010Prop40
 90
        0
102
RTVSPost2010PropOp40
 70
     1
102
RTVSPost2010Prop41ColorIndex
 90
       18
102
RTVSPost2010Prop41ColorRGB
 90
        0
102
RTVSPost2010PropOp41
 70
     1
102
RTVSPost2010Prop42
 90
       50
102
RTVSPost2010PropOp42
 70
     1
102
RTVSPost2010Prop43
 90
        3
102
RTVSPost2010PropOp43
 70
     1
102
RTVSPost2010Prop44ColorIndex
 90
        5
102
RTVSPost2010Prop44ColorRGB
 90
      255
102
RTVSPost2010PropOp44
 70
     1
102
RTVSPost2010Prop45
280
     0
102
RTVSPost2010PropOp45
 70
     1
102
RTVSPost2010Prop46
 90
       50
102
RTVSPost2010PropOp46
 70
     1
102
RTVSPost2010Prop47
 90
       50
102
RTVSPost2010PropOp47
 70
     1
102
RTVSPost2010Prop48
 90
       50
102
RTVSPost2010PropOp48
 70
     1
102
RTVSPost2010Prop49
280
     0
102
RTVSPost2010PropOp49
 70
     1
102
RTVSPost2010Prop50
 90
       50
102
RTVSPost2010PropOp50
 70
     1
102
RTVSPost2010Prop51ColorIndex
 90
      256
102
RTVSPost2010Prop51ColorRGB
 90
-16777216
102
RTVSPost2010PropOp51
 70
     0
102
RTVSPost2010Prop52
140
1.0
102
RTVSPost2010PropOp52
 70
     0
102
RTVSPost2010Prop53
 90
        2
102
RTVSPost2010PropOp53
 70
     1
102
RTVSPost2010Prop54
  1
strokes_ogs.tif
102
RTVSPost2010PropOp54
 70
     1
102
RTVSPost2010Prop55
280
     0
102
RTVSPost2010PropOp55
 70
     1
102
RTVSPost2010Prop56
140
1.0
102
RTVSPost2010PropOp56
 70
     1
102
RTVSPost2010Prop57
140
1.0
102
RTVSPost2010PropOp57
 70
     1
  0
XRECORD
  5
3ADA
102
{ACAD_REACTORS
330
3AD9
102
}
330
3AD9
100
AcDbXrecord
280
     1
102
RTVSPost2010Prop28
280
     0
102
RTVSPost2010PropOp28
 70
     1
102
RTVSPost2010Prop29
280
     1
102
RTVSPost2010PropOp29
 70
     1
102
RTVSPost2010Prop30
280
     1
102
RTVSPost2010PropOp30
 70
     1
102
RTVSPost2010Prop31
280
     0
102
RTVSPost2010PropOp31
 70
     1
102
RTVSPost2010Prop32
280
     0
102
RTVSPost2010PropOp32
 70
     1
102
RTVSPost2010Prop33
280
     0
102
RTVSPost2010PropOp33
 70
     1
102
RTVSPost2010Prop34
280
     0
102
RTVSPost2010PropOp34
 70
     1
102
RTVSPost2010Prop35
280
     0
102
RTVSPost2010PropOp35
 70
     1
102
RTVSPost2010Prop36
280
     0
102
RTVSPost2010PropOp36
 70
     1
102
RTVSPost2010Prop37
 90
       50
102
RTVSPost2010PropOp37
 70
     1
102
RTVSPost2010Prop38
140
0.0
102
RTVSPost2010PropOp38
 70
     1
102
RTVSPost2010Prop39
140
1.0
102
RTVSPost2010PropOp39
 70
     1
102
RTVSPost2010Prop40
 90
        0
102
RTVSPost2010PropOp40
 70
     1
102
RTVSPost2010Prop41ColorIndex
 90
       18
102
RTVSPost2010Prop41ColorRGB
 90
        0
102
RTVSPost2010PropOp41
 70
     1
102
RTVSPost2010Prop42
 90
       50
102
RTVSPost2010PropOp42
 70
     1
102
RTVSPost2010Prop43
 90
        3
102
RTVSPost2010PropOp43
 70
     1
102
RTVSPost2010Prop44ColorIndex
 90
        5
102
RTVSPost2010Prop44ColorRGB
 90
      255
102
RTVSPost2010PropOp44
 70
     1
102
RTVSPost2010Prop45
280
     0
102
RTVSPost2010PropOp45
 70
     1
102
RTVSPost2010Prop46
 90
       50
102
RTVSPost2010PropOp46
 70
     1
102
RTVSPost2010Prop47
 90
       50
102
RTVSPost2010PropOp47
 70
     1
102
RTVSPost2010Prop48
 90
       50
102
RTVSPost2010PropOp48
 70
     1
102
RTVSPost2010Prop49
280
     0
102
RTVSPost2010PropOp49
 70
     1
102
RTVSPost2010Prop50
 90
       50
102
RTVSPost2010PropOp50
 70
     1
102
RTVSPost2010Prop51ColorIndex
 90
      256
102
RTVSPost2010Prop51ColorRGB
 90
-16777216
102
RTVSPost2010PropOp51
 70
     0
102
RTVSPost2010Prop52
140
1.0
102
RTVSPost2010PropOp52
 70
     0
102
RTVSPost2010Prop53
 90
        2
102
RTVSPost2010PropOp53
 70
     1
102
RTVSPost2010Prop54
  1
strokes_ogs.tif
102
RTVSPost2010PropOp54
 70
     1
102
RTVSPost2010Prop55
280
     0
102
RTVSPost2010PropOp55
 70
     1
102
RTVSPost2010Prop56
140
1.0
102
RTVSPost2010PropOp56
 70
     1
102
RTVSPost2010Prop57
140
1.0
102
RTVSPost2010PropOp57
 70
     1
  0
ENDSEC
  0
EOF
